#TITLE:Roll The Dice;
#SUBTITLE:;
#ARTIST:Lapix;
#TITLETRANSLIT:;
#SUBTITLETRANSLIT:;
#ARTISTTRANSLIT:;
#GENRE:;
#CREDIT:;
#MENUCOLOR:;
#METERTYPE:DDR;
#BANNER:Roll The Dice.png;
#BACKGROUND:Roll The Dice-bg.png;
#LYRICSPATH:;
#CDTITLE:;
#MUSIC:Roll The Dice.ogg;
#OFFSET:0.080;
#SAMPLESTART:95.880;
#SAMPLELENGTH:15.000;
#SELECTABLE:YES;
#LISTSORT:;
#DISPLAYBPM:82.000:165.000;
#BPMS:0.000=165.000,72.000=82.500,86.000=165.000,90.000=82.500,97.000=165.000;
#STOPS:179.000=2.540
;
#BGCHANGES:;
#ATTACKS:;

//---------------dance-single - ----------------
#NOTES:
     dance-single:
     :
     Hard:
     16:
     0.912,1.000,0.168,0.545,1.000: // measure 1
0000
0000
0000
0000
,  // measure 2
0000
0000
0000
0000
,  // measure 3
0000
0000
0000
0000
,  // measure 4
0000
0000
0000
0000
,  // measure 5
0000
0000
0000
0000
,  // measure 6
0000
0000
0000
0000
,  // measure 7
1000
0010
1000
0010
1000
0000
0000
0000
0001
0000
0100
0000
1000
0000
0000
0000
,  // measure 8
0001
0010
0001
0010
0001
0000
0000
0000
1000
0000
0100
0000
0001
0000
0000
0000
,  // measure 9
1000
0010
1000
0000
0001
0000
0100
0000
0010
0100
0010
0000
1000
0000
0100
0000
,  // measure 10
0020
0000
0130
0001
2000
0000
3010
0000
,  // measure 11
1001
0000
0000
0001
0100
0000
0010
0000
1000
0010
0000
1000
0010
0000
0100
0000
,  // measure 12
0001
0000
0000
0100
0010
0000
1000
0000
0001
0100
0000
0001
0100
0000
0010
0000
,  // measure 13
1000
0000
0000
0100
1000
0000
0010
0000
0100
0001
0000
0100
0001
0000
0100
0000
,  // measure 14
0100
0000
0000
0010
1000
0000
0010
0000
0100
0010
0100
0001
0100
0000
0010
0000
,  // measure 15
1000
0000
0010
0100
0010
0000
1000
0001
1000
0000
0001
0100
0001
0000
1000
0100
,  // measure 16
1000
0000
0001
0010
0001
0000
0100
0010
1000
0000
0100
0001
0100
0000
0010
1000
,  // measure 17
0001
0100
0001
0100
0001
1000
0100
0010
0001
1000
0001
1000
0001
0010
0100
1000
,  // measure 18
0010
0010
0010
0010
0220
0330
0120
0000
,  // measure 19
1030
0002
0200
0303
1000
0002
0200
0303
1000
0002
0200
0303
1000
0001
0100
0010
,  // measure 20
1000
0000
0200
0000
0002
0000
0303
0000
2000
0000
0000
0000
3002
0000
0000
0000
1003
0000
0100
0000
0002
0000
0003
0000
1000
0100
0010
0001
0100
0010
0100
0010
,  // measure 21
1000
0020
0200
0330
1000
0020
0200
0330
1000
0020
0200
0330
1000
0010
0100
0001
,  // measure 22
1000
0001
0200
0000
0310
0010
0010
0010
1000
0100
1000
0100
0010
0001
0010
0001
,  // measure 23
0100
0010
0100
0010
1000
0100
0010
0001
1000
0002
0020
0033
1000
0002
0200
0303
,  // measure 24
1000
0002
0020
0033
0100
0001
0010
1000
0100
0002
0020
0033
0100
0010
2002
3003
,  // measure 25
0010
0001
0200
0000
0302
0000
0000
0000
0000
0000
0000
0000
2003
0000
0100
0000
,  // measure 26
3002
0100
2003
0010
3002
0010
2003
0100
,  // measure 27
3020
0100
2030
0001
3020
0001
1030
1000
,  // measure 28
0001
0000
0001
0000
1000
0100
0010
0001
0100
0001
0100
0002
2000
0000
0000
0000
,  // measure 29
0000
0000
0000
0000
3003
0000
2000
0010
,  // measure 30
3200
0000
0001
0000
0320
0000
0001
0000
0230
0000
0001
0000
1300
0001
1000
0001
,  // measure 31
0100
0010
0100
0010
1000
0000
0010
0000
0001
0000
0010
0000
1000
0100
0010
0001
,  // measure 32
0100
0000
0010
0000
1000
0010
0100
0001
1000
0000
0100
0000
1000
0001
1000
0010
,  // measure 33
0100
0000
0001
0000
0100
0010
0100
0000
0010
0100
0010
0000
2000
0000
0001
0000
,  // measure 34
3020
0000
0100
0000
2030
0000
0010
0000
3002
0000
0100
0000
1003
0100
1000
0100
,  // measure 35
1000
0010
1000
0010
1000
0000
0001
0000
0100
0000
0010
0000
1000
0100
1000
0001
,  // measure 36
0100
0000
0000
0001
0000
0001
1000
0000
0010
0000
0100
0000
0001
0010
0000
0100
,  // measure 37
0000
1000
0001
1000
0000
0100
0000
0010
0100
0010
1000
0100
0010
0000
0100
0000
,  // measure 38
0001
0100
0000
0000
1000
0000
0001
0000
1000
0000
0010
0000
1000
0000
0001
0000
,  // measure 39
0100
0001
0000
0000
1000
0000
0010
0000
0200
0000
0000
0000
0301
0000
0010
0000
,  // measure 40
0100
0000
1000
0000
0001
0000
0100
0000
0010
0000
0000
1000
0000
0000
1001
0000
,  // measure 41
0000
0110
0000
0000
1001
0000
1000
0000
0020
0000
0000
0000
1030
0000
0001
0000
,  // measure 42
1000
0100
0000
0000
1000
0000
0010
0000
0100
0000
0001
0000
0010
0000
0100
0000
,  // measure 43
1000
0001
1000
0000
0100
0000
0010
0000
0200
0000
0000
0000
0301
0000
1000
0000
,  // measure 44
0001
0100
0010
0000
0001
0000
1000
0000
0101
0000
0000
1001
0000
0000
1100
0000
,  // measure 45
0000
1001
0000
0000
0001
0010
0100
1000
0001
0010
0100
1000
0002
0000
0000
0000
,  // measure 46
2003
3020
0230
0302
,  // measure 47
2003
3200
0320
0032
,  // measure 48
1003
0100
1000
0010
0010
0100
0001
0010
0001
0100
0100
0010
,  // measure 49
1000
0010
1000
0001
0001
1000
0010
0100
0001
1000
1000
0001
,  // measure 50
1000
0100
1000
0100
1000
0000
0010
0000
0001
0010
0001
0010
0001
0000
0010
0000
,  // measure 51
1000
0010
1000
0100
1000
0000
0001
0000
0100
0001
0010
0001
0100
0001
0010
0001
,  // measure 52
0100
0000
0001
0100
0000
0001
0100
0000
1000
0001
0000
1000
0001
0000
0100
0000
,  // measure 53
0010
0000
1000
0100
0000
1000
0100
0000
0010
0001
0000
0010
0001
0000
0100
0000
,  // measure 54
0010
0000
1000
0001
0000
1000
0001
0000
0100
0001
0000
0100
0010
0000
1000
0000
,  // measure 55
0001
0000
0010
0001
0000
0100
0010
0000
1000
0100
0000
0010
0001
0000
0100
0000
,  // measure 56
1001
0000
0001
0100
0000
1000
0100
0010
0001
0000
1000
0100
0000
0001
0010
0100
,  // measure 57
1000
0000
0010
0100
0000
1000
0010
0100
0001
0000
0001
0100
0000
0010
0100
0001
,  // measure 58
1000
0001
1000
0001
0100
0010
0100
0010
1000
0001
0100
0010
1000
0001
0100
0000
,  // measure 59
2001
0001
0001
3001
,  // measure 60
1010
0000
0001
0100
0000
0001
1000
0001
1000
0000
1000
0010
0000
0100
0010
0100
,  // measure 61
0010
0000
1000
0001
0000
0100
0010
1000
0010
0000
0100
0001
0000
1000
0001
1000
,  // measure 62
0001
0000
1000
0010
0000
1000
0001
1000
0001
0000
0100
0010
0000
1000
0001
1000
,  // measure 63
0001
0000
0100
0010
0000
1000
0010
0100
0010
0000
1000
0010
0000
0100
0010
1000
,  // measure 64
0010
0000
0100
0001
0000
1000
0100
1000
0100
0000
0010
0001
0000
1000
0010
1000
,  // measure 65
0010
0000
0100
0001
0000
1000
0010
0100
0010
0000
1000
0001
0000
0100
0010
0000
,  // measure 66
1000
0000
1000
0100
0000
0100
0010
0100
0010
0000
0010
0001
0000
0001
0100
0001
,  // measure 67
0100
0000
0000
0110
0000
0000
0110
0000
0000
0110
0000
0000
1000
0100
0010
0001
,  // measure 68
0100
0000
0010
1000
0010
0000
0010
1000
0010
0000
0010
1000
0010
0000
0100
0001
,  // measure 69
0100
0000
0100
0001
0100
0000
0100
0001
0100
0000
0001
0010
0000
0100
1000
0100
,  // measure 70
1000
0000
0001
0100
0001
0000
1000
0100
1000
0000
1000
0100
1000
0000
0001
0100
,  // measure 71
0001
0000
0010
0001
0000
0100
0010
1000
0001
0000
1000
0100
0000
0010
0001
0100
,  // measure 72
0001
0000
1001
0000
1001
0000
0010
0100
0010
0000
1000
0100
0000
0010
0001
0000
,  // measure 73
0100
0000
0010
0100
0010
0000
0100
0001
0010
0000
0001
0010
0000
0100
1000
0000
,  // measure 74
1010
0000
0000
0010
0100
0000
0101
0000
0100
0000
0010
0100
0010
0000
1000
0000
,  // measure 75
0001
0100
0001
0100
1000
0100
1000
0100
0001
0100
1000
0100
0001
0010
0100
2000
,  // measure 76
0002
0000
0000
0000
,  // measure 77
0000
0000
0000
0000
,  // measure 78
3003
0000
0000
0000
;

//---------------dance-single - ----------------
#NOTES:
     dance-single:
     :
     Medium:
     11:
     0.500,0.524,0.353,0.200,0.184: // measure 1
0000
0000
0000
0000
,  // measure 2
0000
0000
0000
0000
,  // measure 3
0000
0000
0000
0000
,  // measure 4
0000
0000
0000
0000
,  // measure 5
0000
0000
0000
0000
,  // measure 6
0000
0000
0000
0000
,  // measure 7
1000
0100
0020
0000
1030
0100
0020
0000
,  // measure 8
0031
0100
0020
0000
0031
0100
0020
0000
,  // measure 9
2030
0000
3001
0100
0002
0000
1003
0100
,  // measure 10
2000
0000
3010
0100
0020
0000
0130
0000
,  // measure 11
1001
0000
0000
0000
0100
0000
0000
0000
0010
0000
0000
0010
0000
0000
1000
0000
,  // measure 12
0001
0000
0000
0000
1001
0000
0000
0000
0100
0000
0000
0100
0000
0000
1000
0000
,  // measure 13
0001
0000
0000
0000
1001
0000
0000
0000
0010
0000
0000
0010
0000
0000
0100
0000
,  // measure 14
0001
0000
0000
0000
1001
0000
0000
0000
0010
0000
0000
0010
0000
0000
0100
0000
,  // measure 15
1000
0001
1000
0000
0001
1000
0001
0000
,  // measure 16
1000
0100
1000
0000
0001
0100
0001
0000
,  // measure 17
2000
3002
0203
0300
,  // measure 18
0010
0010
0010
1001
,  // measure 19
0000
1000
0001
0100
0000
0001
1000
0100
,  // measure 20
0000
1000
0001
0010
1000
0001
0200
0000
,  // measure 21
1300
0001
0100
0001
0000
1000
0100
1000
,  // measure 22
0001
0010
0100
1000
0002
0000
0000
0000
,  // measure 23
0103
0010
0100
0000
0000
0001
1000
0001
,  // measure 24
0000
1000
0100
1000
0000
0001
0100
0010
,  // measure 25
1000
0100
0020
0000
0000
0000
1030
0000
,  // measure 26
1000
0001
0001
1000
,  // measure 27
0001
0000
1000
0000
0001
0000
1000
0001
,  // measure 28
1000
0001
1000
0001
1000
0001
2000
0000
,  // measure 29
0000
0000
0000
0000
3000
0000
1000
0010
,  // measure 30
0100
0000
0010
0001
0100
0000
1000
0001
,  // measure 31
0100
0000
0010
1000
0001
0000
1000
0000
,  // measure 32
0001
0000
1000
0010
1000
0000
1000
0001
,  // measure 33
0100
0000
0100
0000
0110
0000
1000
0001
,  // measure 34
0010
0000
0010
0000
0101
0000
1000
0100
,  // measure 35
1000
0000
0010
0000
0110
0000
1000
0100
,  // measure 36
1000
0000
0000
0000
0001
0000
1000
0000
0001
0000
0000
0000
0100
0000
0000
0010
,  // measure 37
0000
0000
0100
0000
0000
0010
0000
0000
0100
0000
0000
0000
0101
0000
0000
0101
,  // measure 38
0000
0000
0101
0000
0000
0000
0000
0000
1100
0000
0000
1100
0000
0000
1100
0000
,  // measure 39
0000
1100
0000
0000
0010
0000
0100
0000
0020
0000
0000
0000
1030
0000
0000
1010
,  // measure 40
0000
0000
1010
0000
0000
0000
0000
0000
0101
0000
0000
1001
0000
0000
1001
0000
,  // measure 41
0000
1001
0000
0000
1000
0000
0100
0000
0020
0000
0000
0000
1030
0000
0000
1001
,  // measure 42
0000
0000
1001
0000
0000
0000
0000
0000
0110
0000
0000
0110
0000
0000
0101
0000
,  // measure 43
0000
0101
0000
0000
1000
0000
0100
0000
0002
0000
0000
0000
1003
0000
0000
1001
,  // measure 44
0000
0000
1001
0000
0000
0000
0000
0000
1100
0000
0000
1100
0000
0000
0101
0000
,  // measure 45
0000
0101
0000
0000
1000
0000
0100
0000
0002
0000
0000
0000
1003
0000
0000
0000
,  // measure 46
0000
0000
0000
0000
,  // measure 47
0000
0000
0000
0000
,  // measure 48
0010
0000
0010
1000
0000
1000
0001
0000
0001
0100
0000
0100
,  // measure 49
0001
0000
0001
1000
0000
1000
0010
0000
0010
0100
0000
0100
,  // measure 50
0020
0000
1030
0100
0002
0000
1003
0100
,  // measure 51
0020
0000
1030
0001
0100
0100
0100
0100
,  // measure 52
0010
0000
0010
0000
0010
0000
1000
0100
,  // measure 53
1000
0000
0001
0000
0001
0000
0100
0010
,  // measure 54
0100
0000
1000
0000
1000
0000
0001
0010
,  // measure 55
0001
0100
0100
1001
,  // measure 56
0100
0010
0100
0000
0010
0100
0010
0000
,  // measure 57
1000
0100
0010
0000
1000
0100
0010
0000
,  // measure 58
1000
0001
1000
0001
0100
0010
0100
0010
,  // measure 59
0200
0010
0010
0310
,  // measure 60
0100
0000
0000
0100
0000
0000
0001
0000
1000
0000
0000
1000
0000
0000
0001
0000
,  // measure 61
0010
0000
0000
0010
0000
0000
0001
0000
1000
0000
0000
1000
0000
0000
0010
0000
,  // measure 62
0100
0000
0000
0100
0000
0000
1000
0000
0001
0000
0000
0001
0000
0000
1000
0000
,  // measure 63
0010
0000
0000
0010
0000
0000
1000
0000
0001
0000
0000
0001
0000
0000
0010
0000
,  // measure 64
0100
0000
0000
0100
0000
0000
0010
0000
1000
0000
0000
1000
0000
0000
0010
0000
,  // measure 65
0001
0000
0000
0001
0000
0000
0010
0000
1000
0000
0000
1000
0000
0000
0100
0000
,  // measure 66
1000
0000
0000
1000
0000
0000
0001
0000
0100
0000
0000
0100
0000
0000
0001
0000
,  // measure 67
1000
0000
0000
1001
0000
0000
0000
0000
0001
0000
0000
1001
0000
0000
0000
0000
,  // measure 68
0100
0010
1000
0000
0001
1000
1001
0000
,  // measure 69
0010
0100
0001
0000
1000
0001
1001
0000
,  // measure 70
0010
0100
0010
0000
1000
0100
1100
0000
,  // measure 71
0100
0010
0100
0000
0001
0010
0011
0000
,  // measure 72
1000
0000
0100
1000
0000
0000
0000
0000
0001
0000
0100
0001
0000
0000
0000
0000
,  // measure 73
0100
0000
0010
0100
0000
0000
0000
0000
0010
0000
0100
0010
0000
0000
0000
0000
,  // measure 74
1100
0000
1000
1001
0000
0001
0101
0000
,  // measure 75
0010
0100
1000
0000
0001
0100
0010
0000
,  // measure 76
2002
0000
0000
0000
,  // measure 77
0000
0000
0000
0000
,  // measure 78
3003
0000
0000
0000
;

//---------------dance-single - ----------------
#NOTES:
     dance-single:
     :
     Easy:
     6:
     0.409,0.494,0.633,0.409,0.000: // measure 1
0000
0000
0000
0000
,  // measure 2
0000
0000
0000
0000
,  // measure 3
0000
0000
0000
0000
,  // measure 4
0000
0000
0000
0000
,  // measure 5
0000
0000
0000
0000
,  // measure 6
0000
0000
0000
0000
,  // measure 7
2000
3000
0002
0003
,  // measure 8
2000
3000
0002
0003
,  // measure 9
0200
0300
0020
0030
,  // measure 10
0200
0300
0020
0030
,  // measure 11
1001
0100
0010
0010
,  // measure 12
1001
0100
0010
0010
,  // measure 13
1001
0010
0100
0100
,  // measure 14
1001
0010
0100
0100
,  // measure 15
1000
1001
0001
1001
,  // measure 16
1000
1100
0001
0101
,  // measure 17
2000
3002
0203
0300
,  // measure 18
0010
0010
0010
0000
,  // measure 19
0010
1001
0100
1001
,  // measure 20
0010
1001
1010
0201
,  // measure 21
1300
0101
0001
1100
,  // measure 22
1001
0110
2002
0000
,  // measure 23
0000
3003
0000
1001
,  // measure 24
0010
1100
0010
0101
,  // measure 25
1010
2002
0000
3003
,  // measure 26
1000
0001
1000
0010
,  // measure 27
0100
0010
0100
1000
,  // measure 28
0100
0010
1001
2002
,  // measure 29
0000
0000
3003
0010
,  // measure 30
0100
0010
0100
1000
,  // measure 31
0100
0010
0001
1000
,  // measure 32
0001
1000
0010
1000
,  // measure 33
0001
0100
0110
1000
,  // measure 34
0001
0010
0100
1000
,  // measure 35
0100
0010
0110
1000
,  // measure 36
1100
0001
1001
0100
,  // measure 37
0010
0110
0101
0202
,  // measure 38
0000
0303
0000
0000
2200
0000
0000
3300
,  // measure 39
0000
0010
0010
2002
,  // measure 40
0000
3003
0000
0000
1001
0000
0000
1001
,  // measure 41
0000
0000
0010
0100
0010
0000
2002
0000
,  // measure 42
0000
3003
0000
0000
0220
0000
0000
0330
,  // measure 43
0000
0010
0010
2002
,  // measure 44
0000
0000
3003
0000
0000
0000
0000
0000
2200
0000
0000
3300
0000
0000
0202
0000
,  // measure 45
0000
0303
0000
0000
0010
0000
0100
0000
0020
0000
0000
0000
1030
0000
0000
0000
,  // measure 46
0000
0000
0000
0000
,  // measure 47
0000
0000
0000
0000
,  // measure 48
0020
0030
0002
0003
,  // measure 49
0200
0300
2000
3000
,  // measure 50
0010
0001
0100
1000
,  // measure 51
0100
0001
0020
0030
,  // measure 52
1001
1001
0100
0010
,  // measure 53
1001
1001
0010
0100
,  // measure 54
0110
1000
1000
0001
,  // measure 55
0011
0100
0100
1001
,  // measure 56
0100
0010
0100
0110
,  // measure 57
0010
1001
0100
1001
,  // measure 58
1001
1001
0110
0110
,  // measure 59
2001
0001
0001
3001
,  // measure 60
0010
0010
1001
0100
,  // measure 61
1000
1000
1001
0010
,  // measure 62
1010
0010
0101
0001
,  // measure 63
1000
0100
0010
1001
,  // measure 64
0011
0010
1100
0100
,  // measure 65
1001
0010
0100
0100
,  // measure 66
0110
0100
0100
1001
,  // measure 67
2002
3003
0220
0330
,  // measure 68
0010
1001
0002
1003
,  // measure 69
0010
1001
2000
3001
,  // measure 70
0100
0010
0200
0310
,  // measure 71
0001
1000
0002
1003
,  // measure 72
0110
0000
1001
0000
,  // measure 73
1000
0010
0001
0100
,  // measure 74
0110
0000
0000
0101
0000
0000
1001
0000
,  // measure 75
0000
0110
0000
0000
1001
0000
0110
0000
,  // measure 76
2002
0000
0000
0000
,  // measure 77
0000
0000
0000
0000
,  // measure 78
3003
0000
0000
0000
;

//---------------dance-single - ----------------
#NOTES:
     dance-single:
     :
     Beginner:
     4:
     0.171,0.216,0.104,0.024,0.000: // measure 1
0000
0000
0000
0000
,  // measure 2
0000
0000
0000
0000
,  // measure 3
0000
0000
0000
0000
,  // measure 4
0000
0000
0000
0000
,  // measure 5
0000
0000
0000
0000
,  // measure 6
0000
0000
0000
0000
,  // measure 7
1000
0000
0001
0000
,  // measure 8
1000
0000
0001
0000
,  // measure 9
0100
0000
0010
0000
,  // measure 10
0100
0000
0010
0000
,  // measure 11
1000
0000
0000
0000
,  // measure 12
0001
0000
0000
0000
,  // measure 13
1000
0000
0000
0000
,  // measure 14
0001
0000
0000
0000
,  // measure 15
1000
0000
1000
0000
,  // measure 16
0001
0000
0001
0000
,  // measure 17
1000
0000
0001
0000
,  // measure 18
0010
0010
0010
0000
,  // measure 19
0000
0010
0000
0010
,  // measure 20
0000
0010
0010
0010
,  // measure 21
0000
0100
0000
0100
,  // measure 22
0000
0100
0200
0000
,  // measure 23
0300
0000
0000
0001
,  // measure 24
0001
0001
0000
1000
,  // measure 25
1000
0000
0000
0010
,  // measure 26
0010
0010
0000
0100
,  // measure 27
0100
0100
0000
0001
,  // measure 28
0000
1000
0000
1001
,  // measure 29
0000
0000
0000
0010
,  // measure 30
0000
0010
0000
0100
,  // measure 31
0000
0100
0000
1000
,  // measure 32
0000
1000
0000
0001
,  // measure 33
0000
0001
0000
1000
,  // measure 34
0000
0010
0000
1000
,  // measure 35
0000
0010
0000
0001
,  // measure 36
0000
0100
0000
0001
,  // measure 37
0000
0100
0000
1001
,  // measure 38
0000
0000
1001
0000
,  // measure 39
0000
0010
0000
1001
,  // measure 40
0000
0000
1001
0000
,  // measure 41
0000
0010
0010
0010
,  // measure 42
0000
0000
0110
0000
,  // measure 43
0000
0010
0010
0010
,  // measure 44
0000
0000
1001
0000
,  // measure 45
0000
0010
0010
0010
,  // measure 46
0000
0000
0000
0000
,  // measure 47
0000
0000
0000
0000
,  // measure 48
0010
0000
0010
0000
,  // measure 49
0001
0000
0001
0000
,  // measure 50
0100
0000
0100
0000
,  // measure 51
1000
0000
1000
0000
,  // measure 52
0001
0000
0100
0000
,  // measure 53
0010
0000
0001
0000
,  // measure 54
0001
0000
0100
0000
,  // measure 55
0001
0000
0001
0000
,  // measure 56
0010
0000
0100
0000
,  // measure 57
1000
0000
0001
0000
,  // measure 58
0010
0010
0010
0010
,  // measure 59
0010
0000
0000
0000
,  // measure 60
0010
0000
0100
0000
,  // measure 61
1000
0000
0001
0000
,  // measure 62
1000
0000
0100
0000
,  // measure 63
0010
0000
0001
0000
,  // measure 64
0010
0000
0100
0000
,  // measure 65
1000
0000
0001
0000
,  // measure 66
0100
0000
0100
0000
,  // measure 67
1001
0000
0110
0000
,  // measure 68
0010
0000
0001
0000
,  // measure 69
0010
0000
1000
0000
,  // measure 70
0100
0000
0001
0000
,  // measure 71
0100
0000
1000
0000
,  // measure 72
0010
0000
0001
0000
,  // measure 73
0100
0000
1000
0000
,  // measure 74
0110
0000
0000
1001
,  // measure 75
0000
0000
1001
0000
,  // measure 76
2002
0000
0000
0000
,  // measure 77
0000
0000
0000
0000
,  // measure 78
3003
0000
0000
0000
;
