#TITLE:Rising the Sonic;
#SUBTITLE:;
#ARTIST:Dayz;
#TITLETRANSLIT:;
#SUBTITLETRANSLIT:;
#ARTISTTRANSLIT:;
#GENRE:;
#CREDIT:;
#MENUCOLOR:;
#METERTYPE:DDR;
#BANNER:Rising the Sonic.png;
#BACKGROUND:Rising the Sonic-bg.png;
#LYRICSPATH:;
#CDTITLE:;
#MUSIC:Rising the Sonic.ogg;
#OFFSET:-2.854;
#SAMPLESTART:16.800;
#SAMPLELENGTH:16.000;
#SELECTABLE:YES;
#LISTSORT:;
#BPMS:0.000=137.000;
#STOPS:;
#BGCHANGES:-6.000=Rising the Sonic.AVI=1.000=1=1=0,
99999=-nosongbg-=1.000=0=0=0 // don't automatically add -songbackground-
;
#ATTACKS:;

//---------------dance-single - ----------------
#NOTES:
     dance-single:
     :
     Hard:
     11:
     0.547,0.515,0.067,0.485,0.109:
0000
0000
0000
0000
,
0000
0000
0000
0000
,
0000
0000
0000
0000
,
0000
0000
0000
0000
,
1000
0000
0001
0100
0001
0000
1000
0001
,
1000
0000
0010
1000
0010
0000
1000
0100
,
1000
0000
0001
0100
0001
0000
1000
0100
,
1000
0000
0010
0000
0100
0001
1000
0000
,
0010
0000
1000
0000
0002
0000
0000
1003
0000
0000
0010
0000
2000
0000
0000
0000
,
3001
0000
1000
0000
0020
0000
0000
0130
0000
0000
0010
0000
2000
0000
0000
0000
,
3010
0000
1000
0000
0002
0000
0000
0103
0000
0000
0001
0000
2000
0000
0000
0000
,
3001
0000
1000
0000
0020
0000
0000
0130
0000
0000
0100
0000
0001
0000
1000
0000
,
0001
0000
0100
0000
0020
0000
0000
1030
0000
0000
0001
0000
0200
0000
0000
0000
,
0301
0000
1000
0000
0020
0000
0000
1030
0000
0000
0010
0000
0200
0000
0000
0000
,
0310
0000
1000
0000
0020
0000
0000
0130
0000
0000
0100
0000
0002
0000
0000
0000
,
1003
0000
0010
0000
0200
0000
0000
0310
0000
0000
1000
0000
0001
0000
1000
0000
,
0002
0000
0013
0000
1000
0010
1000
0000
,
0200
0000
0310
0000
1000
0001
1000
0000
,
0002
0000
0013
0000
0100
0001
0100
0000
,
2000
3100
0002
0103
,
0020
0000
0130
0000
1000
0100
1000
0000
,
0002
0000
0103
0000
0010
1000
0100
0000
,
2000
0000
3010
0000
0100
0001
0010
0000
,
0010
0001
1000
0000
1000
0001
0010
0000
,
0010
1000
0010
1000
0010
0100
0010
0100
,
0010
1000
0010
1000
0001
1000
0001
1000
,
0100
1000
0100
1000
0001
1000
0001
0100
,
0010
0100
0010
1000
0001
1000
0001
1000
,
0100
0010
0100
0010
0100
0010
0100
1000
,
0001
0100
0010
0100
0010
0100
0010
1000
,
1000
0001
1000
0001
1000
0100
1000
0100
,
0010
0001
0010
0001
0100
0010
0100
0000
,
0001
0000
0100
0000
2000
0000
0000
3001
1000
0000
0001
0000
1001
0000
0000
0000
,
1000
0000
0100
0000
0002
0000
0000
1003
0001
0000
1000
0000
1001
0000
0000
0000
,
0010
0000
0100
0000
0002
0000
0000
1003
0001
0000
0100
0000
0110
0000
0000
0000
,
0100
0000
0010
0000
2000
0000
0000
3001
0000
0000
0100
0000
0010
0000
0100
0000
,
0001
0000
1000
0000
0200
0000
0000
1300
0100
0000
1000
0000
1001
0000
0000
0000
,
0001
0000
1000
0000
0020
0000
0000
0031
0010
0000
0001
0000
1001
0000
0000
0000
,
0100
0000
0010
0000
2000
0000
0000
3001
1000
0000
0010
0000
0110
0000
0000
0000
,
0001
0000
0010
0000
0002
0000
0000
0103
0000
0000
0010
0000
1000
0000
0001
0000
,
1000
0010
1000
0200
0000
0000
0301
2000
,
0000
3010
0100
0002
0000
0103
0010
0000
,
1000
0100
1000
0002
0000
0103
0001
2000
,
0000
3010
0100
0002
0000
1003
1000
0000
,
0001
0100
0010
0002
0000
0103
0010
2000
,
0000
3010
0100
0002
0000
1003
1000
0000
,
0010
0100
0010
0002
0000
0103
0010
2000
,
0000
3001
0100
0020
0000
1030
1000
0000
,
0001
0000
0100
0000
0001
0000
2000
0000
0000
3001
1000
0000
0001
0000
1000
0000
,
0010
0000
0100
0000
0010
0000
0200
0000
0000
0301
0100
0000
0001
0000
1000
0000
,
0010
0000
1000
0000
0100
0000
2000
0000
0000
3010
1000
0000
0100
0000
1000
0000
,
0010
0000
0100
0000
0010
0000
0200
0000
0000
0310
0100
0000
0001
0000
1000
0000
,
0001
0000
0100
0000
0010
0000
2000
0000
0000
3010
0100
0000
0010
0000
1000
0000
,
0001
0000
1000
0000
0010
0000
0200
0000
0000
0301
0100
0000
0010
0000
1000
0000
,
0100
0000
1000
0000
0010
0000
0200
0000
0000
0301
0100
0000
0010
0000
1000
0000
,
0100
0010
0001
0100
0010
1000
0100
0010
,
2002
0000
0000
0000
,
3003
0000
0000
0000
;

//---------------dance-single - Copied from----------------
#NOTES:
     dance-single:
     Copied from:
     Medium:
     8:
     0.396,0.434,0.276,0.381,0.000:
0000
0000
0000
0000
,
0000
0000
0000
0000
,
0000
0000
0000
0000
,
0000
0000
0000
0000
,
1000
0001
1000
0001
,
1000
0010
0100
0001
,
1000
0001
1000
0001
,
1000
0010
0100
0001
,
0010
1000
0001
0000
1000
0000
1000
0000
,
0001
1000
0010
0000
0100
0000
0100
0000
,
0010
1000
0001
0000
1000
0000
1000
0000
,
0001
1000
0010
0000
0100
0000
0100
0000
,
0001
0100
0010
0000
0100
0000
0100
0000
,
0001
1000
0010
0000
0100
0000
0100
0000
,
0010
1000
0010
0000
0100
0000
0100
0000
,
1000
0010
0100
0000
0010
0000
1001
0000
,
0002
0013
1000
1010
,
0200
0310
1000
1001
,
0002
0013
0100
0101
,
2000
3100
0002
0103
,
0020
0130
1000
1100
,
0002
0103
0010
0110
,
2000
3010
0100
0110
,
0010
1010
1000
1010
,
0010
0010
1000
0110
,
0010
0010
0001
0110
,
1000
1000
0001
1001
,
0100
0010
1000
0001
,
0100
0100
1000
1010
,
0010
0010
0001
0101
,
0010
0010
0100
1001
,
0100
1100
0100
0101
,
1000
0100
2000
0000
3002
0000
0103
0000
,
0001
0100
0002
0000
2003
0000
3100
0000
,
0010
0100
0020
0000
2030
0000
3001
0000
,
0100
0001
0100
0000
1000
0100
1000
0000
,
0001
0010
0002
0000
2003
0000
3010
0000
,
1000
0100
2000
0000
3002
0000
0103
0000
,
0001
1000
0001
0000
0200
0000
0310
0000
,
1000
0100
1000
0000
0002
0000
0103
0000
,
0020
0000
0000
2030
0000
0000
3001
0100
,
0002
0000
0000
0203
0000
0000
0310
0000
,
2000
0000
0000
3002
0000
0000
1003
0100
,
2000
0000
0000
3002
0000
0000
0103
0000
,
0020
0000
0000
0230
0000
0000
0301
1000
,
0002
0000
0000
0203
0000
0000
1300
0000
,
0020
0000
0000
0230
0000
0000
0310
1000
,
0020
0000
0000
0032
0000
0000
0103
0000
,
0001
0000
1000
0100
0000
0000
1001
0000
,
1000
0000
0001
0100
0000
0000
1001
0000
,
0010
0000
0100
0001
0000
0000
1001
0000
,
0010
0000
1001
1100
,
0101
0000
1000
0100
1000
0000
0101
0000
,
1001
0000
0010
0100
0010
0000
1001
0000
,
1100
0000
0001
0100
0001
0000
1001
0000
,
0020
0030
0200
0300
,
2002
0000
0000
0000
,
3003
0000
0000
0000
;

//---------------dance-single - ----------------
#NOTES:
     dance-single:
     :
     Easy:
     5:
     0.298,0.353,0.133,0.257,0.000:
0000
0000
0000
0000
,
0000
0000
0000
0000
,
0000
0000
0000
0000
,
0000
0000
0000
0000
,
1000
1000
0001
0001
,
1000
1000
0001
0001
,
0100
0100
0010
0010
,
0100
0010
0100
0010
,
0010
0001
1000
1000
,
0010
1000
0001
0001
,
0010
0001
1000
1000
,
0001
0010
0100
1000
,
0001
0100
0010
0010
,
1000
0100
0010
0010
,
0001
1000
0100
0100
,
1000
0001
0100
0100
,
0002
0013
1000
0000
,
2000
3010
0001
0000
,
0002
0013
0100
0000
,
2000
3100
0010
0000
,
0020
0100
0130
0000
,
0200
0010
0310
0000
,
2000
0001
3001
0000
,
0002
1000
1003
0000
,
0010
0010
1000
0000
,
0010
0010
0001
0000
,
1000
1000
0001
0000
,
0001
0001
1000
0000
,
0100
0100
1000
0000
,
0010
0010
0001
0000
,
0010
0010
0100
0000
,
0100
1000
0100
0001
,
0200
0000
0300
1001
,
0020
0000
0030
1001
,
0200
0000
0300
1001
,
0100
0100
0010
0010
,
1000
1000
2000
3000
,
0001
0001
0002
0003
,
0100
0100
0200
0300
,
0010
0010
0020
0030
,
0020
0000
0130
1001
,
0200
0000
0310
1001
,
2000
0000
3001
1001
,
0002
0000
1003
1001
,
0020
0100
0130
1001
,
0200
0010
0310
1001
,
2000
0100
3100
1001
,
0002
0100
0103
1001
,
0001
1000
0001
0001
,
1000
0001
1000
1000
,
0010
0100
0010
0010
,
1000
0100
0001
0100
,
1000
0010
0010
1001
,
0001
0010
0010
1001
,
1000
0100
0010
0001
,
0020
0030
0200
0300
,
2002
0000
0000
0000
,
3003
0000
0000
0000
;

//---------------dance-single - ----------------
#NOTES:
     dance-single:
     :
     Beginner:
     3:
     0.167,0.190,0.067,0.152,0.000:
0000
0000
0000
0000
,
0000
0000
0000
0000
,
0000
0000
0000
0000
,
0000
0000
0000
0000
,
1000
0000
0001
0000
,
1000
0000
0001
0000
,
0100
0000
0010
0000
,
0100
0000
0010
0000
,
2000
3000
1000
0000
,
0002
0003
0001
0000
,
0200
0300
0100
0000
,
0020
0030
0010
0000
,
1000
0000
0001
0000
,
2000
0000
3000
0000
,
0001
0000
1000
0000
,
0002
0000
0003
0000
,
0200
0300
0100
0000
,
0020
0030
0010
0000
,
0200
0300
0100
0000
,
0020
0030
0010
0000
,
1000
0000
0001
0000
,
1000
0000
0001
0000
,
1000
1000
1000
0000
,
0001
0001
0001
0000
,
0010
0000
0010
0000
,
0100
0000
0100
0000
,
1000
0000
0001
0000
,
0001
0000
1000
0000
,
0100
0100
0100
0000
,
0010
0010
0010
0000
,
0200
0000
0300
0000
,
0020
0000
0030
0000
,
0100
0000
0100
0000
,
0010
0000
0010
0000
,
0001
0000
1000
0000
,
0001
0000
1000
0000
,
2000
0000
3000
0000
,
0002
0000
0003
0000
,
0100
0000
0100
0000
,
0010
0000
0010
0000
,
1001
0000
0000
0000
,
1001
0000
0000
0000
,
1001
0000
0000
0000
,
0010
0000
0010
0000
,
1001
0000
0000
0000
,
1001
0000
0000
0000
,
1001
0000
0000
0000
,
0100
0000
0100
0000
,
0001
0001
0000
0000
,
1000
1000
0000
0000
,
0010
0010
0000
0000
,
0100
0100
0000
0000
,
0010
0010
0010
0000
,
0100
0100
0100
0000
,
0001
0001
0001
0000
,
0010
0000
0100
0000
,
2002
0000
0000
0000
,
3003
0000
0000
0000
;

//---------------dance-double - ----------------
#NOTES:
     dance-double:
     :
     Hard:
     11:
     0.449,0.488,0.162,0.362,0.000: // measure 1
00000000
00000000
00000000
00000000
,  // measure 2
00000000
00000000
00000000
00000000
,  // measure 3
00000000
00000000
00000000
00000000
,  // measure 4
00000000
00000000
00000000
00000000
,  // measure 5
10000000
00000000
00010000
00000000
01000000
00010000
01000000
00000000
,  // measure 6
00001000
00000000
00010000
00000000
00000100
00001000
00000100
00000000
,  // measure 7
00001000
00000000
00000001
00000000
00000100
00000010
00000100
00000000
,  // measure 8
00000001
00000000
00001000
00000000
00000100
00001000
00000100
00000000
,  // measure 9
00001000
00010000
00100000
00000000
10000000
01000000
00100000
00000000
,  // measure 10
10000000
01000000
00010000
00000000
00100000
00001000
00010000
00000000
,  // measure 11
00010000
00000100
00001000
00000000
00001000
00000010
00000100
00000000
,  // measure 12
00000001
00000010
00000100
00001000
00000010
00000100
00001001
00000000
,  // measure 13
00001000
00000100
00001000
00000000
00000100
00010000
00000100
00000000
,  // measure 14
00010000
00001000
00010000
00000000
00001000
01000000
00001000
00000000
,  // measure 15
01000000
00010000
00100000
00000000
00100000
10000000
01000000
00000000
,  // measure 16
10000000
01000000
00100000
00010000
01000000
00100000
10010000
00000000
,  // measure 17
10000000
01000000
10000000
00100000
10000000
01000000
10000000
00000000
,  // measure 18
00010000
01000000
10000000
01000000
,  // measure 19
00010000
00100000
00010000
01000000
00010000
00100000
00010000
00000000
,  // measure 20
00001000
00010000
00000100
00001000
,  // measure 21
00000010
00000100
00000001
00001000
00000010
00000100
00000010
00000000
,  // measure 22
00000001
00000100
00000010
00001000
,  // measure 23
00000100
00001000
00000100
00000000
00010000
00001000
00010000
00000000
,  // measure 24
00001000
01000000
00100000
10000000
,  // measure 25
00100000
00100000
10000000
00000000
10100000
00000000
10010000
00000000
,  // measure 26
00100000
00100000
00010000
00000000
00110000
00000000
00011000
00000000
,  // measure 27
00010000
00010000
00000100
00000000
00001100
00000000
00001001
00000000
,  // measure 28
00000001
00000001
00000100
00000000
00000101
00000000
00001001
00000000
,  // measure 29
00001000
00000010
00001000
00000000
00001100
00000000
00001100
00000000
,  // measure 30
00000100
00010000
00000100
00000000
00011000
00000000
01001000
00000000
,  // measure 31
01000000
00010000
01000000
00000000
11000000
00000000
01010000
00000000
,  // measure 32
10000000
00100000
00010000
00000000
00010000
00001000
00000100
00000000
,  // measure 33
00001000
00000010
00000100
00000000
00000002
00000000
00001003
00000000
,  // measure 34
00000100
00001000
00000020
00000000
00000230
00000000
00002300
00000000
,  // measure 35
00013000
00000100
00010000
00000000
00002000
00000000
02003000
00000000
,  // measure 36
03010000
00100000
01000000
00000000
10000000
01000000
00100000
00000000
,  // measure 37
10000000
00010000
01000000
00000000
00200000
00000000
01300000
00000000
,  // measure 38
10000000
00010000
01000000
00000000
00200000
00000000
00301000
00000000
,  // measure 39
00010000
00010000
00010000
00000000
00000200
00000000
00001300
00000000
,  // measure 40
00000010
00000100
00001000
00000000
00000001
00000100
00001000
00000000
,  // measure 41
00000020
00000000
00000000
00002030
00000000
00000000
00003100
00000000
,  // measure 42
00020000
00000000
00000000
00032000
00000000
00000000
01003000
00000000
,  // measure 43
00200000
00000000
00000000
20300000
00000000
00000000
31000000
00000000
,  // measure 44
10000000
00010000
01000000
00010000
00000000
10000000
00010000
00000000
,  // measure 45
20000000
00000000
00000000
30200000
00000000
00000000
01300000
00000000
,  // measure 46
00002000
00000000
00000000
00023000
00000000
00000000
00030100
00000000
,  // measure 47
00001000
00000010
00000100
00000002
00000000
00000000
00000103
00000000
,  // measure 48
00000020
00000000
00000000
00001000
00000000
00000000
00000130
00000000
,  // measure 49
00001000
00000100
00001000
00000200
00000000
00010300
00002000
00000000
,  // measure 50
01003000
00010000
01000000
00200000
00000000
10300000
00200000
00000000
,  // measure 51
01300000
00001000
01000000
00002000
00000000
00013000
00000200
00000000
,  // measure 52
00001300
00000010
00000100
00000002
00000000
00000103
00000020
00000000
,  // measure 53
00001030
00000100
00001000
00000002
00000000
00001003
00000200
00000000
,  // measure 54
00010300
00001000
01000000
00002000
00000000
01003000
00020000
00000000
,  // measure 55
00130000
10000000
01000000
00020000
00000000
00130000
00002000
00000000
,  // measure 56
00013000
00000100
00001000
00000020
00000000
00000130
00000001
00001000
,  // measure 57
00002002
00000000
00000000
00000000
,  // measure 58
00003003
00000000
00000000
00000000
;

//---------------dance-double - ----------------
#NOTES:
     dance-double:
     :
     Medium:
     8:
     0.356,0.380,0.086,0.314,0.000: // measure 1
00000000
00000000
00000000
00000000
,  // measure 2
00000000
00000000
00000000
00000000
,  // measure 3
00000000
00000000
00000000
00000000
,  // measure 4
00000000
00000000
00000000
00000000
,  // measure 5
00100000
10000000
00100000
00010000
,  // measure 6
00100000
00001000
00010000
00000010
,  // measure 7
00001000
00000010
00000001
00000010
,  // measure 8
00001000
00000100
00010000
00000100
,  // measure 9
00020000
00000000
00030000
00000000
00001000
00010000
00001000
00000000
,  // measure 10
02000000
00000000
03000000
00000000
00010000
01000000
00010000
00000000
,  // measure 11
20000000
00000000
30000000
00000000
00100000
01000000
00100000
00000000
,  // measure 12
20000000
30000000
00010000
01000000
,  // measure 13
00001000
00010000
00001000
00000000
00020000
00000000
00030000
00000000
,  // measure 14
00000100
00001000
00000100
00000000
00002000
00000000
00003000
00000000
,  // measure 15
00000001
00000100
00000001
00000000
00000020
00000000
00000030
00000000
,  // measure 16
00000001
00001000
00000001
00000000
00002000
00000000
00003000
00000000
,  // measure 17
00000020
00001000
00000100
00001030
,  // measure 18
00002000
00000100
00000100
00003100
,  // measure 19
00000200
00010000
00001000
00010300
,  // measure 20
00020000
00001000
00000100
00031000
,  // measure 21
00002000
01000000
00010000
01003000
,  // measure 22
00020000
00100000
01000000
10030000
,  // measure 23
20000000
01000000
00100000
30010000
,  // measure 24
02000000
00010000
00001000
03010000
,  // measure 25
00001000
00010000
00001000
00000000
00010000
00000000
00000100
00000000
,  // measure 26
00001000
00000100
00000001
00000100
,  // measure 27
00001000
00000010
00001000
00000000
00000001
00000000
00000100
00000000
,  // measure 28
00001000
00000010
00001000
00000100
,  // measure 29
00010000
00001000
00010000
00000000
00001000
00000000
01000000
00000000
,  // measure 30
00100000
10000000
00100000
00000000
10000000
00000000
01000000
00000000
,  // measure 31
00010000
00100000
00010000
00000000
00100000
00000000
00001000
00000000
,  // measure 32
00010000
00000010
00000001
00000100
,  // measure 33
00001000
00000100
00000001
00000000
00000200
00000000
00000300
00000000
,  // measure 34
00000001
00000100
00001000
00000000
00000200
00000000
00000300
00000000
,  // measure 35
00010000
00001000
00010000
00000000
00002000
00000000
00003000
00000000
,  // measure 36
00001000
00010000
00001000
00000000
02000000
00000000
03000000
00000000
,  // measure 37
00010000
00100000
10000000
00000000
00200000
00000000
00300000
00000000
,  // measure 38
10000000
00100000
00010000
00000000
00200000
00000000
00300000
00000000
,  // measure 39
10000000
01000000
00100000
00000000
00020000
00000000
00030000
00000000
,  // measure 40
00100000
00001000
00010000
00000000
00000100
00000000
00010000
00000000
,  // measure 41
00000200
00000000
00000000
00002300
00000000
00000000
00003010
00000000
,  // measure 42
00000002
00000000
00000000
00000023
00000000
00000000
00001030
00000000
,  // measure 43
00000200
00000000
00000000
00020300
00000000
00000000
00031000
00000000
,  // measure 44
02000000
00000000
00000000
03020000
00000000
00000000
10030000
00000000
,  // measure 45
10010000
00000000
00000000
01100000
00000000
00000000
10000000
00100000
,  // measure 46
01000000
00000000
00000000
10010000
00000000
00000000
00100000
00000000
,  // measure 47
00011000
00000000
00000000
00001000
00000000
00010000
00000100
00001000
,  // measure 48
00000100
00000000
00000000
00001010
00000000
00000100
00000101
00000000
,  // measure 49
00000001
00000000
00001000
00000100
00000000
00001000
00000100
00001000
,  // measure 50
00000100
00000000
00010000
00001000
00000000
00010000
00001000
00000000
,  // measure 51
01000000
00000000
00010000
01000000
00000000
00100000
01000000
00100000
,  // measure 52
01000000
00000000
00010000
10000000
01000000
00000000
10010000
00000000
,  // measure 53
11000000
00000000
00100000
00010000
00000000
00100000
00001000
00010000
,  // measure 54
00001000
00000000
00010000
00000100
00000000
00001000
00000010
00000100
,  // measure 55
00000001
00000000
00000100
00000010
00000000
00001000
00000100
00000000
,  // measure 56
00010000
00000000
00001000
00010000
,  // measure 57
00022000
00000000
00000000
00000000
,  // measure 58
00033000
00000000
00000000
00000000
;

//---------------dance-double - ----------------
#NOTES:
     dance-double:
     :
     Easy:
     6:
     0.329,0.407,0.171,0.638,0.000: // measure 1
00000000
00000000
00000000
00000000
,  // measure 2
00000000
00000000
00000000
00000000
,  // measure 3
00000000
00000000
00000000
00000000
,  // measure 4
00000000
00000000
00000000
00000000
,  // measure 5
00100000
00100000
10000000
00010000
,  // measure 6
00100000
00001000
00010000
00001000
,  // measure 7
00000010
00000010
00001000
00000001
,  // measure 8
00000010
00000010
00010000
00001000
,  // measure 9
00020000
00030000
00002000
00003000
,  // measure 10
00010000
01000000
20000000
30000000
,  // measure 11
00020000
00030000
20000000
30000000
,  // measure 12
01000000
00100000
00020000
00030000
,  // measure 13
00000200
00000300
00002000
00003000
,  // measure 14
00000010
00000001
00000200
00000300
,  // measure 15
00020000
00030000
00002000
00003000
,  // measure 16
01000000
00010000
00200000
00300000
,  // measure 17
20000000
00010000
30010000
00000000
,  // measure 18
00020000
01000000
01030000
00000000
,  // measure 19
00002000
00010000
00013000
00000000
,  // measure 20
00020000
00000010
00030010
00000000
,  // measure 21
00000020
00000100
00001030
00000000
,  // measure 22
00002000
00000001
00003100
00000000
,  // measure 23
00000200
00010000
00001300
00000000
,  // measure 24
00020000
00001000
01030000
00000000
,  // measure 25
00020000
00100000
01000000
00100000
,  // measure 26
01000000
01000000
01030000
00000000
,  // measure 27
20000000
01000000
00100000
01000000
,  // measure 28
00010000
00010000
30010000
00000000
,  // measure 29
00200000
00001000
00010000
00001000
,  // measure 30
00010000
00010000
00302000
00003000
,  // measure 31
00020000
00000010
00000100
00000100
,  // measure 32
00000010
00000100
00030020
00000030
,  // measure 33
00000100
00000001
00002002
00003003
,  // measure 34
00000100
00001000
00002002
00003003
,  // measure 35
00000100
00010000
00022000
00033000
,  // measure 36
00010000
00001000
00010000
00001000
,  // measure 37
01000000
00010000
20020000
30030000
,  // measure 38
01000000
10000000
20020000
30030000
,  // measure 39
10000000
01000000
20020000
30030000
,  // measure 40
00100000
00001000
00010000
00001000
,  // measure 41
00020000
00000000
00030000
00000010
,  // measure 42
00002002
00000000
00003003
00000010
,  // measure 43
00022000
00000000
00033000
00100000
,  // measure 44
20020000
30030000
22000000
33000000
,  // measure 45
20020000
00000000
30030000
00100000
,  // measure 46
00022000
00000000
00033000
00000100
,  // measure 47
00002002
00000000
00003003
00000100
,  // measure 48
00022000
00033000
02000000
03000000
,  // measure 49
00010000
00100000
02000000
03000000
,  // measure 50
10000000
01000000
00200000
00300000
,  // measure 51
00001000
00010000
00002000
00003000
,  // measure 52
00010000
00000100
00001000
00000001
,  // measure 53
00000100
00000010
00002002
00003003
,  // measure 54
00000010
00000100
00002002
00003003
,  // measure 55
00000100
00010000
00022000
00033000
,  // measure 56
00001000
01000000
00001000
00010000
,  // measure 57
00022000
00000000
00000000
00000000
,  // measure 58
00033000
00000000
00000000
00000000
;
