#TITLE:Persephone;
#SUBTITLE:;
#ARTIST:Massive New Krew;
#TITLETRANSLIT:;
#SUBTITLETRANSLIT:;
#ARTISTTRANSLIT:;
#GENRE:;
#CREDIT:;
#MENUCOLOR:;
#METERTYPE:DDR;
#BANNER:Persephone.png;
#BACKGROUND:Persephone-bg.png;
#LYRICSPATH:;
#CDTITLE:./CDTITLES/Reflec beat colette.png;
#MUSIC:Persephone.ogg;
#OFFSET:0.754;
#SAMPLESTART:78.215;
#SAMPLELENGTH:15.000;
#SELECTABLE:YES;
#LISTSORT:;
#DISPLAYBPM:155.000;
#BPMS:0.000=155.000;
#STOPS:;
#BGCHANGES:2.000=Persephone.avi=1.000=0=0=0,
99999=-nosongbg-=1.000=0=0=0 // don't automatically add -songbackground-
;
#ATTACKS:;

//---------------dance-single - ----------------
#NOTES:
     dance-single:
     :
     Hard:
     15:
     0.917,0.945,0.515,0.335,0.830:
0000
0000
0000
0000
,
0000
0000
0000
0000
,
0000
0000
0000
0000
,
0000
0000
0000
0000
,
0000
0000
0000
0000
,
1000
0100
1000
0000
0010
0000
0100
0000
0001
0100
0001
0000
0100
0000
0010
0000
,
1000
0001
1000
0000
0010
0000
0100
0000
0001
0010
0001
0000
0100
0000
0010
0000
,
1000
0100
1000
0000
0010
1000
0010
0000
1000
0001
1000
0000
0001
1000
0001
0000
,
1000
0100
0000
1000
0100
0000
1000
0010
0100
0000
0010
0000
1001
0000
0000
0000
,
1100
0000
0000
0000
0101
0000
0000
0000
1100
0000
0000
0001
0100
0000
0001
0010
,
0100
0000
0000
0000
1100
0000
0000
0000
0001
0100
0000
0100
0001
0000
1000
0100
,
0010
0000
0000
0000
0011
0000
0000
0000
1010
0000
0000
0001
1000
0000
0001
0000
,
1000
0100
1000
0100
1000
0000
0000
0000
0001
0100
0001
0100
0001
0000
0000
0000
,
1010
0000
0000
0000
0101
0000
0000
0000
1001
0000
0000
0001
0100
0000
0010
0100
,
0001
0000
0000
0000
1001
0000
0000
0000
1100
0000
0000
0100
1000
0000
0010
1000
,
0100
1000
0100
0001
0100
1000
0010
0001
,
0010
1000
0100
1000
1001
0000
0110
0000
,
1100
0000
0000
0000
0101
0000
0000
0000
1000
0010
0100
0010
1000
0000
0000
0000
,
0101
0000
0000
0000
1100
0000
0000
0000
0001
0100
0010
0100
0001
0000
0000
0000
,
0110
0000
0000
0000
1001
0000
0000
0000
1000
0100
0000
0100
1000
0000
0010
0100
,
0010
0100
0001
0000
0001
0100
0010
0000
1000
0010
0100
0000
1010
0000
0000
0000
,
0001
0100
0001
0000
1000
0100
1000
0000
0010
0000
0100
0000
0001
0000
1000
0000
,
0001
0100
0001
0000
1000
0001
1000
0000
0010
0000
1000
0000
0100
0000
1000
0000
,
0010
0000
0010
0000
0100
0000
0100
0000
0001
1000
0001
1000
0001
0000
0100
0010
,
0100
0001
0010
0100
1000
0000
1001
0000
,
1000
0000
0001
0000
1000
0100
1000
0000
0001
0000
1000
0001
1000
0000
0001
0000
,
0100
0000
0010
0000
0100
0000
0010
1000
0010
0000
0100
0000
0010
0000
1000
0100
,
1000
0100
0000
1000
0100
0000
0001
0100
0001
0000
0100
0000
0010
0000
1000
0100
,
1000
0100
1000
0000
0001
0100
0001
0100
0001
0000
0010
0001
0010
0000
0001
0000
,
0100
0000
0010
0100
0000
0001
1000
0000
0001
0010
0000
0100
1000
0000
1001
0000
,
1100
0000
1000
0010
0000
0100
0001
0000
1000
0100
0010
0001
0100
0000
1001
0000
,
0010
1000
0010
1000
0001
0100
0001
0100
0010
1000
0001
0100
0010
1000
0100
0010
,
0002
0000
0000
0000
0103
0010
1000
0001
1000
0200
0000
0310
0002
0000
0103
0000
,
2002
0000
0000
3003
,
0020
2030
3002
0203
,
0301
0010
0002
0000
0003
0000
1000
0100
2000
0000
3000
0000
0001
0010
0200
0000
,
1300
0010
0100
0000
0000
0000
0001
0000
2002
0000
0000
0000
3003
0000
0000
0000
,
0010
1000
0200
0000
0300
0000
0010
0001
0200
0000
0300
0000
0110
0000
1000
0000
,
0010
1000
0002
0000
0003
0000
0010
0000
2002
0000
0000
0000
3003
0000
0000
0000
,
1000
0100
0002
0000
0003
0000
1000
0100
0002
0000
0003
0000
0001
0100
1000
0000
,
0001
0100
2000
0000
3000
0000
0001
0010
1000
0000
0100
0000
0010
0001
0100
0001
,
0010
0001
0200
0000
0300
0000
0010
1000
0200
0000
0300
0000
1000
0000
0001
0000
,
1000
0010
0002
0000
0003
0000
1000
0100
0002
0000
0003
0000
1001
0000
0000
0000
,
0001
0100
0001
0000
1000
0000
0001
0100
0001
0000
1000
0000
0010
0000
0010
0000
,
1000
0100
0010
0000
1000
0000
0010
0100
1000
0000
0001
0000
1000
0010
0100
0001
,
0100
0010
1000
0000
0010
0000
0100
0001
0010
0000
0001
0000
0100
0000
0010
0000
,
1000
0001
0100
0000
0010
0000
1000
0100
0020
0000
0000
0000
0000
0000
0000
0000
,
1030
0001
0100
0000
0101
0000
0101
0000
0001
1000
0100
0000
1100
0000
1100
0000
,
0010
1000
0100
0000
1100
0000
1100
0000
0010
0001
0100
0000
0101
0000
0101
0000
,
1000
0000
0001
1000
0001
0000
1000
0001
1000
0000
0001
1000
0100
0000
1000
0001
,
0010
0100
1000
0001
0010
0100
1000
0010
0100
0001
1000
0100
0010
0001
1000
0010
,
0200
0300
0020
0030
2200
3300
0022
0033
,
0120
0000
0000
1000
0031
0000
1010
0000
0202
0000
0003
0000
0020
0000
0330
0000
,
1000
0001
0100
0000
0001
0000
1000
0001
0100
0000
0001
0000
1000
0010
0100
0000
,
1000
0010
0100
0000
0001
0000
0010
0001
0100
0000
0010
0001
0010
0001
0010
0000
,
0100
0010
1000
0000
0001
0000
0100
0010
1000
0000
0001
0000
1000
0100
0010
0000
,
0011
0000
0000
0101
0000
0000
1000
0100
0010
0000
0000
0000
1001
0000
0001
1000
,
0001
0000
1000
0000
0100
0000
1000
0001
0100
0000
0000
1001
0000
0000
1100
0000
,
1000
0010
0100
0000
0101
0000
0100
0010
1000
0000
0110
0000
1000
0100
0010
0000
,
0001
0010
0001
0000
0100
0000
0010
1000
0010
0000
0100
0000
1000
0010
0100
0000
,
0001
0100
0010
0000
1000
0000
0001
0100
0010
0000
1000
0000
1001
0000
0000
0000
,
2000
0000
0000
0000
3001
0000
0100
0010
0100
0000
0000
0000
1001
0000
1001
0000
,
1000
0001
0100
0000
0001
0000
1000
0001
0100
0000
0010
0000
1000
0100
1000
0100
,
1000
0010
0100
0000
0001
0000
0100
0010
1000
0000
0001
0000
1000
0000
0001
0000
,
1000
0100
0010
0000
1000
0000
0001
0100
0010
0000
1000
0000
0001
0100
0001
0100
,
0001
0100
0010
0000
1000
0000
0010
0100
0001
0000
1000
0000
0010
0100
1000
0000
,
0100
0001
0010
0000
0001
0000
0100
0010
1000
0000
0001
0000
1000
0100
1000
0000
,
0001
0100
0020
0000
1030
0000
0001
0100
0020
0000
1030
0000
0001
0100
0010
1000
,
0001
0010
0100
0000
0010
0000
0001
1000
0100
0000
1000
0000
0010
0100
0001
0000
,
1001
0000
0001
1000
0001
0000
1000
0001
1000
0000
0000
0110
0000
1000
0001
1000
,
0001
0000
1000
0100
1000
0000
0010
0001
0010
0000
0000
0110
0000
0001
1000
0100
,
1000
0010
0100
0001
2000
0000
3000
0000
0001
0100
0010
1000
0000
0000
1001
0000
,
1001
0000
1000
0000
0001
0000
0001
0000
1000
0000
1000
0000
1001
0000
0000
0100
0000
0000
0010
0000
0000
1000
0010
1000
,
0010
0000
0100
0000
0001
0010
0100
1000
0001
0000
0000
1001
0000
0000
1001
0000
,
1000
0000
1001
0000
1000
0100
0010
0001
0100
0000
1000
0000
0001
0000
0100
0010
,
0100
0000
0001
0100
0000
1000
0010
0000
1000
0000
0001
0100
0010
0000
0010
1000
,
0100
1000
0100
1000
0010
0100
0010
0100
0001
0010
0100
1000
0100
0010
0001
0000
,
1001
0000
0000
0000
;

//---------------dance-single - ----------------
#NOTES:
     dance-single:
     :
     Medium:
     10:
     0.515,0.472,0.229,0.123,0.041:
0000
0000
0000
0000
,
0000
0000
0000
0000
,
0000
0000
0000
0000
,
0000
0000
0000
0000
,
0000
0000
0000
0000
,
1000
0100
1000
0000
0001
0100
0001
0000
,
1000
0001
1000
0000
0001
1000
0001
0000
,
1000
0100
1000
0000
0001
0010
0001
0000
,
0001
0010
0100
1001
,
0100
0000
0001
0000
0100
0000
0001
1000
,
0010
0000
0100
0000
0001
0100
0001
1000
,
0010
0000
0001
0000
0110
0000
0001
0001
,
1000
0100
1000
0000
0001
1000
0001
0000
,
0010
0000
1001
0000
1001
0000
0001
0010
,
0001
0000
1001
0000
1001
0000
0100
0010
,
0100
0010
0100
0000
0100
1000
0010
0000
,
0010
1000
0100
0000
1001
0000
0110
0000
,
0100
0000
0001
0000
1000
0000
0010
1000
,
0001
0000
0100
0000
0001
0000
0001
0100
,
0010
0000
0001
0000
1000
0100
0010
0001
,
1000
0001
1000
0110
,
0001
0000
1001
0000
0010
0100
0001
0000
,
1000
0000
1001
0000
0010
1000
0100
1000
,
0010
0100
0010
0100
0010
0000
1001
0000
,
0001
0100
0010
0100
0001
0000
0001
0000
,
1000
0001
0000
1000
0100
0000
0001
0000
,
0100
0010
0000
0010
0100
0000
0010
1000
,
0100
1000
0000
0001
0100
0000
0010
1000
,
0100
0000
0001
0000
1000
0001
1000
0001
,
0100
0010
0100
0000
0001
0000
0101
0000
,
0100
1000
0100
0000
1001
0000
0101
0000
,
0010
0001
0010
0001
0010
0001
0010
0000
,
2000
0000
0000
3000
,
2002
0000
0000
3003
,
0020
0230
0302
1003
,
0001
0001
0000
1000
1000
0000
0001
0010
,
0001
0020
0000
0030
2002
0000
3003
0000
,
0010
0100
0000
0010
0100
0000
0010
0100
,
0010
0200
0000
0300
2002
0000
3003
0000
,
1000
0001
0000
1000
0001
0000
0001
0100
,
0001
0100
0000
1000
0010
0100
0010
0000
,
1000
0001
0000
1000
0001
0000
1000
0001
,
1000
0001
0000
1000
0001
0000
1001
0000
,
0001
0100
0001
0000
0001
1000
0010
0000
,
1000
0010
1000
0000
0100
0001
1000
0000
,
0001
0010
0001
0000
0001
0100
0001
0000
,
1000
0001
0010
0000
0220
0000
0330
0000
,
1000
0001
0100
0000
1000
0001
0100
0000
,
1000
0001
0010
0000
1000
0001
0010
0000
,
1000
0100
0010
0001
0001
0010
0100
1000
,
0001
0010
0100
1000
1000
0100
0010
0001
,
0001
0010
0100
1000
,
0010
0000
0000
0010
0000
0000
0010
0000
0010
0000
0000
0000
1001
0000
0000
0000
,
1000
0001
0000
1000
0001
0000
1000
0010
,
1000
0010
0000
0001
0010
0000
1000
0001
,
0100
0010
0000
0100
0010
0000
1000
0010
,
0001
0000
0000
0100
0000
0000
0010
0000
0000
1000
0000
0000
0001
0000
1000
0000
,
0001
0000
1000
0000
0001
0000
0000
0000
0100
0000
0000
0001
0000
0000
0010
0000
,
0001
0000
0100
0000
0010
0100
0010
0000
,
0001
0100
0000
0001
0100
0000
1001
0000
,
1000
0010
0000
1000
0010
0000
1001
0000
,
2000
0000
3001
0001
0001
0000
0001
0000
,
1000
0100
0010
0000
1000
0100
1000
0100
,
1000
0100
0000
0100
0010
0000
0010
0001
,
0010
0001
1000
0000
0010
1000
0001
1000
,
0010
0010
0010
0000
1001
0000
0010
0100
,
0010
0010
0100
0000
1001
0000
0010
0100
,
0001
0010
0000
0001
0010
0000
0001
0010
,
0100
1000
0000
0100
1000
0000
1001
0000
,
0001
0000
0100
0000
0001
0000
0100
0000
0001
0000
0000
0001
0000
0000
0100
0000
,
0010
0000
1000
0000
0010
0000
0100
0000
0001
0000
0000
1000
0000
0000
0001
0000
,
1000
0000
0100
0000
0010
0000
0000
0000
0100
0000
0000
0100
0000
0000
0001
0000
,
1000
0000
0000
0100
0000
0000
0010
0000
0000
0000
0000
0000
1001
0000
0000
0000
,
0001
0000
0010
0000
0100
0000
1000
0000
0001
0000
0000
0001
0000
0000
0001
0000
,
1000
0000
0100
0000
0010
0000
0001
0000
1000
0000
0000
1000
0000
0000
1000
0000
,
0010
0100
0001
0000
1000
0010
0100
0000
,
0001
0100
1000
0000
0001
0010
1000
0000
,
1001
0000
0000
0000
;

//---------------dance-single - ----------------
#NOTES:
     dance-single:
     :
     Easy:
     7:
     0.411,0.535,0.556,0.147,0.000:
0000
0000
0000
0000
,
0000
0000
0000
0000
,
0000
0000
0000
0000
,
0000
0000
0000
0000
,
0000
0000
0000
0000
,
1000
0100
0001
0100
,
1000
0010
0001
0010
,
1000
0100
0010
0001
,
0001
0010
0100
1001
,
0100
0001
0100
0001
,
0100
1000
0100
1000
,
0010
0001
0010
0001
,
0010
1000
0001
1001
,
0010
0010
1000
1001
,
0010
0010
0001
1001
,
0010
1000
0100
0001
,
0010
0100
1001
0110
,
0100
0001
1000
0010
,
1001
0100
0001
0001
,
0110
0001
1000
0010
,
1000
0001
1000
0110
,
0001
1001
0010
0100
,
1000
1001
0100
0010
,
0001
0010
0100
1001
,
1000
0100
0010
0001
,
1001
0001
0100
0100
,
0001
0000
0001
0000
1000
0001
1000
0001
,
1000
0000
0001
1000
0001
0000
0010
0000
,
0110
0110
2002
3003
,
0100
0010
0001
1001
,
0010
0100
1000
1001
,
0100
0010
1001
1001
,
0020
0000
0000
0030
,
2002
0000
0000
3003
,
0010
0010
0010
0000
,
1000
0000
0000
1000
0000
0000
1000
0000
,
0002
0003
2000
3000
,
0010
0000
0000
0010
0000
0000
0010
0000
,
0002
0003
2000
3000
,
0100
0000
0000
0100
0000
0000
0100
0000
,
0001
0000
0000
0001
0000
0000
1000
0000
,
0010
0000
0000
0010
0000
0000
0010
0000
,
1000
0000
0002
0003
,
1000
0100
1000
0100
,
0001
0100
0001
0100
,
0001
0010
0001
0010
,
1000
0010
1000
0010
,
0001
0100
1000
0100
,
0001
0010
1000
0010
,
0001
0100
1000
0100
,
0001
0100
0001
0000
1000
0100
1000
0000
,
0010
0010
0010
0010
,
0100
0000
1001
0000
,
1000
1000
0001
0101
,
1000
1000
0001
0011
,
1000
1000
0100
1010
,
0001
0001
0010
0101
,
1000
0100
0001
0101
,
0001
0100
1000
1100
,
1000
0010
0001
0011
,
0001
0010
1000
1001
,
0100
0110
1001
0100
,
0010
0110
1001
0010
,
1000
1100
0011
0001
,
0001
0101
1010
1000
,
0110
0110
1100
1100
,
0110
0110
0011
0011
,
1001
0000
0000
0110
0000
0000
1000
0000
,
1001
0000
0000
0110
0000
0000
0001
0000
,
1001
1001
2000
3000
,
1001
1001
0002
0003
,
0110
0110
0020
0030
,
2000
0000
3001
0010
,
1001
1001
2200
3300
,
1001
1001
0202
0303
,
0110
0110
1001
1001
,
0001
1000
0001
0000
1000
0000
1001
0000
,
1001
0000
0000
0000
;

//---------------dance-single - ----------------
#NOTES:
     dance-single:
     :
     Beginner:
     4:
     0.252,0.315,0.082,0.188,0.000: // measure 1
0000
0000
0000
0000
,  // measure 2
0000
0000
0000
0000
,  // measure 3
0000
0000
0000
0000
,  // measure 4
0000
0000
0000
0000
,  // measure 5
0000
0000
0000
0000
,  // measure 6
1000
0000
0001
0000
,  // measure 7
1000
0000
0001
0000
,  // measure 8
1000
0000
0001
0000
,  // measure 9
0001
0001
0001
0000
,  // measure 10
0100
0100
0100
0000
,  // measure 11
0100
0100
0100
0000
,  // measure 12
0010
0010
0010
0000
,  // measure 13
0001
0000
1000
0000
,  // measure 14
0010
0010
0010
0000
,  // measure 15
0010
0010
0010
0000
,  // measure 16
0100
0100
0100
0000
,  // measure 17
1000
1000
1000
0000
,  // measure 18
0001
0001
0001
0000
,  // measure 19
1000
1000
1000
0000
,  // measure 20
0010
0010
0010
0000
,  // measure 21
0200
0300
0100
0000
,  // measure 22
0001
0001
0001
0000
,  // measure 23
1000
1000
1000
0000
,  // measure 24
0100
0100
0100
0000
,  // measure 25
1000
1000
1000
0000
,  // measure 26
0010
0010
0000
0010
,  // measure 27
0000
0010
0010
0010
,  // measure 28
0000
0100
0000
0100
,  // measure 29
0100
0100
0200
0300
,  // measure 30
0001
0000
0001
0000
,  // measure 31
1000
0000
1000
0000
,  // measure 32
0001
0001
1000
1000
,  // measure 33
0010
0000
0000
0000
,  // measure 34
2002
0000
3003
0000
,  // measure 35
0010
0010
0010
0000
,  // measure 36
2000
0000
3000
0000
,  // measure 37
0002
0003
0001
0000
,  // measure 38
0020
0000
0030
0000
,  // measure 39
0200
0300
0100
0000
,  // measure 40
2000
0000
0000
3000
,  // measure 41
0200
0000
0000
0300
,  // measure 42
0020
0000
0000
0030
,  // measure 43
0002
0000
0000
0003
,  // measure 44
0100
0000
0100
0000
,  // measure 45
0100
0000
0100
0000
,  // measure 46
0010
0000
0010
0000
,  // measure 47
0010
0000
1001
0000
,  // measure 48
0001
0001
0001
0000
,  // measure 49
1000
1000
1000
0000
,  // measure 50
0010
0010
0010
0010
,  // measure 51
0200
0300
0100
0000
,  // measure 52
0001
0001
0001
0001
,  // measure 53
0001
0000
1001
0000
,  // measure 54
1000
1000
1000
0000
,  // measure 55
0001
0001
0001
0000
,  // measure 56
0100
0100
0100
0000
,  // measure 57
0010
0010
0010
0000
,  // measure 58
1000
1000
0001
0000
,  // measure 59
0001
0001
1000
0000
,  // measure 60
1000
0000
0001
0000
,  // measure 61
0001
0000
1000
0000
,  // measure 62
0100
0100
0100
0000
,  // measure 63
0010
0010
0010
0000
,  // measure 64
1000
1000
1000
0000
,  // measure 65
0001
0001
0001
0000
,  // measure 66
0100
0100
0100
0100
,  // measure 67
0010
0010
0010
0010
,  // measure 68
1001
0000
0000
1001
0000
0000
0000
0000
,  // measure 69
1001
0000
0000
1001
0000
0000
0000
0000
,  // measure 70
1000
1000
2000
3000
,  // measure 71
0001
0001
0002
0003
,  // measure 72
0010
0010
0020
0030
,  // measure 73
0200
0000
0300
0000
,  // measure 74
0100
0100
0200
0300
,  // measure 75
0001
0001
0002
0003
,  // measure 76
0010
0010
0010
0000
,  // measure 77
2002
3003
2002
3003
,  // measure 78
1001
0000
0000
0000
;
