#TITLE:Papilio ulysses;
#SUBTITLE:;
#ARTIST:BEMANI Sound Team "SYUNN";
#TITLETRANSLIT:;
#SUBTITLETRANSLIT:;
#ARTISTTRANSLIT:;
#CREDIT:;
#BANNER:Papilio ulysses.png;
#BACKGROUND:Papilio ulysses-bg.png;
#LYRICSPATH:;
#CDTITLE:./CDTITLES/Reflec beat colette.png;
#MUSIC:Papilio ulysses.ogg;
#OFFSET:-0.075;
#SAMPLESTART:65.395;
#SAMPLELENGTH:15.000;
#SELECTABLE:YES;
#DISPLAYBPM:180.000;
#BPMS:0.000=180.000;
#STOPS:;
#BGCHANGES:0.000=Papilio ulysses.avi=1.000=0=0=0,
99999=-nosongbg-=1.000=0=0=0 // don't automatically add -songbackground-
;

//---------------dance-single - ----------------
#NOTES:
     dance-single:
     :
     Hard:
     13:
     0.614,0.730,0.049,0.276,0.183: // measure 1
0000
0000
0000
0000
,  // measure 2
0000
0000
0000
0000
,  // measure 3
0000
0000
0000
0000
,  // measure 4
0000
0000
0000
0000
,  // measure 5
0000
0000
0000
0000
,  // measure 6
0000
0000
0000
0000
,  // measure 7
0000
0000
0000
0000
,  // measure 8
0000
0000
0000
0000
,  // measure 9
0000
0000
0000
0000
,  // measure 10
0010
0000
0000
0100
0000
0000
0001
1000
0001
0000
0000
0000
0100
0000
0000
0000
,  // measure 11
0010
1000
0010
0100
1000
0010
0100
0001
,  // measure 12
0010
0000
0000
0100
0000
0000
0001
1000
0001
0000
0000
0000
0010
0000
0000
0000
,  // measure 13
0100
1000
0010
0100
0001
0100
0010
1000
,  // measure 14
0001
0000
0000
0001
0000
0000
0100
0010
0100
0000
0000
0000
0010
0000
0000
0000
,  // measure 15
0100
0010
1000
0010
0100
0001
1000
0001
,  // measure 16
1000
0000
0000
1000
0000
0000
0001
0100
0001
0000
0000
0000
0010
0000
0000
0000
,  // measure 17
0001
0010
0100
0000
1000
0010
0100
0000
,  // measure 18
2000
0001
0001
3001
,  // measure 19
0200
0001
0001
0301
,  // measure 20
2000
0010
0010
3010
,  // measure 21
0200
0001
0001
0301
,  // measure 22
1000
0100
0010
0000
1000
0100
0010
0000
,  // measure 23
0001
0010
0100
0000
0001
0010
0100
0000
,  // measure 24
1000
0100
0010
0000
0001
0010
0100
0000
,  // measure 25
1000
0100
0010
0001
0010
0100
1000
0000
,  // measure 26
0002
0000
0000
0000
2003
0000
0000
0000
3010
0100
0010
0000
0100
0000
0000
0000
,  // measure 27
1000
0100
1000
0000
0001
0100
0001
0000
,  // measure 28
1000
0000
0001
0000
0100
0000
0001
0100
0001
0000
0000
0000
1000
0000
0000
0000
,  // measure 29
0001
0100
0010
1000
0010
0100
0001
0000
,  // measure 30
0002
0000
0000
0000
2003
0000
0000
0000
3001
0100
0001
0000
0100
0000
0000
0000
,  // measure 31
1000
0000
0001
0000
1000
0000
0000
0010
0000
0000
1000
0000
0010
0000
1000
0000
,  // measure 32
0100
1000
0100
1000
0001
0010
0001
0010
,  // measure 33
0001
1000
0100
0010
0001
0010
0001
0100
,  // measure 34
0002
0000
0000
0000
2003
0000
0000
0000
3001
0100
0001
0000
0100
0000
0000
0000
,  // measure 35
0010
1000
0100
0000
0010
0001
0100
0000
,  // measure 36
0001
0100
0001
0100
0001
0000
1001
0000
,  // measure 37
1000
0010
0100
0010
1000
0001
0100
0000
,  // measure 38
0020
0000
0032
0000
1003
0010
0100
0000
,  // measure 39
0001
0000
0100
0000
0010
0000
1000
0000
0000
0010
0000
0000
1000
0000
0100
0000
,  // measure 40
1000
0001
1000
0001
0100
0010
0100
0010
,  // measure 41
1000
0100
0010
0001
1000
0100
0010
0001
,  // measure 42
1000
0000
1000
0000
0000
0001
0100
0001
,  // measure 43
0000
0100
0001
0100
0010
0100
0010
0000
,  // measure 44
0001
0010
0001
0010
0000
0001
1000
0001
,  // measure 45
0000
1000
0001
1000
0001
0010
0001
0000
,  // measure 46
0001
0100
0001
0100
0010
0000
0010
1000
,  // measure 47
0100
1000
0100
0000
0010
0001
0010
0000
,  // measure 48
1000
0100
1000
0100
1000
0001
1000
0001
,  // measure 49
0020
0030
0200
0300
,  // measure 50
1000
0000
0001
0000
0100
0000
0000
0001
0000
0000
0001
0000
0100
0000
0000
0000
,  // measure 51
0010
1000
0100
1000
0010
1000
0010
0000
,  // measure 52
0100
0000
0001
0000
1000
0000
0010
1000
0000
0000
1000
0001
0000
0000
1000
0000
,  // measure 53
0001
0100
0010
1000
0001
1000
0001
0000
,  // measure 54
1000
0000
0001
0000
0100
0000
0001
0100
0000
0000
0100
0001
0000
0000
0010
0000
,  // measure 55
0001
0000
0100
0001
0000
0000
0001
0100
0000
0000
0001
0000
0100
0000
0000
0000
,  // measure 56
0010
0000
1000
0000
0010
0000
0000
1000
0000
0000
0010
0000
0100
0000
0000
0000
,  // measure 57
1000
0100
0010
0000
0001
0010
0100
1000
,  // measure 58
0020
0000
0000
0000
0030
0000
1000
0100
1000
0000
0001
0000
0000
0000
0100
0000
,  // measure 59
0010
0000
0000
0000
0001
0000
1000
0100
1000
0000
0000
1001
0000
0000
1000
0000
,  // measure 60
0002
0000
0000
0000
0103
0000
0001
0100
0001
0000
0000
0000
0100
0000
0010
0000
,  // measure 61
1000
0000
0001
0000
0000
0000
1000
0001
0100
0000
0000
0101
0000
0000
0100
0010
,  // measure 62
0100
0000
0010
0000
1000
0000
0001
0100
0001
0000
0100
0000
0000
0000
0010
0000
,  // measure 63
0010
0000
0000
0000
1000
0000
0100
1000
0100
0000
0000
1001
0000
0000
0010
0000
,  // measure 64
1000
0000
0000
0000
0001
0000
0100
0010
0100
0000
0001
0000
0000
0000
1000
0000
,  // measure 65
0100
1000
0001
0000
0010
0001
0200
0000
,  // measure 66
1300
0000
0000
0000
1001
0000
0000
0000
0001
0100
0001
0000
0100
0000
0000
0000
,  // measure 67
0001
0000
0010
0000
0100
0000
0010
0100
0010
0000
0100
0000
0001
0000
0100
0001
,  // measure 68
0100
0000
1001
0000
0001
0100
0001
0000
,  // measure 69
2000
0000
0000
0000
3001
0000
0100
0001
0100
0000
0010
0000
0100
0000
0001
0000
,  // measure 70
0200
0000
0000
0000
0320
0000
0000
0000
1030
0100
1000
0000
0100
1000
0100
0000
,  // measure 71
1000
0000
0010
0000
0100
0000
0001
0000
0100
0001
0100
0000
0001
0000
0100
0000
,  // measure 72
0010
1000
0010
1000
0001
0100
0001
0100
,  // measure 73
1000
0010
0100
0001
1000
0100
0010
0001
,  // measure 74
2000
0000
0000
0000
3020
0000
0000
0000
0130
0001
0100
0000
0001
0000
0000
0000
,  // measure 75
0100
0010
1000
0000
0010
0100
0001
0000
,  // measure 76
1000
0100
1000
0100
1000
0010
0100
0000
,  // measure 77
0001
0100
0001
0100
0001
0010
0001
0000
,  // measure 78
2000
0000
0000
0000
3002
0000
0000
0000
0103
0010
0100
0000
0010
0000
0000
0000
,  // measure 79
1000
0100
0010
0001
0100
0010
1000
0100
,  // measure 80
0010
0000
0001
0100
0000
0000
0100
1000
0000
0000
1000
0010
0000
0000
0010
0000
,  // measure 81
0100
0001
1000
0010
0100
0001
1000
0100
,  // measure 82
0020
0000
0030
0000
,  // measure 83
0002
0000
0003
0000
,  // measure 84
0200
0000
0300
0000
,  // measure 85
2000
0000
3002
0000
,  // measure 86
0203
0000
0300
0000
,  // measure 87
2000
0000
3000
0000
,  // measure 88
0020
0000
0030
0000
,  // measure 89
0002
0000
2000
0000
,  // measure 90
0000
0000
0000
0000
,  // measure 91
3003
0000
0000
0000
;

//---------------dance-single - ----------------
#NOTES:
     dance-single:
     :
     Medium:
     10:
     0.502,0.584,0.276,0.406,0.012: // measure 1
0000
0000
0000
0000
,  // measure 2
0000
0000
0000
0000
,  // measure 3
0000
0000
0000
0000
,  // measure 4
0000
0000
0000
0000
,  // measure 5
0000
0000
0000
0000
,  // measure 6
0000
0000
0000
0000
,  // measure 7
0000
0000
0000
0000
,  // measure 8
0000
0000
0000
0000
,  // measure 9
0000
0000
0000
0000
,  // measure 10
0010
0100
0000
0010
0000
0100
0010
0000
,  // measure 11
0010
0001
0010
0000
0001
0010
0001
0000
,  // measure 12
0010
0100
0000
0010
0000
0100
0010
0000
,  // measure 13
0100
0001
0100
0000
1000
0100
1000
0000
,  // measure 14
0001
1000
0000
0001
0000
1000
0001
0000
,  // measure 15
0100
1001
0010
1001
,  // measure 16
1000
0001
0000
1000
0000
0001
1000
0000
,  // measure 17
0001
0100
1000
0100
,  // measure 18
2002
0000
0000
3003
,  // measure 19
0220
0000
0000
0330
,  // measure 20
2020
0000
0000
3030
,  // measure 21
0202
0000
0000
0303
,  // measure 22
0001
0000
0100
0000
0001
0100
0001
0000
,  // measure 23
0100
0000
0001
0000
1000
0010
1000
0000
,  // measure 24
1000
0100
1000
0000
0001
0100
0001
0000
,  // measure 25
1000
0001
1000
0000
0001
1000
0001
0000
,  // measure 26
0002
0000
2003
0000
3010
0100
0010
0000
,  // measure 27
1000
0000
1100
0000
0001
0100
0001
0000
,  // measure 28
1000
0000
0101
0000
0100
0001
1000
0000
,  // measure 29
0001
0000
0101
0000
0010
1000
0001
0000
,  // measure 30
2000
0000
3002
0000
1003
0100
1000
0000
,  // measure 31
0001
1000
0001
0000
0010
0001
0010
0000
,  // measure 32
0002
2003
3200
0320
,  // measure 33
0031
0010
0001
0000
1000
0100
1000
0000
,  // measure 34
0002
0000
2003
0000
3001
0001
0100
0000
,  // measure 35
0010
1000
0100
0000
0010
0000
1001
0000
,  // measure 36
1000
0001
1000
0000
1100
0000
1001
0000
,  // measure 37
0001
0100
0010
0000
0010
0000
1001
0000
,  // measure 38
0020
0000
2030
0000
3001
0100
0010
0000
,  // measure 39
1000
0100
0001
0010
,  // measure 40
1000
0001
1000
0000
0001
1000
0001
0000
,  // measure 41
2000
3200
0320
0032
,  // measure 42
0013
0000
0010
0000
0000
1000
0100
1000
,  // measure 43
0000
0100
1000
0100
1000
0000
0100
0000
,  // measure 44
1000
0010
1000
0010
0000
0000
0001
0000
,  // measure 45
0000
1000
0010
1000
,  // measure 46
1000
0100
1000
0000
0010
0000
0010
0000
,  // measure 47
0001
0100
0001
0000
0010
0000
0010
0000
,  // measure 48
1000
0100
1000
0000
0001
1000
0001
0000
,  // measure 49
0020
0030
0200
0300
,  // measure 50
0001
1000
0100
0000
1000
0000
1100
0000
,  // measure 51
0010
0001
0100
0000
0010
0000
0011
0000
,  // measure 52
0100
1000
0001
0000
0001
0000
1001
0000
,  // measure 53
1000
0001
0010
0000
1001
0000
1001
0000
,  // measure 54
1000
0001
0100
0000
0100
0000
0101
0000
,  // measure 55
0001
0100
0001
0000
0101
0000
0101
0000
,  // measure 56
0010
1000
0010
0000
1000
0000
0110
0000
,  // measure 57
1000
0100
0010
0000
0001
0010
0100
0000
,  // measure 58
0020
0000
0000
1000
1030
0001
0000
1000
,  // measure 59
1000
0000
0000
0000
0000
0000
1000
0000
0001
0000
0000
0001
0000
0000
0001
0000
,  // measure 60
0200
0000
0000
0301
0001
0000
0000
1000
,  // measure 61
0000
0000
0001
0000
0000
0000
1000
0000
0010
0000
0000
0010
0000
0000
0010
0000
,  // measure 62
0200
0000
0000
0001
0301
1000
0000
0001
,  // measure 63
0001
0000
0000
0000
0000
0000
0010
0000
1000
0000
0000
1000
0000
0000
0010
0000
,  // measure 64
2000
0000
0000
0100
3100
0000
0001
0000
,  // measure 65
0200
0000
0310
1001
,  // measure 66
0010
0000
1001
0000
0001
0100
0001
0000
,  // measure 67
0001
0100
0110
1001
,  // measure 68
0101
0000
1001
0000
1000
0100
1000
0000
,  // measure 69
0001
0000
1000
0100
1000
0000
0100
1000
,  // measure 70
0100
0000
0020
0000
0031
0100
0001
0000
,  // measure 71
0001
0010
0100
0000
1000
0100
1000
0000
,  // measure 72
0010
0001
0010
0000
0010
0001
0010
0000
,  // measure 73
2000
3200
0320
0032
,  // measure 74
1003
0000
0220
0000
0330
1000
0001
0000
,  // measure 75
0100
1010
0010
0101
,  // measure 76
0001
0100
0001
0000
0001
0000
1001
0000
,  // measure 77
1000
0100
1000
0000
0001
0010
0100
0000
,  // measure 78
2000
0000
3002
0000
0103
0010
0100
0000
,  // measure 79
0001
0010
1000
0100
,  // measure 80
0010
0100
0010
0000
1000
0001
1000
0000
,  // measure 81
0100
0001
1000
0000
0110
0000
1001
0000
,  // measure 82
0020
0000
0030
0000
,  // measure 83
2000
0000
3000
0000
,  // measure 84
0200
0000
0300
0000
,  // measure 85
0002
0000
2003
0000
,  // measure 86
3200
0000
0300
0000
,  // measure 87
0002
0000
0003
0000
,  // measure 88
0020
0000
0030
0000
,  // measure 89
2000
0000
0002
0000
,  // measure 90
0000
0000
0000
0000
,  // measure 91
3003
0000
0000
0000
;

//---------------dance-single - ----------------
#NOTES:
     dance-single:
     :
     Easy:
     6:
     0.351,0.438,0.162,0.365,0.000: // measure 1
0000
0000
0000
0000
,  // measure 2
0000
0000
0000
0000
,  // measure 3
0000
0000
0000
0000
,  // measure 4
0000
0000
0000
0000
,  // measure 5
0000
0000
0000
0000
,  // measure 6
0000
0000
0000
0000
,  // measure 7
0000
0000
0000
0000
,  // measure 8
0000
0000
0000
0000
,  // measure 9
0000
0000
0000
0000
,  // measure 10
1000
0010
1000
0010
,  // measure 11
0001
0010
0001
0010
,  // measure 12
1000
0010
0001
0010
,  // measure 13
1000
0100
0010
0001
,  // measure 14
1000
0100
1000
0100
,  // measure 15
0001
0100
0001
0100
,  // measure 16
1000
0100
0001
0100
,  // measure 17
1000
0100
0010
0001
,  // measure 18
2002
0000
0000
3003
,  // measure 19
0020
0000
0000
0030
,  // measure 20
2000
0000
0000
3000
,  // measure 21
0200
0000
0000
0300
,  // measure 22
0001
0100
0001
0001
,  // measure 23
1000
0100
1000
1000
,  // measure 24
0001
0001
1000
1000
,  // measure 25
0001
0010
0100
1000
,  // measure 26
0000
2002
3003
0010
,  // measure 27
1000
0100
0001
0010
,  // measure 28
0000
1001
0000
1000
,  // measure 29
0001
0100
0010
1000
,  // measure 30
0001
2002
3003
0010
,  // measure 31
0001
0100
1000
0010
,  // measure 32
0002
0003
2000
3000
,  // measure 33
0001
0001
1000
1000
,  // measure 34
0000
2002
3003
0001
,  // measure 35
1000
0010
0100
0001
,  // measure 36
0000
1001
0000
0001
,  // measure 37
0010
0100
1000
0001
,  // measure 38
0000
2002
3003
0010
,  // measure 39
1000
0100
0001
0010
,  // measure 40
0002
0003
2000
3000
,  // measure 41
0001
0001
1000
1000
,  // measure 42
2002
0000
3003
0000
,  // measure 43
2000
0000
3000
0000
,  // measure 44
0002
0000
0003
0000
,  // measure 45
0020
0000
0030
0000
,  // measure 46
1000
0000
0010
0000
,  // measure 47
0001
0000
0010
0000
,  // measure 48
1000
0010
0001
0010
,  // measure 49
2000
3000
0002
0003
,  // measure 50
0001
0100
1000
0100
,  // measure 51
0001
0010
0100
1000
,  // measure 52
0001
0010
1000
0010
,  // measure 53
1000
0100
0010
0001
,  // measure 54
1000
0100
0010
0001
,  // measure 55
0001
0010
0100
1000
,  // measure 56
0010
0010
1000
1001
,  // measure 57
0010
0010
0001
1001
,  // measure 58
2000
3000
1000
0100
,  // measure 59
0002
0003
0001
0100
,  // measure 60
2000
3000
1000
0010
,  // measure 61
0002
0003
0001
0010
,  // measure 62
2000
3000
0100
0001
,  // measure 63
0002
0003
0100
1000
,  // measure 64
0010
0001
0010
1000
,  // measure 65
0010
0001
0100
1000
,  // measure 66
0000
2002
3003
1001
,  // measure 67
0010
0100
0010
0100
,  // measure 68
0000
1001
0001
1000
,  // measure 69
0010
0010
0100
0100
,  // measure 70
0000
2002
3003
1001
,  // measure 71
0100
0100
0010
0010
,  // measure 72
1000
0100
0010
0001
,  // measure 73
1000
0001
0010
1000
,  // measure 74
0100
2002
3003
1001
,  // measure 75
0100
0010
0100
0010
,  // measure 76
0000
1001
1000
0001
,  // measure 77
0100
0100
0010
0010
,  // measure 78
0000
2002
3003
1001
,  // measure 79
0010
0010
0100
0100
,  // measure 80
0001
0010
0100
1000
,  // measure 81
0001
1000
0100
0001
,  // measure 82
0020
0000
0030
0000
,  // measure 83
0002
0000
0003
0000
,  // measure 84
2000
0000
3000
0000
,  // measure 85
0001
0000
1000
0000
,  // measure 86
0200
0000
0300
0000
,  // measure 87
0002
0000
0003
0000
,  // measure 88
2000
0000
3000
0000
,  // measure 89
0010
0000
0200
0000
,  // measure 90
0000
0000
0000
0000
,  // measure 91
0300
0000
0000
0000
;

//---------------dance-single - ----------------
#NOTES:
     dance-single:
     :
     Beginner:
     4:
     0.216,0.256,0.041,0.170,0.000: // measure 1
0000
0000
0000
0000
,  // measure 2
0000
0000
0000
0000
,  // measure 3
0000
0000
0000
0000
,  // measure 4
0000
0000
0000
0000
,  // measure 5
0000
0000
0000
0000
,  // measure 6
0000
0000
0000
0000
,  // measure 7
0000
0000
0000
0000
,  // measure 8
0000
0000
0000
0000
,  // measure 9
0000
0000
0000
0000
,  // measure 10
1000
0000
1000
0000
,  // measure 11
0001
0000
0001
0000
,  // measure 12
1000
0000
0001
0000
,  // measure 13
1000
0000
0001
0000
,  // measure 14
0100
0000
0100
0000
,  // measure 15
0010
0000
0010
0000
,  // measure 16
0100
0000
0010
0000
,  // measure 17
0100
0000
0010
0000
,  // measure 18
2000
0000
3000
0000
,  // measure 19
0002
0000
0003
0000
,  // measure 20
2000
0000
3000
0000
,  // measure 21
0002
0000
0003
0000
,  // measure 22
1000
0000
1000
0000
,  // measure 23
0001
0000
0001
0000
,  // measure 24
1000
0000
0001
0000
,  // measure 25
2002
0000
3003
0000
,  // measure 26
0000
0010
0000
0010
,  // measure 27
0000
0100
0000
0100
,  // measure 28
0000
0001
0000
1000
,  // measure 29
0000
0001
0001
0001
,  // measure 30
0000
0100
0000
0100
,  // measure 31
0000
0010
0000
0010
,  // measure 32
0000
1000
0000
0001
,  // measure 33
0000
1000
1000
1000
,  // measure 34
0000
0010
0000
1000
,  // measure 35
0000
0100
0000
0001
,  // measure 36
0000
0010
0000
0010
,  // measure 37
0000
0010
0010
0010
,  // measure 38
0000
0100
0000
1000
,  // measure 39
0000
0010
0000
0001
,  // measure 40
0000
0100
0000
0100
,  // measure 41
0200
0000
0300
0000
,  // measure 42
2002
0000
3003
0000
,  // measure 43
2000
0000
3000
0000
,  // measure 44
0002
0000
0003
0000
,  // measure 45
0020
0000
0030
0000
,  // measure 46
1000
0000
0010
0000
,  // measure 47
0001
0000
0010
0000
,  // measure 48
1000
1000
1000
1000
,  // measure 49
1000
0000
0001
0000
,  // measure 50
0100
0100
0000
0100
,  // measure 51
0000
0001
0000
0010
,  // measure 52
0010
0010
0000
0010
,  // measure 53
0000
1000
0000
0100
,  // measure 54
0100
0100
0000
1000
,  // measure 55
0000
0010
0000
0001
,  // measure 56
0010
0010
0000
1000
,  // measure 57
0000
0100
0000
0001
,  // measure 58
1000
0000
0001
0000
,  // measure 59
1000
0000
0001
0000
,  // measure 60
0100
0000
0010
0000
,  // measure 61
0100
0000
0010
0000
,  // measure 62
1000
0000
0001
0000
,  // measure 63
0100
0000
0010
0000
,  // measure 64
0200
0000
0300
0000
,  // measure 65
0002
0000
0003
0000
,  // measure 66
1000
1000
0000
0001
,  // measure 67
0000
1000
0000
0001
,  // measure 68
0000
1000
1000
1000
,  // measure 69
0000
0001
0001
0001
,  // measure 70
0000
1001
0000
1000
,  // measure 71
0000
0001
0000
1000
,  // measure 72
1000
0000
0001
0000
,  // measure 73
1000
1000
0001
0001
,  // measure 74
0000
1001
0000
0010
,  // measure 75
0000
0010
0000
0010
,  // measure 76
0000
0001
0001
0001
,  // measure 77
0000
1000
1000
1000
,  // measure 78
0000
1001
0000
0100
,  // measure 79
0000
0100
0000
0100
,  // measure 80
0000
0001
0001
0001
,  // measure 81
0000
1000
1000
1000
,  // measure 82
2000
0000
3000
0000
,  // measure 83
0002
0000
0003
0000
,  // measure 84
2000
0000
3000
0000
,  // measure 85
0001
0000
1000
0000
,  // measure 86
0020
0000
0030
0000
,  // measure 87
0200
0000
0300
0000
,  // measure 88
0020
0000
0030
0000
,  // measure 89
0100
0000
0020
0000
,  // measure 90
0000
0000
0000
0000
,  // measure 91
0030
0000
0000
0000
;
