#TITLE:O/D*20;
#SUBTITLE:;
#ARTIST:Ryu*;
#TITLETRANSLIT:;
#SUBTITLETRANSLIT:;
#ARTISTTRANSLIT:;
#GENRE:;
#CREDIT:;
#MENUCOLOR:;
#METERTYPE:DDR;
#BANNER:OD20.png;
#BACKGROUND:OD20-bg.png;
#LYRICSPATH:;
#CDTITLE:;
#MUSIC:OD20.ogg;
#OFFSET:-0.220;
#SAMPLESTART:36.560;
#SAMPLELENGTH:16.000;
#SELECTABLE:YES;
#LISTSORT:;
#BPMS:0.000=155.000;
#STOPS:;
#BGCHANGES:;
#ATTACKS:;

//---------------dance-single - ----------------
#NOTES:
     dance-single:
     :
     Hard:
     13:
     0.587,0.665,0.243,0.486,0.186:
0000
0000
0000
0000
,
0000
0000
0000
0000
,
0000
0000
0000
0000
,
0000
0000
0000
0000
,
1000
0000
0001
0100
1000
0000
0001
0100
,
1000
0000
0010
1000
0100
0000
0010
0001
,
0100
0000
0001
1000
0010
0000
1000
0001
,
0000
1001
0000
0101
0000
1100
0000
0010
,
0100
0000
0001
1000
0100
0000
1001
0000
,
0010
0000
0001
1000
0100
0000
1001
0000
,
0100
0000
0010
1000
0100
0000
1001
0000
,
0000
1100
0000
0011
0000
0100
0010
0000
,
2000
3002
0203
0300
,
0002
2003
3200
0300
,
2000
3002
0023
0030
,
0002
2003
3020
0030
,
0200
0000
0000
0000
,
0000
0300
0000
0000
,
0002
2003
3002
0003
,
2000
3002
2003
3000
,
0020
0000
0000
2030
0000
0000
3020
0000
,
0000
0032
0000
0000
0023
0000
0230
0000
,
0302
0000
0000
0203
0000
0000
2300
0000
,
0000
3200
0000
0000
0301
0100
0001
0000
,
0010
1000
0100
0000
1000
0001
0100
0000
,
0001
0010
0100
0000
1001
0000
0001
0000
,
1000
0010
0100
0000
0001
1000
0100
0000
,
1000
0001
0100
0000
0000
1000
0001
1000
,
0002
0000
0000
0203
0000
0000
0320
1000
,
0000
2030
0001
0000
3002
0100
0013
0100
,
0020
0000
0000
2030
0000
0000
3002
0100
,
0000
0203
0010
0000
0310
1000
0010
1000
,
0100
0000
1000
0000
0001
0000
1000
0001
0000
0000
0100
0000
0000
0000
0001
1000
,
0000
0000
0010
0000
0000
0000
1000
0001
0000
0000
0100
0000
0000
0000
0010
0100
,
0000
0000
0001
0000
0100
0000
0001
0100
0000
0000
1000
0000
0100
0000
1000
0100
,
0000
0000
0001
0000
0010
0000
0001
0010
0000
0000
1000
0000
0010
0000
1000
0000
,
1001
0000
0000
0000
0110
0000
0000
0000
0010
0000
0010
0000
1000
0001
0000
0000
,
0000
0000
1001
0000
0000
0000
0000
0000
0010
0000
0010
0000
0001
1000
0000
0000
,
1001
0000
0000
0000
1001
0000
0000
0000
0010
0000
0010
0000
1000
0001
0000
0000
,
0000
1001
0000
0000
0001
0100
1000
0000
,
0001
0000
0100
0000
0001
0000
1000
0010
1000
0000
0001
0000
0100
0000
0010
1000
,
0010
0000
0100
0000
0001
0000
1000
0010
1000
0000
0001
0000
0100
0000
0010
0100
,
0010
0000
1000
0000
0100
0000
1000
0100
1000
0000
0001
0000
0010
0000
0001
0100
,
0001
0000
1000
0000
0010
0000
1000
0010
1000
0000
0001
0000
0100
0000
0010
0000
,
1001
0000
0000
0000
1001
0000
0000
0000
0010
0000
0100
0000
0001
1000
0000
0000
,
0000
0000
1001
0000
0000
0000
0000
0000
0001
0000
1000
0000
0010
0100
0000
0000
,
1100
0000
0000
0000
0011
0000
0000
0000
0010
0000
0010
0000
1000
0001
0000
0000
,
0000
0110
0000
0000
0001
0100
1000
0000
,
0020
0000
0000
1000
2030
0000
3002
0000
,
0000
0103
0020
0000
2030
0000
3200
0000
,
0302
0000
0000
0100
0203
0000
0320
0000
,
0000
1030
0200
0000
2300
0000
3002
0000
,
1003
0000
0000
0100
0000
0000
0010
0000
0000
0001
0000
0000
0100
0000
0010
0000
,
0001
0000
0000
0010
0000
0000
0100
0000
0000
1000
0000
0000
0010
0000
0100
0000
,
1000
0000
0000
0010
0000
0000
0100
0000
0000
0001
0000
0000
1000
0000
0100
0000
,
0020
0000
0000
0000
0000
0030
0000
0000
1000
0000
0001
0000
0100
0000
0000
0000
,
1000
0000
0010
0000
1000
0000
0001
0000
1000
0000
0001
0100
0000
0100
0001
0000
,
1000
0000
0010
0000
1000
0000
0100
0000
1000
0000
0001
0100
0000
0100
0001
0000
,
0100
0000
0010
0000
0100
0000
0010
0000
1000
0000
0001
1000
0000
1000
0001
0000
,
1000
0000
0010
0000
0100
0000
0001
0000
1000
0000
0010
1000
0000
1000
0010
0000
,
0100
0000
0001
0000
1000
0000
0001
0000
0100
0000
0010
1000
0000
1000
0010
0000
,
0100
0000
0001
0000
1000
0000
0001
0000
0100
0000
0001
0010
0000
0010
0001
0000
,
0100
0000
0010
0000
1000
0000
0010
0000
0100
0000
0001
0010
0000
0010
0001
0000
,
0100
0101
0000
1100
0000
0101
0000
1100
,
0100
1000
0002
0000
1003
0001
0100
0000
,
0010
1000
0002
0000
1003
0001
0010
0000
,
0100
0001
0020
0000
0031
0100
0010
0000
,
1000
0100
2000
0000
3001
0100
0001
0000
,
0010
0000
1000
0000
0001
0100
0001
0000
1000
0000
0010
0000
0100
0000
0001
0000
,
1000
0000
0100
0000
1000
0001
1000
0000
0010
0000
0100
0000
0001
0000
1000
0000
,
0001
0000
0100
0000
0010
1000
0010
0000
0100
0000
0010
0000
0001
0000
1000
0000
,
0010
0100
0001
0000
1001
1001
1001
0000
,
0020
0000
0000
0000
,
0030
0000
0000
0000
;

//---------------dance-double - ----------------
#NOTES:
     dance-double:
     :
     Hard:
     12:
     0.543,0.665,0.226,0.555,0.139:
00000000
00000000
00000000
00000000
,
00000000
00000000
00000000
00000000
,
00000000
00000000
00000000
00000000
,
00000000
00000000
00000000
00000000
,
10000000
00000000
01000000
10000000
00100000
00000000
01000000
00010000
,
00100000
00000000
00001000
00010000
00000100
00000000
00001000
00000100
,
00000010
00000000
00000001
00000100
00001000
00000000
00000010
00001000
,
00000000
00001100
00000000
00011000
00000000
01010000
00000000
10000000
,
01000000
00000000
10000000
00100000
00010000
00000000
00110000
00000000
,
00100000
00000000
00001000
00010000
00000100
00000000
00001100
00000000
,
00001000
00000000
00000010
00000100
00000001
00000000
00001001
00000000
,
00000000
00000110
00000000
00001100
00001000
00000100
00010000
00000000
,
00002000
00000000
00023000
00000000
,
02030000
00000000
23000000
00000000
,
32000000
00000000
03020000
00000000
,
00032000
00000000
00003200
00000000
,
00000302
00000000
00000000
00000000
,
00000003
00000000
00000000
00000000
,
00000020
00001000
00000130
00000000
,
00020000
00001000
00130000
00000000
,
02000000
00000000
00000000
23000000
00000000
00000000
30200000
00000000
,
00000000
02300000
00000000
00000000
03020000
00000000
00032000
00000000
,
00003020
00000000
00000000
00002030
00000000
00000000
00003200
00000000
,
00000000
00000302
00000000
00000000
00001003
00000100
00000001
00000000
,
00000020
00000000
00001030
00000100
00002000
00000000
00003200
00000000
,
00020300
00000000
00031000
00010000
00002000
00000000
00203000
00000000
,
00320000
00000000
01030000
10000000
02000000
00000000
23000000
00000000
,
30200000
00000000
00310000
00100000
00020000
00000000
00030200
00000000
,
00002300
00000000
00003010
00000100
00000002
00000000
00000103
00000010
,
00001000
00000100
00000100
00000000
00001000
00000001
00000100
00000001
,
00002000
00000000
00003010
00000100
00002000
00000000
00003100
00010000
,
00000000
00001000
00001000
00000000
00100000
00010000
01000000
00000000
,
10000000
00000000
00100000
00000000
00000000
00000000
01000000
00010000
00000000
00000000
01000000
00000000
00000000
00000000
00100000
01000000
,
00000000
00000000
10000000
00000000
00000000
00000000
00010000
01000000
00000000
00000000
00001000
00000000
00000000
00000000
00010000
00001000
,
00000000
00000000
00000100
00000000
00000000
00000000
00001000
00000100
00000000
00000000
00000010
00000000
00000000
00000000
00000001
00000100
,
00000000
00000010
00000000
00001000
00000100
00010000
00001000
00000000
,
00011000
00000000
00000000
00000000
00110000
00000000
00000000
00000000
01000000
00000000
01000000
00000000
10000000
00010000
00000000
00000000
,
00000000
00000000
11000000
00000000
00000000
00000000
00000000
00000000
00100000
00000000
00100000
00000000
10000000
00010000
00000000
00000000
,
01100000
00000000
00000000
00000000
00110000
00000000
00000000
00000000
00001000
00000000
00001000
00000000
00010000
00001000
00000000
00000000
,
00000000
00001100
00000000
00000000
00001000
00000100
00000001
00000000
,
00001000
00000000
00000100
00000000
00001000
00000000
00000010
00001000
00000010
00000000
00001000
00000000
00000100
00000000
00010000
00000100
,
00010000
00000000
00001000
00000000
00100000
00000000
00001000
01000000
00001000
00000000
00010000
00000000
10000000
00000000
01000000
10000000
,
01000000
00000000
10000000
00000000
00100000
00000000
01000000
00010000
01000000
00000000
00010000
00000000
00100000
00000000
00001000
00010000
,
00001000
00000000
00010000
00000000
00000010
00000000
00001000
00000100
00001000
00000000
00000001
00000000
00000100
00000000
00000010
00000000
,
00001001
00000000
00000000
00000000
00000110
00000000
00000000
00000000
00000001
00000000
00000100
00000000
00000001
00000100
00000000
00000000
,
00000000
00000000
00001100
00000000
00000000
00000000
00000000
00000000
00010000
00000000
00001000
00000000
01000000
00001000
00000000
00000000
,
01010000
00000000
00000000
00000000
11000000
00000000
00000000
00000000
00100000
00000000
00100000
00000000
10000000
00010000
00000000
00000000
,
00000000
01100000
00000000
00000000
10000000
01000000
00010000
00000000
,
20000000
00000000
30200000
00320000
,
00000000
00031000
00000100
00000000
00000020
00000000
00000032
00000000
,
00000203
00000000
00002300
02003000
,
00000000
03010000
00100000
00000000
20000000
00000000
32000000
00000000
,
13000000
00000000
00000000
01000000
00000000
00000000
00100000
00000000
00000000
00010000
00000000
00000000
01000000
00000000
00100000
00000000
,
00001000
00000000
00000000
00010000
00000000
00000000
00000010
00000000
00000000
00000100
00000000
00000000
00000001
00000000
00000100
00000000
,
00000001
00000000
00000000
00000010
00000000
00000000
00000100
00000000
00000000
00001000
00000000
00000000
00000100
00000000
00010000
00000000
,
00002000
00000000
00000000
00000000
00013000
00001000
01000000
00000000
,
10000000
00000000
00100000
00000000
01000000
00000000
00000000
00000000
00010000
00000000
00000000
00100000
00000000
00000000
00010000
00000000
,
00001000
00000000
00010000
00000000
00001000
00000000
00000000
00000000
00000100
00000000
00000000
00001000
00000000
00000000
00000010
00000000
,
00000100
00000000
00000001
00000000
00000100
00000000
00000000
00000000
00000010
00000000
00000000
00001000
00000000
00000000
00000100
00000000
,
00010000
00000000
00001000
00000000
00010000
00000000
00000000
00000000
00001000
00000000
00000000
01000000
00000000
00000000
00010000
00000000
,
10000000
00000000
01000000
00000000
00010000
00000000
00000000
00000000
10000000
00000000
00000000
10000000
00000000
00000000
10000000
00000000
,
00010000
00000000
01000000
00000000
00010000
00000000
00000000
00000000
00001000
00000000
00000000
00001000
00000000
00000000
00010000
00000000
,
00000100
00000000
00001000
00000000
00000010
00000000
00000000
00000000
00000100
00000000
00000000
00000100
00000000
00000000
00000100
00000000
,
00000000
00000011
00000000
00001010
00000000
00001100
00000000
00000100
,
00000001
00000100
00002000
00000000
00003010
00000100
00002000
00000000
,
00003100
00010000
00002000
00000000
00013000
00001000
02000000
00000000
,
03010000
00100000
02000000
00000000
03010000
01000000
20000000
00000000
,
30100000
01000000
20000000
00000000
30100000
01000000
00002000
00000000
,
00013000
00000100
00002000
00000000
00003010
00000100
00002000
00000000
,
00003001
00000100
00002000
00000000
00003010
00010000
00002000
00000000
,
00013000
00001000
02000000
00000000
03010000
00100000
02000000
00000000
,
23000000
00000000
30000000
00000000
10010000
10010000
10010000
00000000
,
00200000
00000000
00000000
00000000
,
00300000
00000000
00000000
00000000
;

//---------------dance-single - ----------------
#NOTES:
     dance-single:
     :
     Medium:
     9:
     0.383,0.443,0.252,0.243,0.000:
0000
0000
0000
0000
,
0000
0000
0000
0000
,
0000
0000
0000
0000
,
0000
0000
0000
0000
,
1000
0000
0001
0100
0001
0000
1000
0000
,
0001
0000
1000
0010
1000
0000
0001
0000
,
0100
0000
0010
0100
0010
0000
1000
0000
,
0000
0001
0000
0001
0000
0001
0000
0001
,
0000
0000
1000
0100
1000
0000
1001
0000
,
0000
0000
0001
0100
0001
0000
1001
0000
,
0000
0000
1000
0010
1000
0000
1001
0000
,
0000
1001
0000
1001
0000
0000
0000
0000
,
0020
0000
0000
0030
,
0200
0000
0000
0300
,
0002
0000
0000
0003
,
2000
0000
0000
3000
,
2002
0000
0000
0000
,
0000
0000
0000
3003
,
0010
0100
0100
0000
,
0010
0100
0100
0000
,
0002
0000
0000
1000
0000
0000
1000
0000
,
0000
1000
0000
0000
1003
0000
0010
0000
,
2000
0000
0000
0001
0000
0000
0001
0000
,
0000
3001
0000
0000
0010
0000
0100
0000
,
0001
0000
1000
0000
0001
1000
0001
0000
,
1000
0001
0100
0010
,
1000
0000
0001
0000
1000
0001
1000
0000
,
0010
0000
0100
0000
0000
0001
1000
0001
,
0000
0000
0100
0010
0000
0000
0100
0010
,
0000
0100
0010
0000
0000
1000
0001
1000
,
0000
0000
0010
0100
0000
0000
0010
0100
,
0000
0010
0100
0000
0000
0001
1000
0001
,
1000
0101
1000
1100
,
0001
1100
0001
0101
,
0010
0110
1000
1001
,
0010
1010
0100
0101
,
1001
0000
1001
0000
0010
0100
0010
0000
,
0000
1001
0000
0000
0100
0010
0100
0000
,
1001
0000
1001
0000
0010
0100
0010
0000
,
0000
1001
0000
0000
0010
0000
0100
0000
,
0001
0000
0001
0100
0001
0000
0100
0000
,
0100
0000
1000
0100
1000
0000
1000
0000
,
0010
0000
0010
0100
0010
0000
0001
0000
,
0001
0000
0001
0000
1000
0100
1000
0000
,
1001
0000
1001
0000
0010
0010
0010
0000
,
0000
1001
0000
0000
0100
0100
0100
0000
,
1001
0000
1001
0000
0010
1000
0010
0000
,
0000
1001
0000
0000
0100
0000
0010
0000
,
2000
0000
3001
0100
,
0000
0100
0002
1003
,
0020
0000
0130
0001
,
0000
0001
0100
0010
,
2000
0000
3100
0001
,
0000
0002
0103
1000
,
2000
0000
3001
0200
,
0000
0310
1000
1001
,
0001
0000
0010
0000
0001
0100
0001
0000
,
1000
0000
0100
0000
1000
0010
1000
0000
,
0001
0000
0100
0000
0001
0100
1000
0000
,
1000
0000
0100
0000
1000
0100
0001
0000
,
0010
0000
0010
0000
0001
0100
0001
0000
,
0100
0000
0100
0000
0010
1000
0010
0000
,
1000
0000
1000
0000
0001
0100
0001
0000
,
0010
0000
0010
0000
0001
0100
0001
0000
,
2000
0000
0000
0001
0000
0000
3002
0000
,
0000
0100
0000
0000
0203
0000
0320
0000
,
2030
0000
0000
0001
0000
0000
3002
0000
,
0000
0100
0000
0000
0103
0000
0010
0000
,
2000
0000
0000
0100
0000
0000
3020
0000
,
0000
0100
0000
0000
2030
0000
3002
0000
,
2003
0000
0000
0010
0000
0000
3020
0000
,
0000
0130
0000
0000
1001
0000
1001
0000
,
0020
0000
0000
0000
,
0030
0000
0000
0000
;

//---------------dance-double - ----------------
#NOTES:
     dance-double:
     :
     Medium:
     9:
     0.418,0.570,0.373,0.234,0.000:
00000000
00000000
00000000
00000000
,
00000000
00000000
00000000
00000000
,
00000000
00000000
00000000
00000000
,
00000000
00000000
00000000
00000000
,
00100000
10000000
00100000
00010000
,
00100000
10000000
00100000
00010000
,
00001000
00000010
00000001
00000010
,
00001000
00000010
00000000
00000010
00000000
00000010
00001000
00000000
,
00000001
00000000
00000101
00000000
00001000
00000100
00001000
00000000
,
00001000
00000000
00000100
00000000
00001000
00010000
00001000
00000000
,
00010000
00000000
00001000
00000000
01000000
00010000
01000000
00000000
,
00000000
10010000
00000000
01100000
00000000
00000000
00000000
00000000
,
20000000
00000000
30000000
00000000
,
00020000
00000000
00030000
00000000
,
00002000
00000000
00003000
00000000
,
00000002
00000000
00000003
00000000
,
00000020
00000000
00000000
00000030
,
00000000
00000000
00000000
00000000
,
00000001
00000100
00000001
00000000
,
00001000
00000100
00001000
00000000
,
00000200
00000000
00000000
00010000
00000000
00000000
00020300
00000000
,
00000000
00001000
00000000
00000000
00031000
00000000
01000000
00000000
,
00020000
00000000
00000000
10000000
00000000
00000000
02030000
00000000
,
00000000
00001000
00000000
00000000
03001000
00000000
00010000
00000000
,
00000100
00000000
00001000
00000000
00000010
00001000
00000100
00000000
,
00001000
00000000
00000010
00000000
00000010
00000100
00000001
00000000
,
00000100
00000000
00000010
00000000
00001000
00000100
00001000
00000000
,
00000100
00000000
00010000
00000000
00000000
00001000
00010000
00001000
,
00000000
00000000
00001000
01000000
00000000
00000000
00001000
01000000
,
00000000
00010000
01000000
00000000
00000000
00100000
10000000
00100000
,
00000000
00000000
01000000
00100000
00000000
00000000
00100000
01000000
,
00000000
01000000
00010000
01000000
00000000
00000000
10010000
00000000
,
00000000
10000000
00000000
00010000
00000000
10000000
00000000
01000000
,
00000000
00010000
00000000
00001000
00000000
00000100
00000000
00000001
,
00000000
00000100
00000000
00001000
00000000
00010000
00000000
01000000
,
00000000
10000000
00000000
00010000
01000000
00010000
10000000
00000000
,
10010000
00000000
10010000
00000000
01000000
00100000
01000000
00000000
,
00000000
00110000
00000000
00000000
00001000
00010000
00001000
00000000
,
00001100
00000000
00001100
00000000
00000010
00000100
00000010
00000000
,
00000000
00001001
00000000
00000000
00000010
00000010
00000010
00000000
,
00000101
00000101
00001100
00001100
,
00011000
00011000
01010000
01010000
,
11000000
11000000
10100000
10100000
,
01010000
01010000
00011000
00011000
,
00001100
00000000
00001100
00000000
00000010
00000100
00000001
00000000
,
00000000
00001001
00000000
00000000
00000010
00001000
00000100
00000000
,
00010100
00000000
00010100
00000000
00001000
00010000
01000000
00000000
,
00000000
01010000
00000000
00000000
00100000
00100000
00100000
00000000
,
20000000
00000000
30020000
02030000
,
00000000
03020000
10030000
00100000
,
00020000
00000000
02030000
03002000
,
00000000
00023000
00030020
00000230
,
00000302
00000000
00002003
00003200
,
00000000
00020300
00032000
02003000
,
03200000
00000000
10300000
01000000
,
00000000
00000000
10010000
10010000
,
10000000
00000000
00010000
00000000
01000000
00100000
01000000
00000000
,
00010000
00000000
00100000
00000000
00001000
00010000
00001000
00000000
,
00010000
00000000
00000100
00000000
00001000
00000001
00001000
00000000
,
00000001
00000000
00001000
00000000
00000100
00010000
00000100
00000000
,
00010000
00000000
00001000
00000000
01000000
00010000
01000000
00000000
,
00010000
00000000
10000000
00000000
00100000
10000000
00100000
00000000
,
00010000
00000000
00001000
00000000
00010000
00000100
00010000
00000000
,
00000000
00000100
00000000
00000001
00000000
00000010
00000000
00001000
,
00000100
00000000
00001100
00000000
00000100
00010000
00001000
00000000
,
01000000
00010000
01000000
00000000
00100000
10000000
00100000
00000000
,
11000000
00000000
01010000
00000000
10000000
01000000
00100000
00000000
,
01000000
00010000
00100000
00000000
00100000
00001000
00010000
00000000
,
00010100
00000000
00001100
00000000
00000010
00001000
00000100
00000000
,
00000001
00001000
00000100
00000000
00010000
00001000
01000000
00000000
,
01010000
00000000
11000000
00000000
10000000
00100000
01000000
00000000
,
00010000
00000000
00011000
00011000
,
00002000
00000000
00000000
00000000
,
00003000
00000000
00000000
00000000
;

//---------------dance-double - Copied from----------------
#NOTES:
     dance-double:
     Copied from:
     Easy:
     6:
     0.297,0.380,0.147,0.243,0.000:
00000000
00000000
00000000
00000000
,
00000000
00000000
00000000
00000000
,
00000000
00000000
00000000
00000000
,
00000000
00000000
00000000
00000000
,
00100000
10000000
00100000
00000000
,
00100000
00010000
00100000
00000000
,
00001000
00010000
00001000
00000000
,
00010000
00001000
00010000
00000000
,
00000100
00001000
00000100
00000000
,
00000001
00000100
00000001
00000000
,
00001000
00000100
00010000
00000000
,
00000000
00010000
00000000
00010000
00000000
00000000
00000000
00000000
,
00002000
00000000
00003000
00000000
,
00020000
00000000
00030000
00000000
,
00002000
00000000
00003000
00000000
,
00020000
00000000
00030000
00000000
,
00002000
00000000
00000000
00000000
,
00003000
00000000
00000000
00000000
,
00001000
00000100
00001000
00000000
,
00000001
00000100
00000001
00000000
,
00000200
00000000
00000300
00000000
,
00020000
00000000
00030000
00000000
,
00002000
00000000
00003000
00000000
,
00000000
00000000
01000000
00100000
,
10000000
10000000
00010000
00010000
,
10000000
01000000
00010000
00001000
,
00000001
00000001
00001000
00001000
,
00000001
00000000
00000100
00000000
00001000
00000000
00010000
00001000
,
00000000
00000000
00000000
00010000
00000000
00000000
00000000
00010000
,
00000000
01000000
01000000
00000000
00000000
00100000
00000000
10000000
,
00000000
00000000
00000000
01000000
00000000
00000000
00000000
01000000
,
00000000
10000000
10000000
00000000
00100000
00000000
01000000
00000000
,
00000000
00010000
10000000
01000000
,
00000000
10000000
00010000
01000000
,
00000000
00001000
00010000
00000100
,
00000000
00001000
00000001
00000100
,
00000000
00000001
00000001
00001000
,
00000000
00011000
00001000
00010000
,
00000000
10010000
00010000
10000000
,
00000000
00000000
10010000
10010000
,
10000000
01000000
00100000
00010000
,
00001000
00010000
00001000
00010000
,
00000010
00001000
00000100
00000001
,
00001000
00000010
00001000
00000010
,
00001001
00001001
00000020
00000030
,
00000000
00001001
00000000
00000000
00000200
00000000
00000300
00000000
,
00011000
00011000
00020000
00030000
,
00000000
00011000
00000000
00000000
00002000
00000000
00003000
00000000
,
00200000
00000000
10300000
00000000
,
00000000
20000000
31000000
00000000
,
00020000
00000000
00031000
00000000
,
00000000
00002000
00003100
00000000
,
00000002
00000000
00000100
00001003
,
00000000
00002000
00013000
00000000
,
00020000
00000000
01000000
10030000
,
00000000
00000000
01100000
01100000
,
10000000
01000000
10000000
01000000
,
00010000
01000000
00010000
00001000
,
00000100
00001000
00000100
00001000
,
00000010
00000001
00000010
00000001
,
00000100
00000100
00001000
00001001
,
00000100
00000100
00000001
00001001
,
00000010
00001000
00000200
00000300
,
00010000
00001000
00200000
00300000
,
00010000
01000000
10000000
01000000
,
10000000
01000000
00020000
00031000
,
00001000
00000100
00000001
00000100
,
00000001
00000100
00002000
00013000
,
00100000
10000000
00200000
00310000
,
00001000
00000200
00000300
00000010
,
00002001
00003010
00020000
00031000
,
00000000
00000000
00011000
00011000
,
00002000
00000000
00000000
00000000
,
00003000
00000000
00000000
00000000
;

//---------------dance-single - ----------------
#NOTES:
     dance-single:
     :
     Easy:
     5:
     0.328,0.380,0.226,0.208,0.000:
0000
0000
0000
0000
,
0000
0000
0000
0000
,
0000
0000
0000
0000
,
0000
0000
0000
0000
,
0010
1000
0010
1000
,
0010
0001
0010
0001
,
0100
1000
0100
1000
,
0100
0001
0100
0001
,
1000
0100
1000
0100
,
0001
0100
0001
0100
,
0010
0100
0010
0100
,
0000
0000
1001
1001
,
2000
0000
0000
3000
,
0002
0000
0000
0003
,
0200
0000
0000
0300
,
0020
0000
0000
0030
,
2002
0000
0000
0000
,
3003
0000
0000
0000
,
0010
0010
0000
0000
,
0100
0100
0000
0000
,
2000
0000
3000
0000
,
0002
0000
0003
0000
,
0200
0000
0300
0000
,
0000
0000
0010
0010
,
1000
1000
0001
0001
,
1000
0001
1000
0001
,
0100
0100
0001
0001
,
0100
1000
0100
1000
,
0010
0010
0001
0001
,
0010
0001
0100
1000
,
0010
0010
1000
1000
,
0010
1000
0100
0001
,
0100
0100
0010
1001
,
0010
0010
0100
1001
,
0100
0010
1000
1001
,
0010
0100
0001
1001
,
0101
0101
0020
0030
,
0000
1001
0000
0000
0200
0000
0300
0000
,
1001
1001
0020
0030
,
0000
1100
0000
0000
0200
0000
0300
0000
,
0001
0100
1000
0100
,
0001
0010
1000
0010
,
0001
0100
1000
0010
,
1000
0100
0001
0010
,
1001
1001
0020
0030
,
0000
1001
0000
0000
0200
0000
0300
0000
,
1001
1001
0002
0003
,
0000
1001
0000
0000
2000
0000
3000
0000
,
0020
0000
1000
1030
,
0000
0020
0001
0001
,
0031
0000
0200
1000
,
0000
0001
0301
0000
,
0020
0000
1000
1030
,
0000
0200
0001
0001
,
0301
0000
0020
0100
,
0000
0100
0130
0000
,
1000
0001
0100
0100
,
0001
1000
0100
0100
,
1000
0010
0100
0100
,
0001
0010
0100
0100
,
1000
0010
0001
0001
,
1000
0100
0001
0001
,
0010
1000
0100
0100
,
0010
0001
0100
0100
,
1000
1001
0010
0010
,
0001
1001
0010
0010
,
0100
0110
1000
0001
,
0010
0110
0001
1000
,
0100
1000
0001
1001
,
0100
0001
1000
1001
,
0010
1000
0100
1001
,
0010
0001
0100
1000
,
0020
0000
0000
0000
,
0030
0000
0000
0000
;

//---------------dance-single - ----------------
#NOTES:
     dance-single:
     :
     Beginner:
     3:
     0.170,0.222,0.009,0.156,0.000: // measure 1
0000
0000
0000
0000
,  // measure 2
0000
0000
0000
0000
,  // measure 3
0000
0000
0000
0000
,  // measure 4
0000
0000
0000
0000
,  // measure 5
0001
0000
0001
0000
,  // measure 6
1000
0000
1000
0000
,  // measure 7
0100
0000
0100
0000
,  // measure 8
1000
0000
1000
0000
,  // measure 9
0001
0000
0001
0000
,  // measure 10
1000
0000
1000
0000
,  // measure 11
0001
0000
0001
0000
,  // measure 12
0000
0000
1000
1000
,  // measure 13
0000
0000
0000
0000
,  // measure 14
0020
0000
0030
0000
,  // measure 15
0020
0000
0030
0000
,  // measure 16
0020
0000
0030
0000
,  // measure 17
0020
0000
0030
0000
,  // measure 18
0000
0000
0000
0000
,  // measure 19
0010
0010
0000
0000
,  // measure 20
0010
0010
0000
0000
,  // measure 21
0000
0001
0000
0001
,  // measure 22
0000
1000
0000
1000
,  // measure 23
0000
0001
0000
0001
,  // measure 24
0000
0000
1000
1000
,  // measure 25
0000
0001
0000
0001
,  // measure 26
0000
0001
0000
0001
,  // measure 27
0000
1000
0000
1000
,  // measure 28
0000
1000
0000
1000
,  // measure 29
0000
0010
0000
0010
,  // measure 30
0000
0001
0000
0001
,  // measure 31
0000
0100
0000
0100
,  // measure 32
0000
1000
0000
1000
,  // measure 33
1000
0000
0001
0000
,  // measure 34
1000
0000
0001
0000
,  // measure 35
1000
0000
0001
0000
,  // measure 36
1000
0000
0001
0000
,  // measure 37
0100
0000
0200
0300
,  // measure 38
0000
0000
0002
0003
,  // measure 39
0000
0000
0020
0030
,  // measure 40
0000
0000
2000
3000
,  // measure 41
1000
0000
0001
0000
,  // measure 42
1000
0000
0001
0000
,  // measure 43
0100
0100
0100
0000
,  // measure 44
0100
0100
0100
0000
,  // measure 45
0001
0001
0000
0000
,  // measure 46
0000
1000
0000
0000
0000
0000
0000
0000
,  // measure 47
0001
0001
0000
0000
,  // measure 48
0000
1000
0000
0000
0000
0000
0000
0000
,  // measure 49
0020
0000
0030
0000
,  // measure 50
0020
0000
0030
0000
,  // measure 51
0200
0000
0300
0000
,  // measure 52
0200
0000
0300
0000
,  // measure 53
0002
0000
0003
0000
,  // measure 54
2000
0000
3000
0000
,  // measure 55
0002
0000
0003
0000
,  // measure 56
2002
0000
3003
0000
,  // measure 57
0100
0000
0100
0000
,  // measure 58
0001
0000
0001
0000
,  // measure 59
0100
0000
0100
0000
,  // measure 60
1000
0000
1000
0000
,  // measure 61
0010
0000
0100
0000
,  // measure 62
0010
0000
0100
0000
,  // measure 63
0001
0000
1000
0000
,  // measure 64
0001
0000
1000
0000
,  // measure 65
0010
0000
0010
0000
,  // measure 66
1000
0000
0001
0000
,  // measure 67
0100
0000
0100
0000
,  // measure 68
1000
0000
0001
0000
,  // measure 69
0010
0000
1000
0000
,  // measure 70
0001
0000
0100
0000
,  // measure 71
0010
0000
0010
0000
,  // measure 72
0000
0000
0010
0010
,  // measure 73
0020
0000
0000
0000
,  // measure 74
0030
0000
0000
0000
;
