#TITLE:Nevermind;
#SUBTITLE:;
#ARTIST:Paul Bazooka;
#TITLETRANSLIT:;
#SUBTITLETRANSLIT:;
#ARTISTTRANSLIT:;
#GENRE:;
#CREDIT:;
#BANNER:Nevermind-jacket.png;
#BACKGROUND:Nevermind-bg.png;
#LYRICSPATH:;
#CDTITLE:;
#MUSIC:Nevermind.ogg;
#OFFSET:0.217373;
#SAMPLESTART:72.000000;
#SAMPLELENGTH:25.340000;
#SELECTABLE:YES;
#BPMS:0.000000=142.000000
,108.000000=71.000000
,124.000000=142.000000
;
#STOPS:
;
#BGCHANGES:0.500=Nevermind.avi=1.000=0=0=0=StretchNoLoop====,
99999=-nosongbg-=1.000=0=0=0 // don't automatically add -songbackground-
;
#KEYSOUNDS:;
#ATTACKS:;

//---------------dance-single - ----------------
#NOTES:
     dance-single:
     :
     Challenge:
     16:
     0.815479,1.037813,0.181939,0.197101,1.076475,753.000000,729.000000,24.000000,26.000000,0.000000,0.000000,0.815479,1.037813,0.181939,0.197101,1.076475,753.000000,729.000000,24.000000,26.000000,0.000000,0.000000:
0000
0000
0000
0000
,
0000
0000
0000
0000
,
0000
0000
0000
0000
,
0000
0000
0000
0000
,
0000
0000
0000
0000
,
0000
0000
0000
0000
,
0000
0000
0000
0000
,
0001
0000
1000
0010
1000
0010
1000
0010
0100
0000
0002
0000
2000
0000
3003
0000
,
0001
0100
0001
0100
0001
0100
0000
0010
1000
0010
1000
0010
1000
0000
0001
0000
,
0100
0001
0000
0001
1000
0000
1000
0001
0000
0001
0000
0001
1000
0001
1000
0000
,
0010
0000
0010
0000
0100
0000
0100
0000
0001
1000
0001
1000
0010
0100
0010
0100
,
0001
0000
0000
1000
0000
0000
0100
0000
0000
0000
0010
0000
0001
0000
0100
0000
,
0001
0100
0000
0100
0010
0000
0010
0000
1000
0010
0000
0010
0100
0000
0001
0000
,
1000
0001
0000
0001
0100
0000
0010
0000
0000
0000
1000
0000
0100
0000
1000
0000
,
0001
0100
0000
0100
0010
0000
0010
0000
0010
1000
0000
1000
0100
0000
0001
0000
,
0001
0100
0000
0100
0010
0000
1000
0000
0001
0000
0100
0000
0010
0000
1000
0000
,
1000
0010
0000
0010
0100
0000
0001
0000
0100
0001
0000
0001
1000
0000
0010
0000
,
0100
0001
0000
0001
1000
0000
0010
0000
0100
0000
0001
0000
1000
0000
0100
0000
,
0001
0000
0100
0001
0000
0100
0001
0100
0001
0000
1000
0010
0000
0010
1000
0000
,
0001
0000
0100
0010
0000
0010
0100
0000
0001
0000
1000
0010
0000
0010
1000
0000
,
0001
0000
0100
0010
0000
0100
0010
0000
1000
0000
0001
0100
0000
0100
0001
0000
,
1000
0001
0000
1000
0000
1000
0001
0000
0100
0010
0100
0010
0000
0001
0100
0000
,
1000
0001
0000
0001
0000
0100
0010
0000
1000
0010
1000
0010
0000
0100
0001
0000
,
1000
0000
0001
0100
0001
0000
1000
0000
0010
0000
0100
0001
0100
0000
0001
0000
,
1000
0000
0010
0100
0010
0000
1000
0000
0001
0000
0100
0001
0100
0000
0001
0000
,
1100
1100
0101
0101
1100
1100
0101
0101
,
1000
0010
1000
0010
0100
0001
0100
0000
0220
0000
0000
0000
0000
0000
0330
0000
,
2002
0000
0000
0000
0000
0000
0000
0000
3003
0000
0000
0000
0000
0000
0000
0000
0020
0000
0000
0000
0000
0000
2030
0000
0000
0000
0000
0000
3001
0100
0001
0100
,
0002
0000
0000
0000
0103
0010
0200
0000
0000
0000
0301
1000
0002
0000
0000
0000
1003
0010
2000
0000
0000
0000
3010
0100
0020
0000
0000
0000
0031
0000
1000
0001
,
2000
0000
0000
0000
0000
0000
3002
0000
0000
0000
0000
0000
1003
0010
0100
0010
2000
0000
0000
0000
0000
0000
3002
0000
0000
0000
0000
0000
0103
0010
1000
0010
,
0100
0000
0001
0100
0010
0100
0001
0000
1000
0010
1000
0010
0100
0000
0001
0100
0001
0100
0010
0000
1000
0001
1000
0001
2000
0000
0000
0000
3020
0000
0000
0000
,
0130
0000
0001
0000
1000
0001
0000
0001
1000
0000
1000
0010
0000
0010
0100
0001
,
0100
0000
0001
0000
0100
0010
0000
0010
1000
0000
0010
0000
0100
0001
0100
0001
,
0100
0000
0001
0000
1000
0010
1000
0000
0001
0000
0100
0010
0000
0100
0010
0000
,
1000
0000
0001
0000
0100
0001
0100
0000
0001
0000
1000
0010
0000
1000
0010
1000
,
0010
0000
0100
0010
0100
0010
0100
0000
0001
1000
0001
1000
0001
0000
1000
0100
,
1000
0000
0010
0100
0010
0100
0010
0000
1000
0001
1000
0001
1000
0000
0001
0100
,
0010
0100
0010
0100
0010
0000
1000
0010
1000
0010
1000
0000
0001
0100
0001
0000
,
1000
0001
1000
0001
1000
0001
1000
0001
2000
0000
0000
0000
0000
0000
0000
3000
,
0001
0000
0100
0001
0100
0001
0100
0000
0010
1000
0010
1000
0010
0000
1000
0001
,
1000
0001
1000
0000
0001
0100
0001
0100
0001
0000
1000
0010
1000
0010
1000
0000
,
0001
0000
0100
0010
0100
0001
0100
0000
0010
1000
0010
0100
0010
0000
1000
0001
,
0100
0001
1000
0000
0001
0100
0010
0100
0010
0000
1000
0001
0100
0001
0100
0000
,
0010
0000
1000
0100
1000
0100
1000
0000
0001
0010
0001
0010
0001
0000
1000
0010
,
1000
0010
1000
0000
0001
0100
0001
0100
0001
0000
1000
0010
0100
0001
1000
0000
,
0010
0000
0100
0001
0100
0001
0100
0000
0010
1000
0010
1000
0010
0000
0100
0001
,
0100
0001
0100
0000
0010
1000
0100
1000
0010
0000
0100
0001
0100
0001
0100
0000
,
0001
0000
1000
0010
1000
0010
1000
0000
0001
0100
0001
0100
0001
0000
1000
0010
,
1000
0010
1000
0000
0001
0100
0001
0100
0010
0000
1000
0000
0100
0000
0010
0000
,
0001
0000
0100
0010
0100
0010
0100
0000
0001
1000
0001
1000
0001
0000
1000
0100
,
1000
0000
0010
0000
0001
0000
0010
0000
0100
0010
0100
0010
1000
0010
1000
0000
,
0001
0000
0100
0010
0100
0010
0100
0000
0001
1000
0001
1000
0001
0000
1000
0100
,
1000
0100
1000
0000
0001
0000
0010
0000
0100
0000
0001
1000
0001
1000
0001
0000
,
0100
0010
0100
0010
0100
0010
1000
0010
1000
0010
1000
0010
0100
0000
0001
0000
,
0100
0001
1000
0001
1000
0001
1000
0001
0100
0010
0100
0010
0100
0010
0100
0000
,
0001
0100
0000
0000
0100
0010
0000
0000
0010
1000
0000
0000
1000
0100
1000
0000
,
1000
0100
0000
0000
0100
0010
0000
0000
0010
0001
0000
0000
0001
0100
0001
0100
,
0001
0100
0000
0000
0100
0010
0000
0000
0010
1000
0000
0000
1000
0100
1000
0100
,
1000
0100
0000
0000
0010
0100
0000
0000
0001
0100
0000
0001
1000
0000
0001
0000
,
1000
0010
1000
0010
2000
0000
3000
0000
0001
0100
0001
0100
0002
0000
0003
0000
,
0100
0010
0100
0010
0200
0000
0300
0000
0010
0100
0010
0100
0020
0000
0030
0000
,
1000
0010
1000
0010
1000
0001
1000
0001
0100
0010
0100
0010
1000
0001
1000
0001
,
1000
0100
0010
0001
0100
0010
1000
0100
0010
0001
0100
0010
1000
0001
1000
0001
,
1000
0100
0001
0001
0011
0010
1010
1000
,
1100
0100
0110
0010
0011
0001
0101
0100
,
1100
1000
1010
0010
0110
0100
0101
0001
,
1100
1000
1100
0100
0110
0010
0011
0001
,
1000
0001
1000
0001
0100
0000
0001
0000
1000
0001
1000
0001
0010
0000
0001
0000
,
0100
0010
0100
0010
1000
0000
0010
0000
0100
0001
0100
0001
0100
0000
0010
0000
,
1000
0100
1000
0100
0010
0001
0010
0001
1000
0100
0010
0001
0100
0010
1000
0001
,
1000
0010
1000
0001
0100
0001
0100
0010
0100
0001
1000
0001
1000
0100
0010
0002
,
2000
0000
0000
0000
,
0000
0000
0000
0000
,
0000
0000
0000
0000
,
3003
0000
0000
0000
;

//---------------dance-double - ----------------
#NOTES:
     dance-double:
     :
     Challenge:
     16:
     0.748334,1.121960,0.121293,0.128874,0.898326,691.000000,675.000000,16.000000,17.000000,0.000000,0.000000,0.748334,1.121960,0.121293,0.128874,0.898326,691.000000,675.000000,16.000000,17.000000,0.000000,0.000000:
00000000
00000000
00000000
00000000
,
00000000
00000000
00000000
00000000
,
00000000
00000000
00000000
00000000
,
00000000
00000000
00000000
00000000
,
00000000
00000000
00000000
00000000
,
00000000
00000000
00000000
00000000
,
00000000
00000000
00000000
00000000
,
00001000
00000100
00000010
00000001
00002000
00003002
00000203
00000300
,
00000010
00001000
00000010
00001000
00000100
00010000
00000100
00010000
,
00001000
00000000
00000000
00100000
00000000
00000000
00010000
00000000
00000000
01000000
00000000
00000000
00100000
00000000
00100000
00000000
,
10000000
00000000
00000000
00000000
01000000
00000000
00000000
00000000
00100000
00010000
00100000
00010000
00100000
00010000
00100000
00010000
,
00100000
00000000
00000000
00001000
00000000
00000000
00010000
00000000
00000000
00000000
00000100
00000000
00001000
00000000
00000010
00000000
,
00000100
00000001
00000000
00000001
00000100
00000000
00000010
00000000
00001000
00000100
00000000
00000100
00001000
00000000
00000100
00000000
,
00010000
00000000
00000000
00001000
00000000
00000000
00100000
00000000
00000000
00000000
00010000
00000000
01000000
00000000
00100000
00000000
,
10000000
01000000
00000000
01000000
10000000
00000000
00100000
00000000
01000000
00010000
00000000
00010000
00100000
00000000
00001000
00000000
,
00010000
00001000
00000000
00001000
00010000
00000000
00000100
00000000
00001000
00000000
00000010
00000000
00000100
00000000
00000001
00000000
,
00001000
00000001
00000000
00000001
00001000
00000000
00000010
00000000
00001000
00000100
00000000
00000100
00001000
00000000
00000100
00000000
,
00010000
00001000
00000000
00001000
00010000
00000000
00001000
00000000
00100000
00000000
00010000
00000000
01000000
00000000
00100000
00000000
,
10000000
00000000
00010000
10000000
00000000
10000000
00010000
10000000
00010000
00000000
00000000
01100000
00000000
00000000
10010000
00000000
,
01000000
00000000
01000000
00100000
00000000
01000000
00010000
01000000
00010000
00000000
00100000
00010000
00000000
00100000
00010000
00000000
,
00001000
00000000
00010000
00000100
00000000
00010000
00000100
00010000
00000100
00000000
00001000
00000100
00000000
00001000
00000100
00000000
,
00001000
00000000
00000010
00000100
00000000
00000010
00000100
00000010
00000100
00000000
00000001
00000100
00000000
00000001
00000100
00000000
,
00000010
00000000
00001000
00000100
00000000
00001000
00000100
00001000
00000100
00000000
00010000
00001000
00000000
00010000
00001000
00000000
,
00100000
00010000
00000000
00010000
01000000
00000000
00100000
00000000
10000000
01000000
00000000
01000000
10000000
00000000
00100000
00000000
,
01000000
00010000
00000000
00010000
00100000
00000000
00001000
00000000
00100000
00001000
00000000
00001000
00010000
00000000
00000100
00000000
,
00010000
00001000
00010000
00000000
00000100
00001000
00000100
00000000
00001000
00000010
00001000
00000000
00000001
00000100
00000010
00000000
,
00001000
00000001
00001000
00000001
00001000
00000001
00001000
00000000
00000220
00000000
00000000
00000000
00000000
00000000
00000330
00000000
,
00002002
00000000
00000000
00000000
00000000
00000000
00000000
00000000
00003003
00000000
00000000
00000100
00000000
00000000
00001000
00000000
,
00020000
00000000
00000000
00000000
00000000
00000000
00230000
00000000
00000000
00000000
00000000
00000000
20300000
00000000
00000000
00000000
00000000
30000000
02000000
00000000
00000000
00000000
00000000
00000000
03020000
00000000
00000000
00000000
00000000
00000000
00000000
00000000
,
00031000
00000000
00000000
00000000
00000000
00000000
00000010
00000000
00000000
00000000
00000000
00000000
00000100
00000001
00000100
00000001
00000100
00000000
00000000
00000000
00000000
00000000
00000010
00000000
00000000
00000000
00000000
00000000
00001000
00000100
00001000
00000100
,
00001000
00000000
00010000
00000100
00010000
00001000
00010000
00000000
00001000
00100000
00001000
00010000
00001000
00000000
00100000
00010000
00100000
00010000
01000000
00000000
00010000
01000000
00010000
01000000
00010000
00000000
00100000
10000000
00100000
01000000
00100000
00000000
,
10000000
01000000
00100000
00010000
00001000
00000100
00000010
00000001
,
00000001
00000010
00000100
00001000
00010000
00100000
01000000
10000000
,
00010000
00000000
10000000
00010000
10000000
00010000
10000000
00000000
01000000
00100000
01000000
00100000
01000000
00000000
10000000
01000000
,
10000000
01000000
10000000
00000000
00100000
00010000
00100000
00010000
00100000
00000000
00001000
00010000
00001000
00010000
00001000
00000000
,
00010000
00000000
00000100
00000000
00001000
00000000
00000010
00000100
00000010
00000100
00000010
00000000
00000001
00001000
00000001
00001000
,
00000001
00000000
00001000
00000000
00000100
00000000
00010000
00001000
00010000
00001000
00010000
00000000
00001000
00100000
00001000
00100000
,
00001000
00000000
00100000
00010000
00100000
00010000
00100000
00000000
01000000
00010000
01000000
00010000
01000000
00000000
00100000
00000000
,
10000000
00010000
10000000
00010000
10000000
00010000
10000000
00010000
20000000
00000000
00000000
00000000
00000000
00000000
00000000
30000000
,
00010000
00000000
00100000
00010000
00100000
00010000
00100000
00000000
00001000
00010000
00001000
00010000
00001000
00000000
00000100
00001000
,
00000100
00001000
00000100
00000000
00000010
00000100
00000010
00000100
00000010
00000000
00000001
00000000
00000000
00000000
00001000
00000000
,
00000100
00000000
00010000
00000100
00010000
00000100
00010000
00000000
00001000
00010000
00001000
00010000
00001000
00000000
00100000
00010000
,
00100000
00010000
00100000
00000000
01000000
00010000
01000000
00010000
01000000
00000000
00100000
10000000
00000000
10000000
00100000
00000000
,
01000000
00000000
01000000
00010000
01000000
00010000
01000000
00000000
00001000
00100000
00001000
00100000
00001000
00000000
00010000
00001000
,
00010000
00001000
00010000
00000000
00000100
00001000
00000100
00001000
00000100
00000000
00000010
00000000
00000000
00000000
00001000
00000000
,
00000001
00000000
00001000
00000001
00001000
00000001
00001000
00000000
00000010
00001000
00000010
00001000
00000010
00000000
00000100
00010000
,
00000100
00010000
00000100
00000000
00010000
00001000
00010000
00001000
00010000
00000000
00001000
00100000
00000000
00100000
00010000
00000000
,
01000000
00000000
00100000
01000000
00100000
01000000
00100000
00000000
10000000
01000000
10000000
01000000
10000000
00000000
00100000
00010000
,
00100000
00010000
00100000
00000000
00001000
00010000
00001000
00000000
00010000
00000000
00000100
00000000
00001000
00000000
00000010
00000000
,
00000100
00000000
00000001
00000100
00000001
00000100
00000001
00000000
00001000
00000010
00001000
00000010
00001000
00000000
00000001
00000000
,
00000100
00000010
00001000
00000100
00010000
00001000
00100000
00010000
,
01000000
00000000
00100000
01000000
00100000
00000000
00100000
00000000
10000000
00010000
10000000
00010000
10000000
00000000
00010000
01000000
,
00010000
00000000
01000000
00010000
01000000
00000000
00001000
00000000
00010000
00000000
00000100
00000000
00001000
00000000
00000001
00000000
,
00001000
00000000
00000100
00001000
00000100
00001000
00000100
00000000
00001000
00000010
00001000
00000010
00001000
00000000
00000001
00000100
,
00000001
00001000
00000001
00001000
00000100
00001000
00000100
00001000
00000100
00010000
00000100
00010000
00001000
01000000
00001000
01000000
,
00010000
01000000
00000000
00100000
10000000
00000000
00000000
01000000
00100000
00000000
00000000
00000000
00100000
00010000
00100000
00010000
,
00100000
00010000
00000000
00000000
00010000
00001000
00000000
00000000
00001000
00000100
00000000
00000000
00001000
00000010
00001000
00000010
,
00001000
00000010
00000000
00000000
00000001
00000100
00000000
00000000
00000100
00000010
00000000
00000000
00000010
00001000
00000010
00001000
,
00000010
00001000
00000000
00000000
00001000
00000100
00000000
00000000
00000100
00010000
00000000
00000000
00010000
00001000
00010000
00001000
,
01000000
00010000
01000000
00010000
02000000
00000000
03000000
00000000
00100000
10000000
00100000
10000000
00200000
00000000
00300000
00000000
,
10000000
01000000
00100000
00010000
01000000
00100000
10000000
01000000
00100000
00010000
01000000
00100000
10000000
00000000
00010000
00000000
,
01000000
00010000
01000000
00000000
00010000
00100000
00010000
00000000
00100000
00001000
00100000
00000000
00001000
00010000
00001000
00000000
,
00010000
00000100
00010000
00000000
00000100
00001000
00000100
00000000
00001000
00000010
00001000
00000000
00000001
00000100
00000001
00000000
,
00000101
00000100
00000100
00000100
00001100
00000100
00000100
00000100
,
00010100
00010000
00010000
00010000
00011000
00001000
00001000
00001000
,
00101000
00100000
00010000
00010000
01010000
01000000
10000000
10000000
,
10100000
00100000
01000000
01000000
00110000
00100000
00001000
00001000
,
00011000
00010000
00000100
00001000
00001100
00001000
00000001
00000100
,
00000101
00000001
00001000
00000100
00001100
00000100
00010000
00001000
,
00010000
00001000
00010000
00001000
01000000
00010000
01000000
00010000
10000000
01000000
00100000
00010000
01000000
00100000
10000000
01000000
,
00100000
00010000
01000000
00010000
01000000
00001000
01000000
00001000
00010000
00001000
00010000
00000100
00001000
00000100
00001000
00000020
,
00000200
00000000
00000000
00000000
,
00000000
00000000
00000000
00000000
,
00000000
00000000
00000000
00000000
,
00000330
00000000
00000000
00000000
;

//---------------dance-single - ----------------
#NOTES:
     dance-single:
     :
     Hard:
     11:
     0.421277,0.617078,0.083389,0.371460,0.162987,389.000000,378.000000,11.000000,49.000000,0.000000,0.000000,0.421277,0.617078,0.083389,0.371460,0.162987,389.000000,378.000000,11.000000,49.000000,0.000000,0.000000:
// measure 0
0000
0000
0000
0000
,  // measure 1
0000
0000
0000
0000
,  // measure 2
0000
0000
0000
0000
,  // measure 3
0000
0000
0000
0000
,  // measure 4
0000
0000
0000
0000
,  // measure 5
0000
0000
0000
0000
,  // measure 6
0000
0000
0000
0000
,  // measure 7
0010
0000
0001
0000
1000
0001
1000
0000
,  // measure 8
0010
1000
0010
0000
0100
0001
0100
0000
,  // measure 9
0010
0000
0000
0010
0000
0000
0010
0000
0000
0010
0000
0000
0100
0000
0001
0000
,  // measure 10
2000
3002
0203
0300
,  // measure 11
0010
0000
0000
0010
0000
0000
0010
0000
0000
0000
1000
0000
0100
0000
0010
0000
,  // measure 12
0001
0000
0000
0001
0000
0000
0001
0000
1000
0000
0000
1000
0000
0000
1000
0000
,  // measure 13
0010
0000
0000
0010
0000
0000
0010
0000
0000
0000
0001
0000
0010
0000
0100
0000
,  // measure 14
1000
0000
0000
1000
0000
0000
1000
0000
0001
0000
0000
0001
0000
0000
0001
0000
,  // measure 15
0100
0000
0000
0100
0000
0000
0100
0000
0000
0000
0010
0000
1000
0000
0010
0000
,  // measure 16
0100
0000
0000
0100
0000
0000
0100
0000
0001
0000
0000
0001
0000
0000
0001
0000
,  // measure 17
1000
0000
0000
1000
0000
0000
1000
0000
0000
0000
0010
0000
0000
0000
0010
0000
,  // measure 18
0100
0000
0000
0100
0000
0000
0001
0000
0100
0000
0000
0100
0000
0000
0001
0000
,  // measure 19
1000
0000
0000
1000
0000
0000
0001
0000
1000
0000
0000
0010
0000
0000
0010
0000
,  // measure 20
1000
0000
0000
1000
0000
0000
0001
0000
1000
0000
0000
0010
0000
0000
0010
0000
,  // measure 21
1000
0000
0000
1000
0000
0000
0001
0000
0100
0000
0000
0100
0000
0000
0001
0000
,  // measure 22
0010
0000
0000
0010
0000
0000
0001
0000
0100
0000
0000
0100
0000
0000
0010
0000
,  // measure 23
1000
0000
0000
1000
0000
0000
0001
0000
0100
0000
0000
0100
0000
0000
0001
0000
,  // measure 24
0010
0000
0000
0010
0000
0000
0001
0000
0100
0000
0000
0100
0000
0000
0001
0000
,  // measure 25
1000
0001
1000
0001
0100
0010
0100
0010
,  // measure 26
0100
0100
0100
0100
0000
0000
0000
0000
,  // measure 27
2002
0000
0000
3003
,  // measure 28
0002
0000
0000
0023
0000
0000
0230
0000
0000
2300
0000
0000
3020
0000
0000
0000
,  // measure 29
0230
0000
0000
0302
0000
0000
1003
0000
0020
0000
0000
2030
0000
0000
3001
0000
,  // measure 30
0200
0000
0000
0320
0000
0000
2030
0000
0000
3002
0000
0000
0203
0000
0300
0000
,  // measure 31
0001
0001
0001
1000
1000
1000
0010
0000
,  // measure 32
1000
1000
1000
0001
0001
0001
0100
0000
,  // measure 33
0010
0010
0010
1000
1000
1000
0001
0001
,  // measure 34
0001
0100
0100
0100
0020
0000
1030
0001
,  // measure 35
0100
0000
0001
0100
0000
0001
1000
0000
,  // measure 36
0001
0000
0001
0100
0000
0001
1000
0000
,  // measure 37
0010
0000
0010
0100
0000
0100
0001
0000
,  // measure 38
2000
0000
0002
3003
,  // measure 39
0010
0000
0100
0001
1000
0000
0010
1000
,  // measure 40
0001
0000
0100
0000
0001
0010
0100
1000
,  // measure 41
0010
0000
0100
0010
1000
0000
0010
0100
,  // measure 42
0001
0000
1000
0000
0001
0010
0100
0000
,  // measure 43
0001
0000
1000
1000
0100
0000
0001
0001
,  // measure 44
0010
0000
1000
0000
0001
0100
0001
0100
,  // measure 45
0001
0000
0010
0010
0100
0000
0001
0001
,  // measure 46
1000
0000
0010
0000
1000
0100
1000
0000
,  // measure 47
0002
0000
0000
0000
0203
0000
0000
0000
0320
0000
0000
0000
2030
0000
0000
3000
,  // measure 48
0001
0100
0001
0000
1000
0010
1000
0000
,  // measure 49
2000
3020
0230
0301
,  // measure 50
1000
0100
1000
0000
0001
0010
0001
0000
,  // measure 51
0100
0100
0001
0001
1000
1000
0010
0000
,  // measure 52
0001
0001
1000
1000
0010
0010
0100
0000
,  // measure 53
0001
0100
0001
1000
0001
0100
0001
1000
,  // measure 54
0010
0010
0100
0100
0001
0001
1000
0000
,  // measure 55
0020
0000
0000
0000
2030
0000
0000
0000
3200
0000
0000
0000
0301
0100
0001
0100
,  // measure 56
0002
0000
0000
0000
2003
0000
0000
0000
3020
0000
0000
0000
0130
0010
0100
0010
,  // measure 57
0200
0000
0000
0000
0302
0000
0000
0000
2003
0000
0000
0000
3010
1000
0010
1000
,  // measure 58
0020
0000
0000
0000
0230
0000
0000
0000
0302
0000
0000
0000
2003
0000
0000
3000
,  // measure 59
0020
0000
0000
0030
0200
0000
0000
0000
0302
0000
0000
0000
2003
0000
0000
3000
,  // measure 60
0010
0000
0100
0000
0001
0000
0100
0000
0010
0000
0100
0000
0002
0000
0000
0003
,  // measure 61
1000
0010
1000
0010
0100
0001
0100
0001
,  // measure 62
1000
0001
1000
0001
0100
0010
0100
0000
,  // measure 63
1000
0001
1100
0011
,  // measure 64
0100
0010
1100
0011
,  // measure 65
0110
0100
1001
0001
,  // measure 66
1100
0110
0011
0110
,  // measure 67
1000
1000
0001
0001
0100
0100
0010
0010
,  // measure 68
1000
0001
0100
0010
1000
0001
0100
0010
,  // measure 69
1000
1000
1000
1000
0001
0001
0001
0001
,  // measure 70
0100
0010
0100
0000
0010
0100
0010
0000
0001
1000
0001
0000
1000
0001
1000
0002
,  // measure 71
2000
0000
0000
0000
,  // measure 72
0000
0000
0000
0000
,  // measure 73
0000
0000
0000
0000
,  // measure 74
3003
0000
0000
0000
;

//---------------dance-double - ----------------
#NOTES:
     dance-double:
     :
     Hard:
     11:
     0.429940,0.673176,0.144035,0.189520,0.181939,397.000000,378.000000,19.000000,25.000000,0.000000,0.000000,0.429940,0.673176,0.144035,0.189520,0.181939,397.000000,378.000000,19.000000,25.000000,0.000000,0.000000:
00000000
00000000
00000000
00000000
,
00000000
00000000
00000000
00000000
,
00000000
00000000
00000000
00000000
,
00000000
00000000
00000000
00000000
,
00000000
00000000
00000000
00000000
,
00000000
00000000
00000000
00000000
,
00000000
00000000
00000000
00000000
,
01000000
00000000
00010000
00000000
00100000
00010000
00100000
00000000
,
00001000
00000000
00010000
00000000
00000100
00001000
00000100
00000000
,
00000010
00000000
00000000
00000010
00000000
00000000
00000100
00000000
00000000
00000100
00000000
00000000
00000001
00000000
00001000
00000000
,
00000002
00000203
00000020
00000330
,
00000001
00000000
00000000
00000001
00000000
00000000
00000001
00000000
00000000
00000000
00000010
00000000
00000100
00000000
00000000
00000000
,
00001000
00000000
00000000
00001000
00000000
00000000
00000100
00000000
00010000
00000000
00000000
00010000
00000000
00000000
00001000
00000000
,
01000000
00000000
00000000
01000000
00000000
00000000
01000000
00000000
00000000
00000000
00010000
00000000
01000000
00000000
00000000
00000000
,
00100000
00000000
00000000
00100000
00000000
00000000
10000000
00000000
01000000
00000000
00000000
01000000
00000000
00000000
00000000
00000000
,
10000000
00000000
00000000
00010000
00000000
00000000
01000000
00000000
00000000
00000000
00100000
00000000
00100000
00000000
00000000
00000000
,
01000000
00000000
00000000
01000000
00000000
00000000
01000000
00000000
00010000
00000000
00000000
00010000
00000000
00000000
00100000
00000000
,
00010000
00000000
00000000
00010000
00000000
00000000
00001000
00000000
00000000
00000000
00010000
00000000
00000100
00000000
00000000
00000000
,
00001000
00000000
00000000
00001000
00000000
00000000
00000010
00000000
00000100
00000000
00000000
00000100
00000000
00000000
00000001
00000000
,
00001000
00000000
00000000
00001000
00000000
00000000
00000001
00000000
00001000
00000000
00000010
00001000
00000000
00000000
00000100
00000000
,
00010000
00000000
00000000
00010000
00000000
00000000
00000100
00000000
00010000
00000000
00000100
00010000
00000000
00000000
00010000
00000000
,
00001000
00000000
00000000
00001000
00000000
00000000
00100000
00000000
00001000
00000000
00100000
00001000
00000000
00000000
00100000
00000000
,
00010000
00000000
00000000
00010000
00000000
00000000
01000000
00000000
00010000
00000000
01000000
00010000
00000000
00000000
00010000
00000000
,
01000000
00000000
00000000
00100000
00000000
00000000
00010000
00000000
01000000
00000000
00000000
00100000
00000000
00000000
00010000
00000000
,
10000000
00000000
00000000
01000000
00000000
00000000
00010000
00000000
10000000
00000000
00000000
01000000
00000000
00000000
00010000
00000000
,
10000000
00010000
10000000
00010000
00100000
00010000
00100000
00010000
,
00001000
00001000
00001000
00001000
00000000
00000000
00000000
00000000
,
00022000
00000000
00000000
00033000
,
00000002
00000000
00000000
00002003
00000000
00000000
00003020
00000000
00000000
00002030
00000000
00000000
00003200
00000000
00000300
00000000
,
00020000
00000000
00000000
00032000
00000000
00000000
00103000
00000000
00020000
00000000
00000000
02030000
00000000
00000000
03100000
00000000
,
20000000
00000000
00000000
30020000
00000000
00000000
00230000
00000000
00000000
00302000
00000000
00000000
00023000
00000000
00030000
00000000
,
00000010
00000000
00000100
00000001
00000000
00000100
00000001
00000100
,
00000100
00000000
00000010
00001000
00000000
00000010
00001000
00000100
,
00000100
00000000
00010000
00001000
00000000
00010000
00001000
00100000
,
00100000
00000000
00010000
01000000
00000000
00010000
01000000
00100000
,
00100000
00000000
10000000
01000000
00000000
00100000
00010000
01000000
,
01000000
00000000
00100000
10000000
00000000
00100000
10000000
01000000
,
02000000
00000000
00000000
00000000
03000000
00000000
00200000
00000000
00000000
00000000
00000000
00300000
10000000
00000000
00000000
00000000
,
00020000
00000000
00000000
00030000
,
00001000
00000000
00000100
00000010
00000100
00000000
00000001
00000100
,
00000001
00000000
00001000
00000000
00000100
00001000
00000100
00000000
,
00010000
00000000
00001000
00100000
00001000
00000000
01000000
00010000
,
01000000
00000000
00100000
00000000
10000000
01000000
00100000
00000000
,
00010000
00000000
01000000
01000000
00010000
00000000
00100000
00100000
,
00001000
00000000
00010000
00000000
00000100
00001000
00000100
00000000
,
00001000
00000000
00000010
00000100
00000010
00000000
00000001
00000001
,
00000100
00000010
00002000
00003000
,
00000100
00010000
00000100
00010000
00000100
00010000
00000100
00000000
,
00010000
00001000
00100000
00000000
00010000
00001000
00100000
00000000
,
00010000
00100000
00010000
00100000
00010000
00100000
00010000
00000000
,
00100000
00010000
10000000
00000000
00100000
00010000
10000000
00000000
,
01000000
00100000
01000000
00100000
10000000
00010000
10000000
00010000
,
10000000
01000000
10000000
01000000
00100000
00010000
00100000
00010000
,
00100000
00001000
00100000
00001000
00010000
00001000
00010000
00001000
,
00010000
00000010
00001000
00000010
00000100
00000000
00001001
00000000
,
00000001
00000000
00000000
00000000
00000010
00000000
00000000
00000000
00000100
00000000
00000000
00000000
00001000
00000100
00001000
00000100
,
00001000
00000000
00000000
00000000
00000100
00000000
00000000
00000000
00010000
00000000
00000000
00000000
00001000
00010000
00001000
00010000
,
00001000
00000000
00000000
00000000
00100000
00000000
00000000
00000000
00010000
00000000
00000000
00000000
01000000
00010000
01000000
00010000
,
01000000
00100000
10000000
01000000
,
00100000
00010000
00100000
00010000
00100000
00000000
00000000
00000000
00001000
00010000
00001000
00010000
00001000
00000000
00000000
00000000
,
00010000
00000100
00001000
00000010
,
00000100
00000001
00000100
00000001
00001000
00000001
00001000
00000001
,
00001000
00000100
00001000
00000100
00010000
00000100
00010000
00000000
,
00011000
00110000
01010000
10100000
,
01100000
00110000
00011000
00001100
,
00000110
00001001
00001100
00011000
,
00110000
01010000
10010000
01100000
,
10000000
10000000
00010000
00010000
00100000
00100000
00001000
00001000
,
00010000
00010000
00000010
00000010
00000100
00000100
00000001
00000001
,
00001000
00000001
00001000
00000000
00000010
00000000
00001000
00000000
00000100
00001000
00000100
00000000
00010000
00000000
00001000
00000000
,
00100000
00001000
00100000
00000000
00100000
00010000
00100000
00000000
01000000
00010000
01000000
00000000
10000000
00100000
10000000
00000000
,
20020000
00000000
00000000
00000000
,
00000000
00000000
00000000
00000000
,
00000000
00000000
00000000
00000000
,
30030000
00000000
00000000
00000000
;

//---------------dance-double - ----------------
#NOTES:
     dance-double:
     :
     Medium:
     9:
     0.341137,0.476833,0.174359,0.250167,0.098551,315.000000,292.000000,23.000000,33.000000,0.000000,0.000000,0.341137,0.476833,0.174359,0.250167,0.098551,315.000000,292.000000,23.000000,33.000000,0.000000,0.000000:
00000000
00000000
00000000
00000000
,
00000000
00000000
00000000
00000000
,
00000000
00000000
00000000
00000000
,
00000000
00000000
00000000
00000000
,
00000000
00000000
00000000
00000000
,
00000000
00000000
00000000
00000000
,
00000000
00000000
00000000
00000000
,
00100000
00000000
00100000
00000000
00010000
01000000
00010000
00000000
,
00100000
00000000
00100000
00000000
10000000
01000000
10000000
00000000
,
00100000
00000000
00000000
00100000
00000000
00000000
00100000
00000000
00000000
10000000
00000000
00000000
00010000
00000000
00000000
00000000
,
00200000
00000000
00000000
00000000
00000000
00300000
00000000
00000000
00002000
00000000
00000000
00000000
00000000
00003000
00000000
00000000
,
00010000
00000000
00000000
00010000
00000000
00000000
00010000
00000000
00000000
00000000
00000000
00000000
00000100
00000000
00000000
00000000
,
00000020
00000030
00002000
00003000
,
00000001
00000000
00000000
00000001
00000000
00000000
00000001
00000000
00000000
00000000
00001000
00000000
00000010
00000000
00000000
00000000
,
00002000
00003000
00000200
00000300
,
00010000
00000000
00000000
00010000
00000000
00000000
00001000
00000000
00000000
00000000
00100000
00000000
00010000
00000000
00000000
00000000
,
02000000
03000000
00200000
00300000
,
10000000
00000000
00000000
10000000
00000000
00000000
00010000
00000000
00000000
00000000
01000000
00000000
00100000
00000000
00000000
00000000
,
10000000
00000000
00000000
10000000
00000000
00000000
00010000
00000000
10000000
00000000
00000000
10000000
00000000
00000000
00010000
00000000
,
10000000
00000000
00000000
10000000
00000000
00000000
00000000
00000000
00010000
00000000
00000000
00010000
00000000
00000000
00000000
00000000
,
00001000
00000000
00000000
00001000
00000000
00000000
00000000
00000000
00000001
00000000
00000000
00000001
00000000
00000000
00000000
00000000
,
00001000
00000000
00000000
00001000
00000000
00000000
00000000
00000000
00010000
00000000
00000000
00010000
00000000
00000000
00000000
00000000
,
10000000
00000000
00000000
10000000
00000000
00000000
00000000
00000000
00010000
00000000
00000000
00010000
00000000
00000000
00000000
00000000
,
00001000
00000000
00000000
00001000
00000000
00000000
00001000
00000000
00000010
00000000
00000000
00000010
00000000
00000000
00000010
00000000
,
00000100
00000000
00000000
00000100
00000000
00000000
00000100
00000000
00000001
00000000
00000000
00000001
00000000
00000000
00000001
00000000
,
00001000
00000001
00001000
00000001
00001000
00000001
00001000
00000001
,
00000100
00000100
00000100
00000100
00000000
00000000
00000000
00000000
,
00002002
00000000
00000000
00003003
,
00000002
00000000
00000000
00002003
00000000
00000000
00003002
00000000
00000000
00002003
00000000
00000000
00003200
00000000
00000300
00000000
,
00020000
00000000
00000000
00032000
00000000
00000000
00003000
00000000
00200000
00000000
00000000
00320000
00000000
00000000
00030000
00000000
,
02000000
00000000
00000000
03200000
00000000
00000000
02300000
00000000
00000000
03200000
00000000
00000000
02300000
00000000
03000000
00000000
,
00010000
00000000
10000000
00000000
00010000
00000000
01000000
00010000
,
01000000
00000000
00010000
00000000
00001000
00000000
00000100
00001000
,
00000100
00000000
00001000
00000000
00000001
00000000
00000100
00000001
,
00000100
00000001
00001000
00000100
,
00010000
00001000
00010000
10000000
,
01000000
10000000
00010000
01000000
,
00010000
00000000
00000000
00001000
00000000
00000000
00000100
00000000
,
00000020
00000000
00000200
00000330
,
00000001
00000000
00000000
00000000
00000100
00000000
00000000
00001000
,
00000000
00000000
00010000
00000000
00100000
01000000
00000000
10000000
,
00010000
00000000
00000000
01000000
00000000
00000000
10000000
00000000
,
00000000
00100000
00000000
00000000
00010000
00000000
00000000
01000000
,
00010000
00000000
00000000
00001000
00000000
00000000
00000100
00000000
,
00000000
00000010
00000000
00000000
00000001
00000000
00001000
00000100
,
00001000
00000000
00000010
00001000
00000000
00000100
00001000
00000000
,
00000100
00010000
00000000
00001000
00010000
00000000
00001000
00000000
,
00100000
00000000
00010000
00010000
01000000
01000000
00000000
00100000
,
10000000
00000000
01000000
00000000
00100000
00010000
00100000
00000000
,
00001000
00000000
00010000
00010000
00000100
00000100
00000000
00001000
,
00000010
00000000
00000100
00000000
00000001
00001000
00000001
00000000
,
00000010
00000000
00010000
00001000
00010000
00001000
00000000
01000000
,
00010000
00000000
01000000
00000000
00100000
10000000
00100000
00000000
,
10000000
01000000
00100000
00010000
,
00001000
00001000
00000100
00000000
00000010
00000010
00000001
00000000
,
00000011
00000110
00001100
00000100
,
00001100
00011000
00110000
00010000
,
01010000
01100000
10100000
01000000
,
10100000
01100000
01010000
00100000
,
00101000
00020000
00031000
00002000
,
00013000
00000010
00000100
00000001
,
00001001
00001100
00001001
00001100
,
00010100
00011000
00010100
00011000
,
00001000
00010000
00001000
00000000
00100000
00010000
00100000
00000000
,
10000000
01000000
10000000
00000000
00100000
01000000
00100000
00000000
,
01000000
00001000
01000000
00000000
00001000
00010000
00001000
00000000
,
00010000
00000100
00010000
00000000
00001000
00000100
00001000
00000000
,
00000001
00001000
00000001
00001000
00000001
00001000
00000001
00001000
,
00000100
00001000
00000100
00001000
00000100
00001000
00000100
00010000
,
00001000
00010000
00001000
00010000
00001000
00010000
00001000
00000000
,
00200000
00320000
02030000
13000000
,
20020000
00000000
00000000
00000000
,
00000000
00000000
00000000
00000000
,
00000000
00000000
00000000
00000000
,
30030000
00000000
00000000
00000000
;

//---------------dance-single - ----------------
#NOTES:
     dance-single:
     :
     Medium:
     8:
     0.338971,0.476833,0.083389,0.250167,0.098551,313.000000,302.000000,11.000000,33.000000,0.000000,0.000000,0.338971,0.476833,0.083389,0.250167,0.098551,313.000000,302.000000,11.000000,33.000000,0.000000,0.000000:
0000
0000
0000
0000
,
0000
0000
0000
0000
,
0000
0000
0000
0000
,
0000
0000
0000
0000
,
0000
0000
0000
0000
,
0000
0000
0000
0000
,
0000
0000
0000
0000
,
0010
0000
0010
0000
0001
0100
0001
0000
,
0010
0000
0010
0000
1000
0100
1000
0000
,
0010
0000
0000
0010
0000
0000
0010
0000
0000
1000
0000
0000
0001
0000
0000
0000
,
0020
0000
0000
0000
0000
0030
0000
0000
2000
0000
0000
0000
0000
3000
0000
0000
,
0001
0000
0000
0001
0000
0000
0001
0000
0000
0000
0000
0000
0100
0000
0000
0000
,
0020
0030
2000
3000
,
0001
0000
0000
0001
0000
0000
0001
0000
0000
0000
1000
0000
0010
0000
0000
0000
,
2000
3000
0200
0300
,
0001
0000
0000
0001
0000
0000
0001
0000
0000
0000
1000
0000
0001
0000
0000
0000
,
0200
0300
0020
0030
,
1000
0000
0000
1000
0000
0000
1000
0000
0000
0000
0010
0000
0010
0000
0000
0000
,
1000
0000
0000
1000
0000
0000
0001
0000
1000
0000
0000
1000
0000
0000
0001
0000
,
1000
0000
0000
1000
0000
0000
0000
0000
0001
0000
0000
0001
0000
0000
0000
0000
,
1000
0000
0000
1000
0000
0000
0000
0000
0001
0000
0000
0001
0000
0000
0000
0000
,
0100
0000
0000
0100
0000
0000
0000
0000
0010
0000
0000
0010
0000
0000
0000
0000
,
0100
0000
0000
0100
0000
0000
0000
0000
0010
0000
0000
0010
0000
0000
0000
0000
,
1000
0000
0000
1000
0000
0000
1000
0000
0010
0000
0000
0010
0000
0000
0010
0000
,
0100
0000
0000
0100
0000
0000
0100
0000
0001
0000
0000
0001
0000
0000
0001
0000
,
1000
0001
1000
0001
1000
0001
1000
0001
,
0100
0100
0100
0100
0000
0000
0000
0000
,
2002
0000
0000
3003
,
0002
0000
0000
2003
0000
0000
3002
0000
0000
2003
0000
0000
3200
0000
0300
0000
,
0002
0000
0000
2003
0000
0000
3000
0000
0020
0000
0000
0230
0000
0000
0300
0000
,
2000
0000
0000
3020
0000
0000
0230
0000
0000
0302
0000
0000
0203
0000
0300
0000
,
0010
0000
0001
0000
0100
0000
1000
1000
,
1000
0000
0100
0000
0001
0000
0010
0010
,
0010
0000
1000
0000
0001
0000
1000
0100
,
0001
0000
0100
0000
1000
0000
0001
0100
,
1000
0000
1000
0100
0000
0001
0100
0001
,
0100
0000
0001
0100
0000
1000
0100
0000
,
2000
0000
3000
0020
0000
0030
0100
0000
,
0020
0000
0200
0330
,
0001
0000
0001
1000
0100
0000
1000
0001
,
0000
1000
0001
0000
0010
0000
1000
0100
,
1000
0000
0001
0100
0001
0000
1000
0100
,
0000
0100
1000
0000
0010
0000
0100
0001
,
0100
0000
0001
1000
0001
0000
1000
0010
,
0000
0010
0100
0000
0001
0000
1000
0100
,
1000
0000
0001
0100
0000
0001
1000
0000
,
0001
0100
0000
0001
0010
0000
1001
0000
,
1000
0100
0010
0001
,
1000
0010
1000
0000
0001
0100
0001
0000
,
0010
0100
0001
1000
,
0001
0100
0001
0000
1000
0010
1000
0000
,
0010
1000
0010
1000
0010
1000
0000
0100
,
0001
0010
1000
0100
,
0001
0100
0001
0100
0001
0100
0000
1000
,
0010
0001
0100
1000
,
0010
0000
1000
0000
0100
0000
0001
0001
,
0001
0000
0100
0000
1000
0000
0010
0010
,
0010
0000
1000
0000
0001
0000
0100
0100
,
0100
0010
1000
0001
,
1000
0100
1000
0000
0001
0100
0001
0000
,
1000
0010
0100
0001
,
0010
1000
0100
0001
,
0010
0001
0100
1000
,
0010
1000
0010
1000
0010
0000
0100
0000
,
0001
0100
0001
0100
0001
0000
0010
0000
,
1000
0001
1000
0000
0001
1000
0001
0000
,
0100
1000
0001
0100
,
0101
0101
1100
1100
,
0011
0011
1100
1100
,
0010
0010
0010
0000
0100
0100
0100
0000
,
0020
0032
0203
1300
,
2002
0000
0000
0000
,
0000
0000
0000
0000
,
0000
0000
0000
0000
,
3003
0000
0000
0000
;

//---------------dance-single - ----------------
#NOTES:
     dance-single:
     :
     Beginner:
     3:
     0.146201,0.196343,0.007581,0.022742,0.000000,135.000000,134.000000,1.000000,3.000000,0.000000,0.000000,0.146201,0.196343,0.007581,0.022742,0.000000,135.000000,134.000000,1.000000,3.000000,0.000000,0.000000:
0000
0000
0000
0000
,
0000
0000
0000
0000
,
0000
0000
0000
0000
,
0000
0000
0000
0000
,
0000
0000
0000
0000
,
0000
0000
0000
0000
,
0000
0000
0000
0000
,
0010
0000
0010
0000
,
0100
0000
0100
0000
,
0001
0000
0001
0000
,
1000
0000
1000
0000
,
0001
0000
0001
0000
,
1000
0000
1000
0000
,
0010
0000
0010
0000
,
0100
0000
0100
0000
,
0010
0000
0001
0000
,
0100
0000
1000
0000
,
0010
0000
0010
0000
,
0100
0000
0000
0000
,
0001
0000
0001
0000
,
0001
0000
0001
0000
,
1000
0000
1000
0000
,
1000
0000
1000
0000
,
0010
0010
0010
0000
,
0100
0100
0100
0000
,
0010
0000
0100
0000
,
0010
0010
0000
0000
,
0001
0000
0000
0000
,
0000
0000
0000
0000
,
0000
0000
0000
0000
,
0000
0000
0000
0000
,
0000
0100
0000
0100
,
0000
0001
0000
0001
,
0000
1000
0000
1000
,
0000
0010
0000
0010
,
0000
1000
0000
1000
,
0000
0001
0000
0100
,
0100
0000
0100
0000
,
0100
0000
0000
0000
,
0010
0000
0010
0000
,
0001
0000
0001
0000
,
0100
0000
0100
0000
,
1000
0000
1000
0000
,
0010
0000
1000
0000
,
0100
0000
0001
0000
,
0010
0000
0001
0000
,
0100
0000
1000
0000
,
0001
0000
0001
0000
,
1000
1000
1000
0000
,
0001
0000
0001
0000
,
0100
0100
0100
0000
,
1000
0000
1000
0000
,
0010
0010
0010
0000
,
1000
0000
1000
0000
,
0002
0000
0003
0000
,
0100
0100
0100
0000
,
0010
0010
0010
0000
,
1000
1000
1000
0000
,
0001
0001
0001
0000
,
1000
0000
0001
0000
,
0100
0100
0100
0000
,
0001
0000
1000
0000
,
0010
0000
0100
0000
,
0001
0001
0001
0000
,
1000
1000
1000
0000
,
0010
0010
0010
0000
,
0100
0100
0100
0000
,
0001
0000
1000
0000
,
0010
0000
0100
0000
,
0010
0010
0010
0010
,
0010
0000
0000
0000
,
2002
0000
0000
0000
,
0000
0000
0000
0000
,
0000
0000
0000
0000
,
3003
0000
0000
0000
;

//---------------dance-double - ----------------
#NOTES:
     dance-double:
     :
     Easy:
     5:
     0.286988,0.504882,0.386621,0.250167,0.000000,265.000000,214.000000,51.000000,33.000000,0.000000,0.000000,0.286988,0.504882,0.386621,0.250167,0.000000,265.000000,214.000000,51.000000,33.000000,0.000000,0.000000:
00000000
00000000
00000000
00000000
,
00000000
00000000
00000000
00000000
,
00000000
00000000
00000000
00000000
,
00000000
00000000
00000000
00000000
,
00000000
00000000
00000000
00000000
,
00000000
00000000
00000000
00000000
,
00000000
00000000
00000000
00000000
,
10000000
10000000
00010000
00010000
,
00100000
00100000
00001000
00001000
,
00000001
00000001
00000010
00000010
,
00000100
00000100
00002002
00003003
,
00000010
00001000
00000100
00000001
,
00000010
00000010
00000100
00000100
,
00000010
00000001
00000100
00001000
,
00010000
00010000
10000000
10000000
,
00100000
10000000
01000000
00100000
,
00010000
00010000
00100000
00100000
,
00010000
00000100
00001000
00000010
,
00000002
00000003
00002000
00003000
,
00000020
00000030
00001001
00001001
,
00000200
00000300
00011000
00011000
,
00200000
00300000
10010000
10010000
,
02000000
03000000
00011000
00011000
,
00000010
00001100
00000010
00000101
,
00000010
00001100
00000010
00000100
,
00001001
00001000
00001001
00000001
,
00002002
00003003
00022000
00033000
,
00200000
00000000
00000000
00300000
,
00020000
00000000
00000000
00030000
,
02000000
00000000
00000000
03000000
,
20000000
00000000
00000000
30000000
,
00200000
00000000
00000000
00300000
,
00020000
00000000
00000000
00030000
,
00000200
00000000
00000000
00000300
,
00002000
00000000
00000000
00003000
,
00000020
00000030
00000002
00000003
,
00000200
00000300
00002000
00003000
,
00010000
00100000
01000000
10000000
,
20020000
00000000
00000000
30030000
,
00100000
00100000
01000000
01000000
,
00010000
10000000
00010000
10000000
,
01000000
01000000
00100000
00100000
,
00001000
00010000
00001000
00010000
,
00000010
00000010
00000100
00000100
,
00000001
00000001
00001001
00001001
,
00000100
00000100
00000010
00000010
,
00001000
00001000
00011000
00011000
,
00100000
00010000
01000000
10010000
,
00100000
10000000
01000000
00100000
,
00010000
00010000
00001000
00001000
,
00000010
00001000
00000100
00000001
,
00000010
00000100
00001001
00001001
,
00000100
00000010
00001001
00001001
,
00000010
00001000
00000100
00010000
,
00001000
00100000
00010000
01000000
,
00100000
00100000
00010000
00010000
,
01000000
01000000
10000000
10000000
,
00100000
10000000
01000000
00010000
,
00001000
00000100
00000001
00000010
,
00002000
00003001
00000002
00001003
,
00000020
00000130
00000200
00000310
,
00001000
00000100
00010000
00001000
,
00100000
00010000
01000000
00100000
,
10010000
11000000
10010000
11000000
,
10010000
01010000
10010000
01010000
,
00011000
00000100
00011000
00000100
,
00001010
00000001
00001010
00000001
,
00000110
00000110
00001001
00001001
,
00000110
00000110
00011000
00011000
,
01100000
10010000
01100000
10010000
,
00200000
00000000
00000000
00300000
,
00022000
00000000
00000000
00000000
,
00000000
00000000
00000000
00000000
,
00000000
00000000
00000000
00000000
,
00033000
00000000
00000000
00000000
;

//---------------dance-single - ----------------
#NOTES:
     dance-single:
     :
     Easy:
     5:
     0.286988,0.504882,0.386621,0.250167,0.000000,265.000000,214.000000,51.000000,33.000000,0.000000,0.000000,0.286988,0.504882,0.386621,0.250167,0.000000,265.000000,214.000000,51.000000,33.000000,0.000000,0.000000:
0000
0000
0000
0000
,
0000
0000
0000
0000
,
0000
0000
0000
0000
,
0000
0000
0000
0000
,
0000
0000
0000
0000
,
0000
0000
0000
0000
,
0000
0000
0000
0000
,
1000
1000
0001
0001
,
0010
0010
1000
1000
,
0001
0001
0010
0010
,
0100
0100
2002
3003
,
0010
1000
0100
0001
,
0010
0010
0100
0100
,
0010
0001
0100
1000
,
0001
0001
1000
1000
,
0010
1000
0100
0010
,
0001
0001
0010
0010
,
0001
0100
1000
0010
,
0002
0003
2000
3000
,
0020
0030
1001
1001
,
0200
0300
1001
1001
,
0020
0030
1001
1001
,
0200
0300
1001
1001
,
0010
1100
0010
0101
,
0010
1100
0010
0100
,
1001
1000
1001
0001
,
2002
3003
2002
3003
,
0020
0000
0000
0030
,
0002
0000
0000
0003
,
0200
0000
0000
0300
,
2000
0000
0000
3000
,
0020
0000
0000
0030
,
2000
0000
0000
3000
,
0200
0000
0000
0300
,
0002
0000
0000
0003
,
0020
0030
0002
0003
,
0200
0300
2000
3000
,
0001
0010
0100
1000
,
2002
0000
0000
3003
,
0010
0010
0100
0100
,
0001
1000
0001
1000
,
0100
0100
0010
0010
,
1000
0001
1000
0001
,
0010
0010
0100
0100
,
0001
0001
1001
1001
,
0100
0100
0010
0010
,
1000
1000
1001
1001
,
0010
0001
0100
1001
,
0010
1000
0100
0010
,
0001
0001
1000
1000
,
0010
1000
0100
0001
,
0010
0100
1001
1001
,
0100
0010
1001
1001
,
0010
1000
0100
0001
,
1000
0010
0001
0100
,
0010
0010
0001
0001
,
0100
0100
1000
1000
,
0010
1000
0100
0001
,
1000
0100
0001
0010
,
2000
3001
0002
1003
,
0020
0130
0200
0310
,
1000
0100
0001
1000
,
0010
0001
0100
0010
,
1001
1100
1001
1100
,
1001
0101
1001
0101
,
1001
0100
1001
0100
,
1010
0001
1010
0001
,
0110
0110
1001
1001
,
0110
0110
1001
1001
,
0110
1001
0110
1001
,
0020
0000
0000
0030
,
2002
0000
0000
0000
,
0000
0000
0000
0000
,
0000
0000
0000
0000
,
3003
0000
0000
0000
;
