#TITLE:Nakakapagpabagabag;
#SUBTITLE:;
#ARTIST:Dasu;
#TITLETRANSLIT:;
#SUBTITLETRANSLIT:;
#ARTISTTRANSLIT:;
#GENRE:;
#CREDIT:;
#MENUCOLOR:;
#METERTYPE:DDR;
#BANNER:Nakakapagpabagabag.png;
#BACKGROUND:Nakakapagpabagabag-bg.png;
#LYRICSPATH:;
#CDTITLE:;
#MUSIC:Nakakapagpabagabag.ogg;
#OFFSET:0.000;
#SAMPLESTART:35.858;
#SAMPLELENGTH:16.000;
#SELECTABLE:YES;
#LISTSORT:;
#BPMS:0.000=145.000;
#STOPS:;
#BGCHANGES:;
#ATTACKS:;

//---------------dance-single - ----------------
#NOTES:
     dance-single:
     :
     Hard:
     12:
     0.602,0.600,0.157,0.313,0.132:
0000
0000
0000
0000
,
0000
0000
0000
0000
,
0000
0000
0000
0000
,
0000
0000
0000
0000
,
1000
0001
1000
0001
1000
0010
1000
0010
,
0100
0001
0100
0001
1000
0100
0010
0001
,
0100
0010
0100
0010
0100
0001
0100
0001
,
1000
0010
1000
0010
1000
0100
0010
0001
,
1000
0100
1000
0100
0001
0100
0001
0100
,
1000
0100
0001
0100
0001
0010
0100
1000
,
0010
0001
0010
0001
1000
0100
1000
0100
,
0001
0100
0001
0100
1000
0000
0100
0000
,
1001
0000
0010
0100
0010
0100
0001
1000
,
0002
0000
1003
0100
0001
0000
1000
0100
,
0002
0000
1003
0010
0100
0010
1000
0001
,
0100
0100
0001
0001
1001
0000
1000
0100
,
1100
0000
0011
0000
2000
0000
3001
0100
,
0002
0000
1003
0010
2000
0000
3001
0100
,
0020
0000
0030
0000
2200
3300
0022
0033
,
1000
0100
0010
0001
2002
0000
3003
0000
,
0010
0010
0001
0001
,
0100
0000
0100
0000
1000
0000
0001
0010
,
1000
0001
1000
0001
2000
0000
3010
0100
,
0001
1000
0010
0100
0002
0000
1003
0001
,
2002
0000
3003
0010
0010
0010
0100
0100
,
0001
1000
0000
0000
1000
0001
0000
0000
0001
1000
0000
0000
0010
0000
1000
0000
,
0001
0001
1000
0001
1000
1000
0001
1000
,
0100
1000
0010
0100
0002
0000
0103
0010
,
1001
0000
0000
0100
0100
0100
0010
0010
,
1000
0001
0000
0000
0001
1000
0000
0000
1000
0002
0000
0000
0103
0000
0000
0000
,
0010
0000
1000
0000
0001
0000
1000
0000
0010
0000
1000
0001
1000
0000
1000
0100
,
1000
0000
0010
0000
0100
0001
0100
0000
0001
0000
1000
0001
1000
0000
0010
0000
,
0100
0000
0000
0000
0001
0000
1000
0000
0010
0100
0010
0100
0010
0000
1000
0100
,
1000
0001
0100
0001
1000
0001
1000
0010
,
0100
0000
0001
0000
0100
0000
0010
0000
1000
0000
0000
0001
0000
0000
1000
0000
,
0001
0000
0000
0100
0000
0000
1000
0000
0001
0000
0100
0000
1000
0001
0000
0001
,
0100
0010
0100
0001
2002
0000
3003
0100
,
1100
0000
0101
0000
0010
0100
0010
0100
,
0110
0000
0001
0100
0001
0001
0001
0100
,
1000
1000
1000
0100
0001
0100
1000
0100
,
1100
0000
0001
0010
1001
0000
0000
0010
,
0010
0000
0010
0000
0010
0000
0010
0000
1000
0001
0000
0000
0001
0100
0000
0000
,
0100
0010
0000
0000
0010
0000
1000
0000
0100
0000
1000
0000
0010
0000
1000
0000
,
0001
1000
0100
1000
0010
0100
0001
0100
,
0010
0000
0010
1000
0001
1000
0000
0010
,
0010
0000
0010
0000
0010
0000
0010
0000
0001
1000
0000
0000
1000
0001
0000
0000
,
0001
0100
0000
0000
0010
0000
1000
0000
0010
0000
0100
0000
0010
0000
0100
0000
,
0001
0100
0001
0100
1000
0100
1000
0100
,
0020
0000
0031
0100
0020
0000
0030
1000
,
1000
0000
0001
0000
0001
0000
1000
0000
1000
0100
0000
0000
0100
0010
0000
0000
,
0010
0001
0000
0000
1001
0000
0000
0000
0100
0020
0000
0000
1030
0000
0100
0000
,
0010
0001
0010
0100
1000
0010
0100
0001
,
0020
0000
0230
0000
0302
0000
1003
0100
,
0010
0001
0100
0010
1000
0100
0010
0001
,
0200
0000
0320
0000
2030
0000
3001
0010
,
0100
1000
0010
0100
0001
0010
0100
1000
,
0020
0000
0230
0000
0302
0000
1003
0100
,
0010
0001
0100
0010
1000
0001
0100
0010
,
1000
0100
0010
0001
0000
0000
0000
0000
;

//---------------dance-double - ----------------
#NOTES:
     dance-double:
     :
     Hard:
     12:
     0.559,0.628,0.039,0.245,0.137:
00000000
00000000
00000000
00000000
,
00000000
00000000
00000000
00000000
,
00000000
00000000
00000000
00000000
,
00000000
00000000
00000000
00000000
,
10000000
00010000
10000000
00010000
10000000
01000000
10000000
01000000
,
00100000
00010000
00100000
00010000
00100000
00001000
00010000
00000100
,
00001000
00000010
00001000
00000010
00000100
00000001
00000100
00000001
,
00001000
00000001
00001000
00000001
00001000
00000100
00010000
00001000
,
00100000
00010000
00100000
00010000
10000000
01000000
10000000
01000000
,
00100000
01000000
00100000
01000000
10000000
01000000
00100000
00010000
,
00001000
00010000
00001000
00010000
00000010
00001000
00000010
00001000
,
00000001
00000100
00000001
00000100
00000010
00000100
00001000
00000000
,
00010000
00000000
00001000
00100000
00001000
00000000
00100000
00000000
,
00010000
00100000
01000000
10000000
00100000
00000000
10000000
01000000
,
00100000
00000000
10000000
00000000
00010000
01000000
00010000
00000000
,
00100000
00010000
00100000
00001000
00010000
00000000
00000100
00010000
,
00001000
00000000
00001000
00000000
00000010
00000100
00000001
00001000
,
00000010
00000000
00000001
00001000
00000200
00000000
00001300
00000010
,
00000200
00000000
00000301
00000000
00001000
00000100
00001000
00000000
,
00001000
00010000
00001000
00010000
00002000
00000000
00103000
00000000
,
00020000
02030000
23000000
30200000
,
00320000
00032000
00003100
00000010
,
00000001
00001000
00000001
00001000
00000010
00000000
00001000
00000100
,
00001000
00000100
00010000
00001000
00020000
00000000
00032000
00000000
,
01003000
00000000
00000000
00100000
00100000
00100000
00100000
00100000
,
10000000
00010000
00000000
00000000
00010000
10000000
00000000
00000000
10000000
00010000
00000000
00000000
10000000
00000000
01000000
00000000
,
10000000
01000000
10000000
00100000
01000000
00000000
00010000
00100000
,
00010000
00100000
00001000
00010000
00000200
00000000
00002300
00000000
,
00003010
00000000
00000000
00000100
00000100
00000100
00000100
00000100
,
00000001
00001000
00000000
00000000
00001000
00000001
00000000
00000000
00000001
00001000
00000000
00000000
00000110
00000000
00000000
00000000
,
00000010
00000000
00001000
00000000
00000100
00000000
00001000
00000000
00000010
00000000
00001000
00000100
00001000
00000000
00000100
00010000
,
00000100
00000000
00010000
00000000
00001000
01000000
00001000
01000000
00001000
00000000
01000000
00010000
01000000
00000000
00100000
00000000
,
20000000
00000000
00000000
00000000
31000000
00000000
10000000
00000000
00100000
01000000
00100000
01000000
00100000
00000000
01000000
00010000
,
01000000
00000000
00001000
00000000
00010000
00001000
00010000
00000000
00000100
00000000
00001000
00000000
00000010
00000000
00000100
00000000
,
00000001
00000000
00000100
00000000
00000010
00000000
00001000
00000000
00000100
00000000
00000000
00010000
00000000
00000000
00001000
00000000
,
01000000
00000000
00000000
00010000
00000000
00000000
01000000
00000000
00100000
00000000
00000000
00000000
10000000
00000000
00000000
01000000
,
00000000
00100000
00010000
01000000
02200000
00000000
03300000
10000000
,
11000000
00000000
00110000
00000000
00100000
00001000
00010000
00000010
,
00002000
00000000
00003010
00000100
00000001
00000001
00001000
00001000
,
00000010
00000000
00001000
00001000
00000001
00000001
00000100
00000010
,
00002000
00000000
00003200
00000000
00010300
00000000
00000000
00001000
,
00001000
00000000
00001000
00000000
00001000
00000000
00001000
00000000
00010000
00001000
00000000
00000000
00001000
01000000
00000000
00000000
,
01000000
00100000
00000000
00000000
00100000
00000000
10000000
00000000
00100000
00000000
01000000
00000000
00100000
00000000
10000000
00000000
,
00200000
00000000
01300000
00010000
00100000
00010000
01000000
00010000
,
00200000
00000000
00302000
00000000
00013000
00000000
00000000
00010000
,
00010000
00000000
00010000
00000000
00010000
00000000
00010000
00000000
00000100
00010000
00000000
00000000
00010000
00001000
00000000
00000000
,
00001000
01000000
00000000
00000000
01000000
00000000
00010000
00000000
10000000
00000000
00010000
00000000
01000000
00000000
00010000
00000000
,
00200000
00000000
00301000
00010000
00000100
00001000
00000010
00000100
,
00000002
00000000
00002003
00000000
00003010
00000000
00000000
00000100
,
00000100
00000000
00000100
00000000
00000100
00000000
00000100
00000000
00000001
00000100
00000000
00000000
00000100
00001000
00000000
00000000
,
00001000
00000100
00000000
00000000
00000100
00000001
00000000
00000000
00000001
00000000
00000100
00000000
00000001
00000000
00000000
00000000
,
00001000
00000100
00001000
00000000
00000100
00010000
00000100
00010000
,
00001000
00010000
00001000
00000000
00001000
01000000
00001000
00000000
,
01000000
00100000
01000000
00000000
00010000
00100000
01000000
10000000
,
00100000
01000000
00010000
00000000
10000000
01000000
10000000
00000000
,
00100000
00010000
00100000
00000000
00100000
00001000
00010000
00000000
,
00010000
00000010
00001000
00000010
00000100
00000010
00000100
00000000
,
00000001
00001000
00000001
00000000
00001000
00000100
00001000
00000000
,
00000010
00000100
00001000
00010000
00000000
00000000
00000000
00000000
;

//---------------dance-double - ----------------
#NOTES:
     dance-double:
     :
     Medium:
     8:
     0.424,0.514,0.479,0.333,0.000:
00000000
00000000
00000000
00000000
,
00000000
00000000
00000000
00000000
,
00000000
00000000
00000000
00000000
,
00000000
00000000
00000000
00000000
,
10100000
10100000
00110000
00110000
,
00011000
00011000
00001010
00001010
,
00000101
00000101
00001100
00001100
,
00011000
00011000
01010000
11000000
,
10010000
10010000
01010000
01010000
,
00110000
00000000
00110000
00000000
00100000
00001000
00010000
00000100
,
00001000
00001100
00001100
00000110
,
00000110
00000000
00000101
00000000
00000001
00001000
00000010
00000100
,
00000010
00000000
00001000
00000010
00001000
00000000
00000010
00000000
,
00001000
00000000
00000100
00010000
00000100
00000000
00010000
00000000
,
00001000
00000000
00010000
00000000
00001000
01000000
00001000
00000000
,
01000000
00010000
01000000
00010000
01000000
00000000
00100000
00000000
,
10000000
01000000
10000000
00100000
,
01000000
00000000
00010000
01000000
00010000
00000000
01000000
00000000
,
00002000
00013000
00000200
00002300
,
00003010
00000100
00000010
00000100
00000020
00000000
00000030
00000000
,
00000001
00000000
00001000
00000000
,
00000001
00000000
00000000
00000000
00001000
00000000
00000010
00000100
,
00000010
00001000
00000200
00000300
,
00010000
00001000
01000000
00001000
,
01000000
00000000
00000000
00100000
00100000
00000000
00100000
00000000
,
10010000
10010000
10010000
00000000
,
01000000
10000000
00200000
00300000
,
01000000
00010000
00100000
00001000
,
00010000
00000000
00001000
00001000
,
00001010
00001010
00001010
00000000
,
00000001
00000100
00001000
00000010
,
00001000
00000100
00001000
00000000
00000020
00000000
00020030
00000000
,
00032000
00013000
00001000
01000000
,
00010000
01000000
00010000
00000000
02000000
00000000
03200000
00000000
,
20300000
30020000
01030000
01100000
,
10000000
01000000
00010000
00000000
00100000
00000000
01100000
00000000
,
10000000
01000000
00010000
00000000
02020000
00000000
03030000
00000000
,
00100000
00000000
00001000
00000000
00010000
00001000
00010000
00001000
,
00020000
00030100
00002000
00003000
,
00000020
00000030
00000002
00000003
,
00000200
00000000
00000300
00000000
00001000
00000000
00000000
00000010
,
00000010
00000010
00001001
00001001
,
00001001
00000100
00001000
00010000
,
00100000
00000000
00010000
01000000
00010000
00000000
01000000
00000000
,
10000000
00100000
01100000
00000000
,
00100000
00100000
10010000
10010000
,
10010000
00000000
10000000
01000000
10000000
00000000
00100000
00000000
,
01000000
00001000
00010000
00000100
,
00002000
00000000
00003020
00000000
00000031
00000000
00000000
00000010
,
00000010
00000010
00001001
00001001
,
00002002
00003003
00002200
00003300
,
00000001
00000001
00001000
00001000
,
00000020
00000030
00000200
00000300
,
00010000
00010000
00001000
00001000
,
02000000
03000000
00200000
00300000
,
10000000
10000000
00010000
00010000
,
02200000
03300000
20020000
30030000
,
10000000
01000000
10000000
00000000
00100000
00010000
00100000
00000000
,
00001000
00010000
00001000
00010000
00000000
00000000
00000000
00000000
;

//---------------dance-single - ----------------
#NOTES:
     dance-single:
     :
     Medium:
     8:
     0.485,0.514,0.724,0.401,0.000:
0000
0000
0000
0000
,
0000
0000
0000
0000
,
0000
0000
0000
0000
,
0000
0000
0000
0000
,
1001
1001
0011
0011
,
1001
1001
1010
1010
,
1001
1001
1100
1100
,
1001
1001
0101
0101
,
0110
0110
1001
1001
,
0011
1001
1100
1001
,
1100
1100
0101
0101
,
0110
0000
1001
0000
1001
0000
0010
0100
,
0010
0000
1000
0001
1000
0000
0010
0000
,
1000
0000
0100
0001
0100
0000
1001
0000
,
1001
0000
0010
0000
1000
0100
1000
0000
,
0100
0001
0100
0001
0100
0000
0010
0000
,
1001
0100
1001
0010
,
0100
0000
0001
0100
0001
0000
0100
0000
,
2000
3001
0200
2300
,
3010
0100
0010
0100
0020
0000
0030
0000
,
0001
0001
1000
1000
,
0001
0001
0010
0000
,
0010
1000
0220
0330
,
0001
1000
0101
1001
,
1001
0000
0000
0010
0010
0000
0010
0000
,
1001
1001
1001
0000
,
0010
0001
0220
0330
,
0010
1000
0101
1001
,
1001
0000
0000
0010
0010
0000
0010
0000
,
1001
1001
1001
0000
,
0002
0000
1003
0000
0010
0100
0010
0100
,
0010
1001
0020
0230
,
0320
0031
1000
0100
,
0001
0100
0001
0000
0200
0000
0320
0000
,
2030
3002
0103
0110
,
0001
0100
0001
0000
0010
0000
0110
0000
,
1000
0100
1000
0000
0202
0000
0303
0000
,
0010
0000
1000
0000
0001
1000
0001
1000
,
0002
0103
2000
3010
,
0020
0031
0002
0103
,
0200
0000
1300
0000
1000
0000
0000
0010
,
0010
0010
1001
1001
,
1001
0100
1001
0001
,
0010
0000
0001
0100
0001
0000
0100
0000
,
1001
0000
0101
0000
1001
0000
0000
0010
,
0010
0010
1001
1001
,
1001
0000
1000
0100
1000
0000
0010
0100
,
0010
1000
0001
0110
,
2000
0000
3020
0000
0031
0000
0000
0010
,
0010
0010
1001
1001
,
2002
3003
2200
3300
,
0001
0100
0001
0000
1000
0100
1000
0000
,
0220
0330
2002
3003
,
0001
0100
0001
0000
1000
0100
1000
0000
,
0220
0330
0220
0330
,
1000
0010
1000
0000
0001
0010
0001
0000
,
0220
0330
2002
3003
,
1000
0100
1000
0000
1000
0001
1000
0000
,
0001
1000
0001
1000
0000
0000
0000
0000
;

//---------------dance-single - Copied from----------------
#NOTES:
     dance-single:
     Copied from:
     Easy:
     5:
     0.324,0.399,0.225,0.372,0.000:
0000
0000
0000
0000
,
0000
0000
0000
0000
,
0000
0000
0000
0000
,
0000
0000
0000
0000
,
1000
0001
1000
0001
,
1000
1000
0001
0001
,
0010
0010
0100
0100
,
1000
0001
1000
0001
,
0010
0100
2002
3003
,
0100
0010
2002
3003
,
1000
0100
2002
3003
,
0001
0100
2002
3003
,
0010
0100
1000
0001
,
0100
0010
0010
0000
,
0100
0010
0001
1000
,
0010
0010
0010
0000
,
1000
0100
0001
0100
,
1000
0001
1001
0000
,
0002
0003
1000
1000
,
0010
0010
0220
0330
,
0000
0000
0000
0000
,
0000
0000
0000
0000
,
1000
0001
1001
0000
,
0001
1000
1001
0000
,
1001
0000
0010
0010
,
0010
0010
0010
0000
,
0010
0100
0110
0000
,
0100
0010
0110
0000
,
1001
0000
0010
0010
,
0010
0010
0010
0000
,
0000
0000
0010
0100
,
0010
0100
0001
0100
,
1000
0000
0100
0010
,
0100
0010
1000
0100
,
0010
0001
0100
0010
,
0100
0010
0100
0001
,
0010
0100
2000
3000
,
0001
0001
1000
1000
,
2000
3000
0020
0030
,
0200
0300
0002
0003
,
2000
3000
1001
0000
,
0010
0010
0010
0010
,
0010
0000
1000
0001
,
1000
0001
0100
0100
,
0010
0010
1001
0000
,
0010
0010
0010
0010
,
0010
1000
0001
1000
,
0001
1000
0010
0010
,
0100
0100
1001
0000
,
0010
0010
1001
1001
,
2002
3003
0200
0300
,
0220
0330
0002
0003
,
2002
3003
2000
3000
,
2002
3003
0020
0030
,
0220
0330
2000
3100
,
2000
3100
0002
0103
,
0002
0103
2000
3010
,
2000
3010
0002
0013
,
0100
1001
0000
0000
;

//---------------dance-double - Copied from Copied f----------------
#NOTES:
     dance-double:
     Copied from Copied f:
     Easy:
     5:
     0.268,0.342,0.157,0.186,0.000:
00000000
00000000
00000000
00000000
,
00000000
00000000
00000000
00000000
,
00000000
00000000
00000000
00000000
,
00000000
00000000
00000000
00000000
,
10000000
00010000
10000000
00010000
,
01000000
00000000
00001000
00000000
,
00010000
00001000
00010000
00001000
,
00010000
00000000
00000010
00000000
,
00000001
00001000
00000001
00001000
,
00000010
00000000
00010000
00000000
,
00001000
00010000
00001000
00010000
,
00001000
00000000
01000000
00000000
,
00100000
00100000
10000000
00000000
,
00100000
00100000
00010000
00000000
,
00001000
00001000
00010000
00000000
,
00010000
00010000
00001000
00000000
,
00000100
00000100
00001001
00000000
,
00000010
00000010
00001001
00000000
,
00002000
00003000
00000100
00000100
,
00000100
00000100
00000110
00000000
,
00000000
00000000
00000000
00000000
,
00000000
00000000
00000000
00000000
,
00001000
00001000
00011000
00000000
,
00010000
00010000
00011000
00000000
,
01000000
00000000
00100000
00100000
,
10000000
10000000
10010000
00000000
,
01000000
00010000
00100000
00000000
,
00001000
00010000
00011000
00000000
,
00011000
00000000
00000010
00000010
,
00000010
00000010
00000010
00000000
,
00001000
00000001
00000100
00000100
,
00000010
00000010
00001000
00000000
,
00010000
00000000
00001000
00001000
,
01000000
01000000
00010000
00000000
,
10000000
00000000
00100000
10000000
,
00100000
00010000
00100000
10000000
,
01000000
00010000
00001000
00000000
,
00000100
00000100
00000010
00000010
,
00001001
00000000
00000020
00000030
,
00002000
00003000
00020000
00030000
,
00200000
00300000
10010000
00000000
,
00100000
00100000
00100000
00100000
,
00100000
00000000
02000000
03000000
,
00020000
00030000
00001000
00001000
,
00000100
00000100
00001001
00000000
,
00000010
00000010
00000010
00000010
,
00000010
00000001
00001000
00000001
,
00001000
00000100
00000100
00010000
,
00010000
00010000
00011000
00000000
,
00100000
00100000
10010000
10010000
,
20020000
30030000
20000000
30000000
,
00020000
00030000
01000000
00100000
,
00010000
00000000
00002000
00003000
,
00020000
00030000
00000100
00001000
,
00000020
00000030
00000002
00000003
,
00002000
00003000
00000100
00010000
,
00001000
00000000
00020000
00030000
,
00002000
00003000
00020000
00030000
,
00001000
00011000
00000000
00000000
;

//---------------dance-single - Copied from Copied from----------------
#NOTES:
     dance-single:
     Copied from Copied from:
     Beginner:
     4:
     0.169,0.199,0.029,0.000,0.000: // measure 1
0000
0000
0000
0000
,  // measure 2
0000
0000
0000
0000
,  // measure 3
0000
0000
0000
0000
,  // measure 4
0000
0000
0000
0000
,  // measure 5
1000
0000
1000
0000
,  // measure 6
0001
0000
0001
0000
,  // measure 7
0010
0000
0010
0000
,  // measure 8
0100
0000
0100
0000
,  // measure 9
0010
0000
0001
0000
,  // measure 10
0100
0000
1000
0000
,  // measure 11
0010
0000
1000
0000
,  // measure 12
0100
0000
0001
0000
,  // measure 13
0010
0000
0010
0000
,  // measure 14
0100
0000
0100
0000
,  // measure 15
0001
0000
0001
0000
,  // measure 16
1000
0000
1000
0000
,  // measure 17
0010
0000
0010
0000
,  // measure 18
0100
0000
0100
0000
,  // measure 19
0001
0000
1000
0000
,  // measure 20
0010
0010
0010
0000
,  // measure 21
0000
0000
0000
0000
,  // measure 22
0000
0000
0000
0000
,  // measure 23
1000
0000
1000
0000
,  // measure 24
0001
0000
0001
0000
,  // measure 25
1001
0000
0010
0000
,  // measure 26
0010
0010
0010
0000
,  // measure 27
0010
0000
0010
0000
,  // measure 28
0100
0000
0100
0000
,  // measure 29
0001
0000
0010
0000
,  // measure 30
0010
0010
0010
0000
,  // measure 31
0000
0000
0010
0000
,  // measure 32
0010
0000
0001
0001
,  // measure 33
0001
0000
0010
0000
,  // measure 34
0010
0000
1000
1000
,  // measure 35
1000
0000
0100
0000
,  // measure 36
0100
0000
0001
0000
,  // measure 37
0001
0000
0010
0000
,  // measure 38
0010
0000
1000
1000
,  // measure 39
1000
0000
0010
0000
,  // measure 40
0100
0000
0001
0000
,  // measure 41
1000
0000
1001
0000
,  // measure 42
0010
0000
0010
0010
,  // measure 43
0010
0000
1000
0000
,  // measure 44
1000
0000
0001
0000
,  // measure 45
0001
0000
1001
0000
,  // measure 46
0010
0000
0010
0010
,  // measure 47
0010
0000
0001
0000
,  // measure 48
0001
0000
1000
0000
,  // measure 49
1000
0000
0100
0000
,  // measure 50
0010
0000
0010
0010
,  // measure 51
0010
0000
1000
0000
,  // measure 52
0100
0000
0010
0000
,  // measure 53
0001
0000
1000
0000
,  // measure 54
0100
0000
0010
0000
,  // measure 55
0001
0000
1000
1000
,  // measure 56
1000
0000
0100
0100
,  // measure 57
0100
0000
0010
0010
,  // measure 58
0010
0000
0001
0001
,  // measure 59
0001
0001
0000
0000
;
