#TITLE:Midnight Lady;
#SUBTITLE:;
#ARTIST:Dirty Androids;
#TITLETRANSLIT:;
#SUBTITLETRANSLIT:;
#ARTISTTRANSLIT:;
#GENRE:;
#CREDIT:;
#MENUCOLOR:;
#METERTYPE:DDR;
#BANNER:Midnight Lady.png;
#BACKGROUND:Midnight Lady-bg.png;
#LYRICSPATH:;
#CDTITLE:;
#MUSIC:Midnight Lady.ogg;
#OFFSET:-0.050;
#SAMPLESTART:46.900;
#SAMPLELENGTH:15.000;
#SELECTABLE:YES;
#LISTSORT:;
#BPMS:0.000=128.000;
#STOPS:;
#BGCHANGES:0.000=Midnight Lady.avi=1.000=0=0=0,
99999=-nosongbg-=1.000=0=0=0 // don't automatically add -songbackground-
;
#ATTACKS:;

//---------------dance-single - ----------------
#NOTES:
     dance-single:
     :
     Hard:
     9:
     0.390,0.393,0.258,0.196,0.047:
0000
0000
0000
0000
,
0000
0000
0000
0000
,
0000
0000
0000
0000
,
0000
0000
0000
0000
,
0000
0000
0000
0000
,
0020
0001
0000
0031
,
2000
0100
0000
3100
,
0002
0100
0000
0103
,
2000
0000
3002
0103
,
0010
0000
1001
0000
0010
1000
0001
0000
,
0100
0000
1001
0000
0100
0001
0100
0000
,
0010
0000
1001
0000
0100
1000
0001
0000
,
0100
0101
0100
1100
,
0001
0000
0101
0000
1000
0100
1000
0000
,
0010
1010
0100
0110
,
1000
0000
1100
0000
0001
0100
0001
0000
,
1000
1010
0001
0011
,
0200
0001
1000
0301
,
0010
1000
0100
0000
0010
0001
0100
0000
,
0020
1000
0001
1030
,
0001
0100
0001
0000
1000
0100
1000
0000
,
0002
0100
1000
0013
,
0100
0010
0100
0000
0001
0100
1000
0000
,
0020
1000
0100
1030
,
0001
0100
0001
0000
1000
0100
1000
0000
,
0020
0100
0000
1030
,
0200
0000
0000
0320
0000
0000
1030
0000
,
0200
0000
0001
0000
0000
0310
0000
0100
,
0002
0000
0000
2003
0000
0000
3010
0000
,
0200
0000
0010
0000
0000
0302
0000
0000
,
2003
0000
0000
3020
0000
0000
0130
0000
,
0002
0000
1000
0000
0000
1003
0000
1000
,
0001
1100
0001
1010
,
0101
1001
0101
1001
,
1000
0000
0001
0000
1000
0000
0000
0000
0010
0000
0000
0100
0000
0000
0001
0000
,
0000
1000
0100
0000
1000
0001
0100
0000
,
0001
0000
0010
0000
0100
0000
0000
0000
1000
0000
0000
0010
0000
0000
1000
0000
,
0000
0010
0100
0000
1000
0000
1001
0000
,
0001
0000
0010
0000
0001
0000
0000
0000
1000
0000
0000
0001
0000
0000
0100
0000
,
0000
0010
1000
0000
0001
1000
0100
0000
,
0010
0000
0100
0000
0001
0000
0100
0000
0010
0000
0000
0001
0000
0000
1000
0000
,
0000
0001
0100
0000
0100
0000
1001
0000
,
1001
0000
0000
0000
0001
0000
0100
0000
0010
0000
0000
0010
0000
0000
0010
0000
,
0000
1000
0010
0100
0010
0000
1001
0000
,
0110
0000
0000
0000
1000
0000
0010
0000
0100
0000
0000
0100
0000
0000
0100
0000
,
0000
0001
1000
0000
0010
0100
0001
0000
,
1000
0000
0010
0000
1000
0000
0001
0000
0100
0000
0000
0100
0000
0000
0100
0000
,
0000
0001
1000
0010
0000
1000
0001
0000
,
2000
0100
0001
3100
,
0002
0100
2003
0010
,
3001
0000
0100
0000
0001
0000
1000
0001
,
1000
0000
0010
0000
1000
0000
0001
0100
,
0001
0000
1000
0000
0100
0000
0010
0001
,
0010
0000
0001
0000
0100
0000
1000
0100
,
1000
0000
0010
0000
1000
0000
0001
0100
,
0001
0000
1000
0000
0010
0000
0100
0010
,
0100
1001
0010
1001
,
1000
0001
1000
0001
0100
0010
0100
0000
,
1100
0000
0000
0000
0101
0000
0000
0000
0010
0000
0000
0010
0000
0000
0010
0000
,
0000
0001
0100
0000
1000
0000
1001
0000
,
0101
0000
0000
0000
1100
0000
0000
0000
0010
0000
0000
0010
0000
0000
0010
0000
,
0000
1000
0100
0000
0101
0000
1001
0000
,
0001
0000
0010
0000
0100
0000
1000
0000
0001
0000
0000
1000
0000
0000
1001
0000
,
0000
0010
1000
0001
0000
1000
0001
0100
,
0010
0000
0100
0001
1000
0010
1000
0001
,
1000
0000
0010
0000
0000
0100
0000
0000
0001
0000
0000
1000
0000
0000
0001
0000
,
2002
0000
0000
0000
,
3003
0000
0000
0000
;

//---------------dance-single - ----------------
#NOTES:
     dance-single:
     :
     Medium:
     7:
     0.315,0.393,0.141,0.321,0.008:
0000
0000
0000
0000
,
0000
0000
0000
0000
,
0000
0000
0000
0000
,
0000
0000
0000
0000
,
0000
0000
0000
0000
,
0200
0000
0000
0300
,
0020
0030
2000
3000
,
0020
0000
0000
0030
,
0200
0300
0002
0003
,
2000
0001
0000
3001
,
0020
0030
0200
0300
,
0002
1000
0000
1003
,
0200
0300
0020
0030
,
0001
0100
1000
0100
,
0010
1000
0010
0001
,
1000
0100
0001
0100
,
1000
0010
0000
0010
,
0002
0003
2000
3000
,
0010
0100
0010
0100
,
0200
0300
0020
0030
,
0001
1000
0001
1000
,
0001
0100
0001
0000
1000
0000
1010
0000
,
0100
0110
0001
1000
,
0010
1000
0010
0000
0100
0000
0101
0000
,
0010
0001
0100
1000
,
0002
0000
0000
0003
,
1000
0000
0000
0010
0000
0000
1000
0000
,
0001
0000
0001
0000
0000
0010
0000
0100
,
0001
0000
0000
1000
0000
0000
0010
0000
,
0100
0010
0100
0001
,
1000
0100
1000
1001
,
0100
0001
0100
1001
,
0001
0100
0010
1000
,
1001
1001
2002
3003
,
1000
0001
0100
0001
,
1000
0000
0010
0000
1000
0100
1000
0000
,
0001
0100
0001
0010
,
0001
0000
0100
0000
1000
0100
1000
0000
,
0010
0010
0100
0001
,
0010
0010
1000
0100
,
0010
0000
0001
0000
0100
0010
0100
0000
,
0001
0000
1000
0000
0010
0100
0010
0000
,
1000
1100
0001
0101
,
1000
0100
0001
0100
,
0001
0010
0001
0000
1000
0010
1000
0000
,
0010
0000
0001
0000
0100
0001
0100
0000
,
0010
0000
1000
0100
2000
0000
3000
0000
,
0001
0100
0010
1000
,
0020
1030
0200
0301
,
0002
0013
2002
3003
,
0020
0100
0000
0130
,
2000
3001
0200
0301
,
0002
1000
0000
1003
,
0020
0130
2000
3001
,
0100
1000
0010
1000
,
0100
0001
0010
0001
,
0100
0001
0100
0000
0010
0000
1000
0000
,
0100
1000
0100
0000
1000
0000
0010
0000
,
0202
0303
0001
1000
,
0010
0100
0010
0000
1000
0000
0001
0000
,
2020
0000
3030
0000
0001
0100
0001
0000
,
1000
1100
0001
0101
,
0220
0000
0000
0000
0330
0000
0000
0000
0001
0000
0000
1000
0000
0000
0200
0000
,
0000
0300
0000
0020
0000
0030
0000
0000
,
0100
0001
0010
1000
,
0010
0000
0000
0000
1001
0000
0000
0000
0001
0000
0000
0001
0000
0000
0000
0000
,
2002
0000
0000
0000
,
3003
0000
0000
0000
;

//---------------dance-single - ----------------
#NOTES:
     dance-single:
     :
     Easy:
     4:
     0.206,0.288,0.094,0.211,0.000: // measure 1
0000
0000
0000
0000
,  // measure 2
0000
0000
0000
0000
,  // measure 3
0000
0000
0000
0000
,  // measure 4
0000
0000
0000
0000
,  // measure 5
0000
0000
0000
0000
,  // measure 6
2000
0000
0000
3000
,  // measure 7
0001
0000
1000
0000
,  // measure 8
0002
0000
0000
0003
,  // measure 9
1000
0000
0001
0000
,  // measure 10
2000
0000
0000
3000
,  // measure 11
0010
0000
0100
0000
,  // measure 12
0002
0000
0000
0003
,  // measure 13
0100
0000
0010
0000
,  // measure 14
0001
0100
0000
0100
,  // measure 15
0000
0100
1000
0001
,  // measure 16
0000
0010
0000
0010
,  // measure 17
0000
0010
1000
0001
,  // measure 18
0002
0003
2000
3000
,  // measure 19
0010
0100
0010
0000
,  // measure 20
0200
0300
0020
0030
,  // measure 21
0100
0010
0100
0000
,  // measure 22
0001
0100
1000
0000
,  // measure 23
1000
0100
0001
0000
,  // measure 24
0010
1000
0001
0000
,  // measure 25
0010
0001
1000
0000
,  // measure 26
0002
0000
0000
0003
,  // measure 27
1000
0000
0001
0000
,  // measure 28
2000
0000
3000
0000
,  // measure 29
0001
0000
1000
0000
,  // measure 30
0020
0000
0030
0000
,  // measure 31
0001
0000
0100
0000
,  // measure 32
0020
0000
0030
0000
,  // measure 33
1000
0000
0100
0000
,  // measure 34
1001
1001
1001
0000
,  // measure 35
1000
0001
0000
0001
,  // measure 36
0000
0001
0010
1000
,  // measure 37
0000
0001
0000
0001
,  // measure 38
0000
1000
0100
0001
,  // measure 39
0000
0010
0000
0010
,  // measure 40
0000
0001
0100
1000
,  // measure 41
0000
0100
0000
0100
,  // measure 42
0000
1000
0100
0001
,  // measure 43
1000
0100
0001
0100
,  // measure 44
1000
0100
0001
0100
,  // measure 45
0001
0010
1000
0010
,  // measure 46
0001
0010
1000
0010
,  // measure 47
0001
0000
2002
3003
,  // measure 48
1000
0000
2002
3003
,  // measure 49
0020
0030
0200
0300
,  // measure 50
0020
0030
1001
0000
,  // measure 51
0020
0000
0000
0030
,  // measure 52
2000
3000
0002
0003
,  // measure 53
0200
0000
0000
0300
,  // measure 54
0002
0003
2000
3000
,  // measure 55
0100
1000
0010
0000
,  // measure 56
0100
0001
0010
0000
,  // measure 57
0001
0010
1000
0000
,  // measure 58
1000
0010
0001
0000
,  // measure 59
1001
0000
1001
0000
,  // measure 60
0010
0100
1000
0000
,  // measure 61
1001
0000
1001
0000
,  // measure 62
0100
0010
0001
0000
,  // measure 63
0110
0000
0001
1000
,  // measure 64
0100
0000
0010
0000
,  // measure 65
0100
0000
0010
0000
,  // measure 66
0001
0010
0100
1000
,  // measure 67
2002
0000
0000
0000
,  // measure 68
3003
0000
0000
0000
;

//---------------dance-single - ----------------
#NOTES:
     dance-single:
     :
     Beginner:
     1:
     0.120,0.183,0.016,0.023,0.000: // measure 1
0000
0000
0000
0000
,  // measure 2
0000
0000
0000
0000
,  // measure 3
0000
0000
0000
0000
,  // measure 4
0000
0000
0000
0000
,  // measure 5
0000
0000
0000
0000
,  // measure 6
1000
0000
0000
0000
,  // measure 7
0001
0000
0000
0000
,  // measure 8
1000
0000
0000
0000
,  // measure 9
0001
0000
0000
0000
,  // measure 10
0010
0000
0000
0000
,  // measure 11
0100
0000
0000
0000
,  // measure 12
0010
0000
0000
0000
,  // measure 13
0100
0000
0000
0000
,  // measure 14
0001
0000
0001
0000
,  // measure 15
0001
0000
0000
0000
,  // measure 16
1000
0000
1000
0000
,  // measure 17
1000
0000
0000
0000
,  // measure 18
0001
0000
0000
0000
,  // measure 19
1000
0000
0000
0000
,  // measure 20
0001
0000
0001
0000
,  // measure 21
1000
0000
1000
0000
,  // measure 22
0001
0000
0000
0000
,  // measure 23
0100
0000
0000
0000
,  // measure 24
1000
0000
0000
0000
,  // measure 25
0100
0000
0000
0000
,  // measure 26
0001
0000
0100
0000
,  // measure 27
1000
0000
0100
0000
,  // measure 28
0001
0000
0100
0000
,  // measure 29
1000
0000
0100
0000
,  // measure 30
0001
0000
0000
0000
,  // measure 31
1000
0000
0000
0000
,  // measure 32
0001
0000
1000
0000
,  // measure 33
0001
0000
1000
0000
,  // measure 34
0001
0001
0001
0000
,  // measure 35
0000
1000
0000
0001
,  // measure 36
0000
1000
0000
0001
,  // measure 37
0000
0100
0000
0010
,  // measure 38
0000
0100
0000
0010
,  // measure 39
0000
1000
0000
1000
,  // measure 40
0000
0001
0000
0001
,  // measure 41
0000
0100
0000
0010
,  // measure 42
0000
0100
0000
0010
,  // measure 43
0010
0000
0001
0000
,  // measure 44
0100
0000
1000
0000
,  // measure 45
0010
0000
1000
0000
,  // measure 46
0100
0000
0001
0000
,  // measure 47
0010
0000
1000
0000
,  // measure 48
0010
0000
0001
0000
,  // measure 49
0100
0000
1000
0000
,  // measure 50
0100
0000
0001
0000
,  // measure 51
0010
0000
0000
0000
,  // measure 52
1000
0000
0000
0000
,  // measure 53
0100
0000
0000
0000
,  // measure 54
0001
0000
0000
0000
,  // measure 55
0010
0000
0010
0000
,  // measure 56
0100
0000
0100
0000
,  // measure 57
0001
0000
1000
0000
,  // measure 58
0001
0000
1001
0000
,  // measure 59
0010
0000
0010
0000
,  // measure 60
0001
0000
1000
0000
,  // measure 61
0010
0000
0010
0000
,  // measure 62
1000
0000
0001
0000
,  // measure 63
0100
0000
0100
0000
,  // measure 64
1000
0000
0001
0000
,  // measure 65
0020
0000
0030
0000
,  // measure 66
0010
0010
0010
0000
,  // measure 67
2002
0000
0000
0000
,  // measure 68
3003
0000
0000
0000
;
