#TITLE:メトロポリタン飛行;
#SUBTITLE:;
#ARTIST:ナビ featured by 劇団レコード;
#TITLETRANSLIT:Metropolitan Hikou;
#SUBTITLETRANSLIT:;
#ARTISTTRANSLIT:NAVI featured by Gekidan Records;
#GENRE:;
#CREDIT:;
#MENUCOLOR:;
#METERTYPE:DDR X;
#BANNER:Metropolitan Hikou-jacket.png;
#BACKGROUND:Metropolitan Hikou-bg.png;
#LYRICSPATH:;
#CDTITLE:;
#MUSIC:Metropolitan Hikou.ogg;
#OFFSET:-0.597;
#SAMPLESTART:100.000;
#SAMPLELENGTH:12.000;
#SELECTABLE:YES;
#LISTSORT:;
#BPMS:0.000=132.000;
#STOPS:;
#BGCHANGES:;
#ATTACKS:;

//---------------dance-single - ----------------
#NOTES:
     dance-single:
     :
     Hard:
     12:
     0.501,0.474,0.381,0.149,0.128:
0000
0000
0000
0000
,
0000
0000
0000
0000
,
0000
0000
0000
0000
,
0000
0000
0000
0000
,
0000
0000
0000
0000
0000
0000
0000
0000
0000
0000
0000
0000
1000
0001
1000
0001
,
1000
0100
1000
0001
1000
0010
0100
0010
,
1000
0010
1000
0010
0100
0001
0100
0001
,
1000
0100
0010
0001
1001
0000
0110
0000
,
0001
0010
0100
1000
1001
0000
0110
0000
,
1000
0010
1000
0010
0100
0001
0100
0001
,
1000
0100
1000
0100
0010
0000
0101
0000
,
0001
0001
1000
0000
0101
0000
1010
0000
,
0001
0001
1000
0000
1000
1000
0001
0000
,
1000
0010
1000
0010
1000
0001
1000
0001
,
0100
0010
0100
0010
1000
0100
0010
0000
,
1000
0001
1000
0001
1000
0100
1000
0000
,
0001
0010
0001
0010
0001
1000
0001
0000
,
0100
0010
0100
0010
1000
0000
0001
0000
,
1000
1000
0001
0001
0200
0000
0300
0000
,
1001
1001
0000
0000
1001
0000
0101
0000
,
0110
0110
0000
0000
1001
0000
1100
0000
,
0000
0001
0100
0001
1000
0001
0100
0000
,
0010
0000
0100
0010
0000
0100
0010
0000
2002
0000
0000
0000
3003
0000
0000
0000
,
1000
1000
0001
0000
0100
0100
0001
0000
,
1000
0100
0010
0001
0200
0000
0310
0000
,
0001
0001
0100
0000
0001
0001
1000
0000
,
0001
0100
0010
1000
0010
0100
0001
0000
,
0000
0100
0001
0100
1000
0100
0001
0000
,
1000
1000
0001
0001
0200
0000
0300
0000
,
0001
0010
0001
0010
0001
1000
0001
0000
,
1000
0100
1000
0001
0100
0000
1001
0000
,
0100
0000
0000
0100
0001
0000
0000
0001
1000
0000
0000
1000
0001
0000
0000
0000
,
0100
0000
0000
0010
0000
0000
1000
0000
1001
0000
0000
0000
0000
0000
0010
0000
,
0100
0000
0000
0001
0000
0000
1000
0000
0001
0000
0100
0000
0110
0000
0000
0000
,
0010
0000
0000
1000
0000
0000
0100
0000
0002
0000
0000
0000
1003
0000
0000
0000
,
0020
0000
0000
1030
1100
0000
1001
0000
,
0010
0000
0000
0010
0000
0000
1000
0000
0001
0000
1001
0000
0000
0000
0001
0000
,
0101
0000
0000
0001
0000
0000
1000
0000
0010
0000
0000
0000
1001
0000
0000
0000
,
0010
0000
0010
0100
0010
0000
1000
0000
0100
0000
0010
0000
0001
0000
0100
0000
,
0001
0100
2000
3000
0001
0100
2000
3000
,
0001
0010
0100
1000
0002
0000
1003
0000
,
1000
0100
0010
0100
1000
0000
0001
0000
,
1000
0010
0100
0010
1000
0000
0101
0000
,
1000
0010
0002
0003
1000
0010
0002
0003
,
1000
0100
0001
0100
2000
0000
3010
0000
,
0001
0100
0010
1000
0010
0000
1001
0000
,
1000
0010
0100
0100
0100
0000
1001
0000
,
0101
1001
1100
1001
,
0110
1001
0220
0330
,
1100
0101
1100
0011
,
1100
0000
0101
0000
0001
0100
1000
0000
,
0000
0100
0001
1000
0001
0100
0010
0100
,
0001
0010
0100
1000
2002
0000
3003
0000
,
0010
1000
0100
0000
0010
0001
0100
0000
,
0001
0100
0001
0100
0001
0000
1001
0000
,
1010
0000
0000
1000
0010
0000
0000
0010
0100
0000
0000
0100
0001
0000
0000
0001
,
1000
0000
0000
0010
0000
0000
0100
0000
0001
0000
0000
1000
0001
0000
0000
0001
,
0100
0000
0000
0010
0000
0000
0100
0000
0001
0000
0000
0001
1000
0000
0000
1000
,
0010
0000
0000
0100
0000
0000
0001
0000
1000
0000
0001
0000
1000
0000
0000
0000
,
0100
0000
0000
0100
0000
0000
0001
0000
0002
0000
0000
0000
1003
0000
0000
0000
,
0010
0000
0000
0100
0000
0000
0010
0000
1000
0000
1001
0000
0000
0000
0001
0100
,
0001
0000
0000
0100
0000
0000
0010
0000
1000
0010
0000
0000
0010
0100
0000
0000
,
0100
0000
0100
0001
0100
0000
0001
0000
0100
0000
0010
0000
1000
0000
0001
0000
,
0110
0000
1001
0000
;

//---------------dance-double - ----------------
#NOTES:
     dance-double:
     :
     Hard:
     12:
     0.461,0.474,0.257,0.257,0.104:
00000000
00000000
00000000
00000000
,
00000000
00000000
00000000
00000000
,
00000000
00000000
00000000
00000000
,
00000000
00000000
00000000
00000000
,
00000000
00000000
00000000
00000000
,
00000200
00000000
00000300
00000000
00000010
00001000
00000010
00001000
,
00000200
00000000
00000300
00000000
00000001
00000010
00000001
00000010
,
00000001
00000001
00000100
00001000
00001000
00000000
00010000
00000000
,
00100000
00100000
10000000
10000000
01000000
00000000
10010000
00000000
,
02000000
00000000
03000000
00000000
10000000
00010000
01000000
00000000
,
00200000
00000000
00300000
00000000
10000000
00010000
00100000
00000000
,
00010000
00010000
00001000
00001000
00000100
00000000
00000001
00000000
,
00000010
00000010
00001000
00000000
00000100
00000100
00010000
00000000
,
00002000
00100000
00010000
00100000
,
00010000
00000000
00010000
00000000
00013000
00001000
00011000
00000000
,
00000000
00100000
00010000
01000000
00100000
00000000
10000000
00000000
,
01000000
00100000
00010000
00000000
01000000
10000000
00100000
00000000
,
01000000
00001000
00010000
00001000
00010000
00000000
00000100
00000000
,
00010000
00010000
00000010
00000010
00000100
00000000
00001001
00000000
,
00000001
00000001
00000000
00000000
00001000
00001000
00010000
00000000
,
00001000
00001000
00000000
00000000
01000000
01000000
00010000
00000000
,
01000000
00100000
01000000
00000000
00010000
10000000
00010000
00000000
,
01000000
00000000
00010000
01000000
00000000
00010000
01000000
00000000
00010000
00000000
00000000
00000000
00100000
00000000
00000000
00000000
,
00001000
00001000
00010000
00000000
00000100
00000100
00001000
00000000
,
00000001
00000100
00001000
00000100
00000001
00000000
00001000
00000000
,
00000100
00000100
00010000
00000000
00001000
00001000
01000000
00000000
,
00010000
01000000
10000000
01000000
00100000
00010000
00110000
00000000
,
00000000
00001000
00010000
00000100
00010000
00001000
00010000
00000000
,
00001000
00100000
00010000
01000000
01100000
00000000
10010000
00000000
,
10000000
01000000
00100000
00000000
00010000
00001000
00000100
00000000
,
00000010
00000100
00000001
00001000
00000100
00000000
00000110
00000000
,
00000002
00000103
00002000
00003100
,
00000100
00000000
00000000
00000100
00000000
00000000
00010000
00000000
00022000
00000000
00000000
00000000
00033000
00000000
00000000
00000000
,
00100000
00000000
00000000
00100000
00000000
00000000
00010000
00000000
02000000
00000000
00000000
00000000
03100000
00000000
00000000
00000000
,
10000000
00000000
00000000
10000000
00000000
00000000
01000000
00000000
00020000
00000000
00000000
00000000
00130000
00000000
00000000
00000000
,
00001000
00000000
00000000
00001000
00000000
00000000
00001000
00000000
00010000
00000000
00000000
00000000
00001100
00000000
00000000
00000000
,
00000010
00000000
00000000
00000010
00000000
00000000
00000100
00000000
00000001
00000000
00001001
00000000
00000000
00000000
00000010
00000000
,
00001000
00000000
00000000
00000100
00000000
00000000
00010000
00000000
00001000
00000000
00000000
00000000
00110000
00000000
00000000
00000000
,
01000000
00000000
00010000
01000000
00010000
00000000
01000000
00000000
00100000
00000000
10000000
00000000
01000000
00000000
00100000
00000000
,
00010000
02000000
03001000
00020000
,
00030100
00001000
00000010
00001000
00000200
00000000
00000300
00000000
,
00000001
00000100
00000001
00000100
00000020
00000000
00001030
00000000
,
00000100
00001000
00000100
00001000
00000200
00000000
00010300
00000000
,
00001000
00010000
00200000
00000000
00310000
01000000
20000000
00000000
,
30100000
01000000
00100000
01000000
00020000
00000000
00130000
00000000
,
00001000
00010000
00000100
00000000
00002000
00000000
00003010
00000000
,
00000100
00000001
00000010
00000100
00001000
00000000
00001001
00000000
,
00000220
00000330
00002002
00003003
,
00001100
00000110
00000202
00000303
,
00002200
00003300
00022000
00033000
,
00110000
01010000
10010000
01100000
,
00000000
10000000
01000000
00100000
00010000
01000000
00100000
10000000
,
00100000
01000000
00010000
00100000
00002000
00000000
00013000
00000000
,
00001000
00010000
00000100
00000000
00001000
00000010
00000100
00000000
,
00000001
00000010
00000100
00001000
00000010
00000000
00000110
00000000
,
00000001
00000000
00000000
00000001
00000100
00000000
00000000
00000100
00001000
00000000
00000000
00001000
00010000
00000000
00000000
00010000
,
00100000
00000000
00000000
00100000
01000000
00000000
00000000
01000000
10000000
00000000
00000000
00000000
10010000
00000000
00000000
00000000
,
10000000
00000000
00000000
10000000
01000000
00000000
00000000
01000000
00010000
00000000
00000000
00010000
00001000
00000000
00000000
00001000
,
00000100
00000000
00000000
00000100
00000001
00000000
00000000
00000001
00000010
00000000
00000100
00000000
00001010
00000000
00000000
00000000
,
00000010
00000000
00000000
00001000
00000000
00000000
00000100
00000000
00010100
00000000
00000000
00000000
00011000
00000000
00000000
00000000
,
00001000
00000000
00000000
00001000
00100000
00000000
00000000
00100000
00010000
00000000
01000000
00000000
00000000
00000000
00010000
00000000
,
00100000
01000000
10000000
00100000
01000000
00000000
10010000
00000000
,
10000000
00000000
00100000
01000000
00100000
00000000
00010000
00000000
00001000
00000000
00000100
00000000
00000010
00000000
00000001
00000000
,
00001001
00000000
00011000
00000000
;

//---------------dance-double - ----------------
#NOTES:
     dance-double:
     :
     Medium:
     7:
     0.328,0.395,0.240,0.323,0.000: // measure 1
00000000
00000000
00000000
00000000
,  // measure 2
00000000
00000000
00000000
00000000
,  // measure 3
00000000
00000000
00000000
00000000
,  // measure 4
00000000
00000000
00000000
00000000
,  // measure 5
00000000
00000000
00000000
00000000
,  // measure 6
00002000
00000000
00003000
00000000
00010000
00001000
00100000
00000000
,  // measure 7
00020000
00000000
00030000
00000000
01000000
00100000
10000000
00000000
,  // measure 8
01000000
01000000
01000000
00000000
10010000
00000000
00000000
00000000
,  // measure 9
00100000
00100000
00100000
00000000
10010000
00000000
00000000
00000000
,  // measure 10
00200000
00000000
00300000
00000000
00001000
00010000
00001000
00000000
,  // measure 11
00020000
00000000
00030000
00000000
00000100
00001000
00000100
00000000
,  // measure 12
00000010
00000010
00000010
00000000
00001001
00000000
00000000
00000000
,  // measure 13
00000100
00000000
00000010
00001000
,  // measure 14
00000200
00010000
00010000
00010000
,  // measure 15
00010000
00000000
00010300
00000000
00000000
00001000
00001000
00000000
,  // measure 16
00000000
00100000
00010000
01000000
,  // measure 17
10000000
00100000
01000000
00000000
,  // measure 18
10000000
01000000
00010000
00000000
,  // measure 19
00001000
00000100
00000001
00000000
,  // measure 20
00000001
00000001
00000000
00000000
00000200
00000000
00000300
00000000
,  // measure 21
00001000
00001000
00000000
00000000
00020000
00000000
00030000
00000000
,  // measure 22
00000000
01000000
01000000
01000000
,  // measure 23
00200000
00300000
10010000
00000000
,  // measure 24
10000000
01000000
10000000
00000000
00010000
00100000
00010000
00000000
,  // measure 25
00100000
00001000
00100000
00001000
00100000
00000000
00000000
00000000
,  // measure 26
00000100
00001000
00000100
00000000
00001000
00000010
00001000
00000000
,  // measure 27
00000001
00000000
00000010
00000000
00000100
00000100
00000100
00000000
,  // measure 28
00000000
00001010
00001000
00000100
,  // measure 29
00000100
00010000
00001000
00000000
,  // measure 30
00100000
00100000
00001000
00001000
,  // measure 31
00010000
01000000
10010000
00000000
,  // measure 32
20000000
30000000
00010000
00100000
,  // measure 33
00002000
00013000
00002000
00003000
,  // measure 34
00000100
00000010
00000220
00000330
,  // measure 35
00000001
00001000
00002002
00003003
,  // measure 36
00000020
00000030
00001000
00001100
,  // measure 37
00000200
00010300
00002000
00003000
,  // measure 38
00100000
00010000
02000000
03000000
,  // measure 39
20020000
00000000
00000000
30030000
,  // measure 40
00000000
00100000
00000000
00100000
,  // measure 41
00000000
00100000
00200000
00300000
,  // measure 42
01000000
01000000
02000000
03000000
,  // measure 43
00001000
00001000
00002000
00003000
,  // measure 44
00010000
00010000
00010000
00000000
00000100
00000100
00000100
00000000
,  // measure 45
00001000
00000010
00001000
00000010
00001000
00000000
00000001
00000000
,  // measure 46
00000100
00000010
00000100
00000010
00000100
00000000
00001000
00000000
,  // measure 47
00010000
00100000
00010000
00000000
02000000
00000000
03000000
00000000
,  // measure 48
10000000
10010000
00010000
00011000
,  // measure 49
00001000
00001001
00000220
00000330
,  // measure 50
00000001
00001001
00001000
00011000
,  // measure 51
00010000
10010000
01100000
10010000
,  // measure 52
00000000
10000000
01000000
10000000
00100000
00000000
01000000
00000000
,  // measure 53
00000000
00010000
00100000
00010000
01000000
00000000
00100000
00000000
,  // measure 54
00001000
00001000
00010000
00010000
,  // measure 55
00000010
00000100
00001000
00000001
,  // measure 56
00000200
00000300
00000010
00001000
,  // measure 57
00020200
00030300
00022000
00033000
,  // measure 58
00100000
00010000
02020000
03030000
,  // measure 59
00100000
10000000
22000000
33000000
,  // measure 60
10000000
00100000
01000000
01010000
,  // measure 61
00001000
00010000
00002200
00003300
,  // measure 62
00000010
00000010
00000101
00001100
,  // measure 63
00000020
00000000
00000000
00000030
,  // measure 64
00001001
00000000
00011000
00000000
;

//---------------dance-single - ----------------
#NOTES:
     dance-single:
     :
     Medium:
     7:
     0.341,0.395,0.166,0.348,0.000:
0000
0000
0000
0000
,
0000
0000
0000
0000
,
0000
0000
0000
0000
,
0000
0000
0000
0000
,
0000
0000
0000
0000
,
0002
0003
0100
0010
,
2000
3000
0010
0100
,
0001
0001
0001
0001
0001
0000
0100
0000
,
1000
1000
1000
1000
1000
0000
0010
0000
,
2002
3003
0010
0100
,
2002
3003
0100
0010
,
1000
0100
1000
0100
1000
0000
0010
0000
,
0001
0100
0001
0000
1000
0100
1000
0000
,
0020
0000
0000
0000
,
0000
0000
0030
0000
0000
0100
0100
0000
,
0000
0001
0100
1000
,
1000
1000
0000
0000
0001
0000
0100
0000
,
1000
1000
0010
0010
,
0100
0010
0100
0010
0100
0000
0000
0000
,
0001
0001
0000
0000
0220
0000
0330
0000
,
1000
1000
0000
0000
0220
0000
0330
0000
,
0000
0001
0001
0000
1000
0000
0010
0000
,
0200
0300
1001
0000
,
1000
0001
0100
0100
,
0001
0001
0001
0000
0200
0000
0300
0000
,
0001
1000
0100
0100
,
1000
1000
1000
0000
0010
0100
0010
0000
,
0000
1000
0000
0010
0000
0100
0000
0001
,
0000
0100
0010
0100
0010
0000
0000
0000
,
0000
0001
0000
1000
0000
0010
0000
0100
,
0010
1000
0100
0000
,
0002
0003
1000
0010
,
0200
0001
2000
3300
,
0020
1000
0002
0033
,
0200
0010
2000
3300
,
0011
1100
1001
0110
,
1000
0000
0010
0000
1001
0001
0000
0000
,
0100
0010
1000
0100
,
0001
2000
0000
0000
0000
0000
3000
0000
,
0010
0100
0010
0100
,
0001
0100
1000
0000
,
0100
0010
0100
0010
,
1000
0100
0001
0000
,
1000
1000
2000
0000
3001
0001
0002
0000
,
0103
0100
0010
0000
0020
0000
0030
0000
,
0001
0001
2000
0000
3020
0000
0130
0000
,
0001
0001
2000
0000
3001
0000
0000
0000
,
1000
0100
1000
0000
0001
0010
0001
0000
,
0100
0010
0100
0000
1001
0000
0000
0000
,
0001
0100
0001
0000
1000
0100
1000
0000
,
0010
0100
0010
0000
1000
0001
1000
0000
,
0000
1100
0101
1100
,
0000
0001
0100
0001
0100
0000
0000
0000
,
0010
0100
0010
0000
1000
0001
1000
0000
,
0001
0100
0001
0100
0001
0000
1001
0000
,
0020
1030
0002
0103
,
0020
1000
0002
0033
,
0200
1000
0020
0330
,
0002
0010
0200
0303
,
0010
0010
1000
1000
,
0001
0100
2002
3003
,
0220
0330
2002
3003
,
0100
0020
0000
0000
0000
0000
0030
0000
,
0110
0000
1001
0000
;

//---------------dance-single - ----------------
#NOTES:
     dance-single:
     :
     Beginner:
     3:
     0.153,0.184,0.041,0.000,0.000:
0000
0000
0000
0000
,
0000
0000
0000
0000
,
0000
0000
0000
0000
,
0000
0000
0000
0000
,
0000
0000
0000
0000
,
0001
0000
0001
0000
,
1000
0000
1000
0000
,
0100
0100
0100
0000
,
0010
0010
0010
0000
,
1000
0000
1000
0000
,
0001
0000
0001
0000
,
0010
0010
0010
0000
,
0100
0100
0100
0000
,
1001
0000
0000
0000
,
0000
0000
0000
0100
,
0000
0100
0000
0100
,
0000
0100
0000
0100
,
0000
0010
0000
0010
,
0010
0010
0010
0000
,
1000
0000
0000
0000
,
0001
0000
0000
0000
,
0100
0000
0100
0000
,
0100
0100
0100
0000
,
0001
0000
0001
0000
,
1000
0000
1000
0000
,
0010
0000
0010
0000
,
0100
0000
0100
0000
,
0000
0001
0000
0001
,
0000
0001
0001
0000
,
0000
1000
0000
1000
,
0000
1000
1000
0000
,
0010
0000
0001
0000
,
0100
0100
0100
0000
,
0010
0000
1000
0000
,
0100
0100
0100
0000
,
0010
0000
0100
0000
,
0001
0000
1000
0000
,
0010
0010
0010
0000
,
1001
0000
0000
0000
,
0100
0000
0000
0000
,
0100
0000
0000
0000
,
0100
0000
0000
0000
,
0100
0000
0000
0000
,
0001
0000
0001
0000
,
1000
0000
1000
0000
,
0010
0000
0010
0000
,
0100
0100
0100
0000
,
0001
0000
0001
0000
,
1000
1000
1000
0000
,
0100
0000
0100
0000
,
0010
0010
0010
0000
,
0000
1000
0000
0001
,
0000
0100
0100
0000
,
0000
0001
0000
1000
,
0000
0100
0100
0000
,
0001
0000
1000
0000
,
0010
0010
0010
0000
,
1000
0000
0001
0000
,
0010
0010
0010
0000
,
1000
1000
1000
0000
,
0001
0001
0001
0000
,
0100
0000
0010
0000
,
1001
0000
0000
0000
,
0110
0000
1001
0000
;

//---------------dance-single - ----------------
#NOTES:
     dance-single:
     :
     Easy:
     4:
     0.210,0.237,0.157,0.116,0.000:
0000
0000
0000
0000
,
0000
0000
0000
0000
,
0000
0000
0000
0000
,
0000
0000
0000
0000
,
0000
0000
0000
0000
,
0001
0000
0100
0100
,
0100
0000
1000
0000
,
0001
0100
1001
0000
,
1000
0100
1001
0000
,
0010
0000
1000
1000
,
1000
0000
0100
0000
,
0001
0010
1001
0000
,
1000
0000
0001
0000
,
0200
0001
0000
0001
,
0000
0000
0301
0000
0000
0010
0010
0000
,
0000
1000
0001
1000
,
0000
0001
1000
0001
,
0000
1000
0001
1000
,
0010
0000
1001
0000
,
0001
0001
0000
0000
0001
0000
0000
0000
,
1000
1000
0000
0000
1000
0000
0000
0000
,
0000
0001
0010
0100
,
2000
0000
3001
0000
,
0010
1000
0100
0000
,
0010
0001
0100
0000
,
1000
0100
0010
0000
,
0001
0010
0100
0000
,
0000
0001
1000
0001
,
0000
1000
1001
0000
,
0000
1000
0001
1000
,
0000
0001
1001
0000
,
0200
0300
0020
0030
,
1000
0100
0001
0000
,
0001
0100
1000
0000
,
0010
0000
0110
0000
,
0020
0030
0200
0300
,
0001
0010
1000
0000
,
1000
0010
0001
0000
,
0220
0000
0000
0330
,
0000
0000
0000
0000
,
0000
0000
0000
0000
,
0000
0000
0000
0000
,
0000
0000
0000
0000
,
1000
1000
0001
0001
,
0100
0100
0100
0000
,
0001
0001
1000
1000
,
0010
0010
0010
0000
,
1100
0000
0101
0000
,
0011
0000
1010
0000
,
0110
0000
1001
0000
,
0100
0100
0100
0000
,
0000
0001
0100
1000
,
0000
0010
0110
0000
,
0000
1000
0100
0001
,
0000
0100
0110
0000
,
0200
0300
0020
0030
,
1000
0100
0001
0000
,
0001
0100
1000
0000
,
0010
0000
0110
0000
,
0020
0030
0200
0300
,
0001
0010
1000
0000
,
1000
0010
0001
0000
,
0220
0000
0000
0330
,
0010
0000
1001
0000
;

//---------------dance-double - ----------------
#NOTES:
     dance-double:
     :
     Easy:
     5:
     0.215,0.263,0.116,0.199,0.000:
00000000
00000000
00000000
00000000
,
00000000
00000000
00000000
00000000
,
00000000
00000000
00000000
00000000
,
00000000
00000000
00000000
00000000
,
00000000
00000000
00000000
00000000
,
01000000
00000000
00010000
00100000
,
10000000
00000000
10000000
00100000
,
00010000
00000000
10010000
00000000
,
00010000
00000000
00011000
00000000
,
00000100
00000000
00000001
00000010
,
00001000
00000000
00001000
00000010
,
00000001
00000000
00001001
00000000
,
00001000
00000000
00011000
00000000
,
00022000
00000000
00000000
00000000
,
00000000
00000000
00033000
00000000
00000000
00001000
00001000
00000000
,
00000000
00100000
00010000
01000000
,
10000000
00100000
01000000
00000000
,
10000000
00000000
01000000
00000000
,
00010000
00000000
10010000
00000000
,
00001000
00001000
00000000
00000000
00000010
00000000
00000000
00000000
,
00000001
00000001
00000000
00000000
00000100
00000000
00000000
00000000
,
00000000
00010000
00001000
00010000
,
00001000
00001000
00011000
00000000
,
00100000
00010000
01000000
00000000
,
00100000
10000000
01000000
00000000
,
00100000
00010000
00001000
00000000
,
00001000
00000100
00000010
00000000
,
00000000
00000001
00001000
00000100
,
00000000
00001000
00011000
00000000
,
00010000
10000000
01000000
00000000
,
00000000
00010000
00011000
00000000
,
00000200
00000300
00000001
00000100
,
00002000
00003000
00020000
00030000
,
02000000
03000000
00010000
01000000
,
20000000
30000000
00020000
00030000
,
00000020
00000030
00001000
00000100
,
00000001
00000000
00002000
00003000
,
00200000
00300000
00010000
01000000
,
20020000
00000000
00000000
30030000
,
00000000
00000000
00000000
00000000
,
00000000
00000000
00000000
00000000
,
00000000
00000000
00000000
00000000
,
00000000
00000000
00000000
00000000
,
00000001
00000001
00001000
00001000
,
00000100
00000100
00000100
00000000
,
00010000
00010000
01000000
01000000
,
10000000
10000000
10000000
00000000
,
10000000
00000000
01000000
00000000
,
00100000
00000000
00010000
00000000
,
00001000
00000000
00000100
00000000
,
00000010
00000000
00000001
00000000
,
00001000
00010000
00001000
00010000
,
01000000
01000000
01000000
00000000
,
00001000
00010000
00001000
00010000
,
00000010
00000010
00000010
00001001
,
00000200
00000300
00000001
00000100
,
00002000
00003000
00020000
00030000
,
02000000
03000000
00010000
01000000
,
20000000
30000000
00020000
00030000
,
00000020
00000030
00001000
00000100
,
00000001
00000000
00002000
00003000
,
00200000
00300000
00010000
01000000
,
20020000
00000000
00000000
30030000
,
00011000
00000000
00001001
00000000
;
