#TITLE:Merry Christmas I Love You;
#SUBTITLE:Happy New Year All My Heart;
#ARTIST:JJ Groove;
#TITLETRANSLIT:;
#SUBTITLETRANSLIT:;
#ARTISTTRANSLIT:;
#GENRE:;
#CREDIT:;
#MENUCOLOR:;
#METERTYPE:DDR;
#BANNER:Merry Christmas I Love You Happy New Year All My Heart.png;
#BACKGROUND:Merry Christmas I Love You Happy New Year All My Heart-bg.png;
#LYRICSPATH:;
#CDTITLE:;
#MUSIC:Merry Christmas I Love You Happy New Year All My Heart.ogg;
#OFFSET:-0.040;
#SAMPLESTART:20.060;
#SAMPLELENGTH:15.000;
#SELECTABLE:YES;
#LISTSORT:;
#DISPLAYBPM:96.000;
#BPMS:0.000=96.000;
#STOPS:;
#BGCHANGES:;
#ATTACKS:;

//---------------dance-double - ----------------
#NOTES:
     dance-double:
     :
     Hard:
     10:
     0.433,0.462,0.363,0.346,0.056:
00000000
00000000
00000000
00000000
,
00000000
00000000
00000000
00000000
,
00000000
00000000
00000000
00000000
,
00000000
00000000
00000000
00000000
,
20000000
00000000
01000000
31000000
00020000
00000000
00030200
00000000
,
00002300
00000000
00000100
00003100
00000010
00000100
00002000
00000000
,
00003200
00000000
00010300
00010000
00002000
00000000
02003000
00000000
,
03020000
00000000
00000000
00000000
00000000
00000000
10000000
00000000
00000000
10030000
00000000
00000000
00100000
00000000
00000000
01000000
00000000
00100000
01000000
00000000
00000000
10010000
00000000
00000000
,
10000000
10000000
11000000
00000000
00100000
00100000
00101000
00000000
,
00001000
00000000
00000100
00000000
00001100
00000000
00000000
00000001
00000100
00000000
00000100
00000000
00000101
00000000
00000000
00000000
,
00000010
00000000
00000010
00000000
00001010
00000000
00000000
00001000
00000100
00000000
00000100
00000000
00010100
00000000
00010000
00001000
,
00010000
00001000
01001000
01000000
01010000
10010000
10010000
00000000
,
10100000
00100000
01000000
00000000
01001000
00001000
00010000
00000000
,
00001100
00000000
00000001
00000000
00000011
00000000
00000000
00000001
00001000
00000000
00001000
00000000
00001100
00000000
00000000
00000000
,
00000100
00000000
00010000
00000000
00011000
00000000
00000000
00001000
01000000
00000000
00010000
00000000
01000000
00000000
00010000
10000000
,
00010000
10000000
00100000
01000000
00020000
01000000
01030000
00000000
,
10000000
01000000
11000000
00000000
00010000
00001000
00011000
00000000
,
00001000
00000010
00001010
00000000
00000001
00000010
00000110
00000000
,
00000100
00001000
00011000
00000000
00010000
01000000
10010000
00000000
,
10000000
00100000
10010000
00000000
00100000
00001000
00011000
00000000
,
00020000
00000000
00030100
00000100
00002000
00000000
00003001
00000001
,
00002000
00000000
01003000
01000000
20000000
00000000
30010000
00010000
,
02000000
00000000
03001000
00001000
00000200
00000000
00001300
00001000
,
02000000
00000000
03010000
00010000
20000000
00000000
30000000
00000000
,
00010000
10000000
00010000
01000000
00002000
00000000
00023000
00000000
,
00030010
00001000
00000100
00001000
00000020
00000000
00020030
00000000
,
00031000
01000000
00010000
01000000
00002000
00000000
00023000
00000000
,
00030010
00001000
00000100
00001000
00000002
00000000
00002003
00000000
,
00003100
00010000
00001000
00010000
00000200
00000000
00020300
00000000
,
00031000
01000000
00100000
01000000
00002000
00000000
02003000
00000000
,
03010000
01000000
00100000
01000000
00010000
00010000
00010000
01000000
,
00001000
00010000
00000010
00001000
00000002
00000100
00000103
00000000
,
00000101
00000101
00000101
00000000
00001100
00001100
00001100
00000000
,
00000100
00000000
00010000
00000000
00001000
00000000
00000000
00010000
00001000
00000000
00001000
00000000
00011000
00000000
00000000
00000000
,
00100000
00000000
00001000
00000000
00101000
00000000
00000000
00001000
01000000
00000000
01000000
00000000
01010000
00000000
00010000
10000000
,
00010000
10000000
10000000
00010000
10000000
01000000
11000000
00000000
,
10100000
10100000
10100000
00000000
00110000
00110000
00110000
00000000
,
00100000
00000000
00001000
00000000
00010000
00000000
00000000
00001000
00010000
00000000
00001000
00000000
00011000
00000000
00000000
00000000
,
00010000
00000000
00000100
00000000
00001000
00000000
00000000
00000100
00001000
00000000
00000010
00000000
00000001
00000000
00000100
00000010
,
00000100
00000001
00001000
00000100
00020000
00001000
00002000
00033000
,
00100000
00200000
01000000
01300000
10000000
20000000
00010000
30010000
,
01000000
02000000
00010000
03010000
00100000
00010000
00001000
00000000
,
00001000
00002000
00000010
00003010
00000100
00000200
00000001
00000301
,
00000001
00000002
00001000
00001003
00001000
00000100
00010000
00002000
,
00000000
00000000
00003000
00000000
;

//---------------dance-single - ----------------
#NOTES:
     dance-single:
     :
     Hard:
     10:
     0.429,0.462,0.355,0.294,0.056:
0000
0000
0000
0000
,
0000
0000
0000
0000
,
0000
0000
0000
0000
,
0000
0000
0000
0000
,
0020
0000
0000
0000
0100
0000
0130
0000
0002
0000
0000
0000
1000
0003
1000
0000
,
0020
0000
0100
0130
1000
0100
1001
0000
,
0020
0000
0001
0031
2000
0000
0100
3100
,
0020
0000
0000
0000
0000
0000
0000
0000
0000
0000
0000
0000
0100
0000
0000
0000
0000
0000
0100
0000
0000
0030
0000
0000
0000
0000
0000
0000
0000
0000
0001
0000
0000
0000
1000
0000
0001
0000
0000
0000
0000
0000
1001
0000
0000
0000
0000
0000
,
1000
1000
1010
0000
0001
0001
0101
0000
,
0010
0000
0100
0000
0200
0000
0000
0301
0100
0000
1000
0000
1001
0000
0000
0000
,
1000
0000
0010
0000
0100
0000
0000
0001
0100
0000
0010
0000
0100
0000
0001
1000
,
0001
0010
0010
0001
1000
0001
1001
0000
,
1100
0100
0100
0000
0011
0010
0010
0000
,
0001
0000
1000
0000
0200
0000
0000
0301
0100
0000
0001
0000
1001
0000
0000
0000
,
0010
0000
0010
0000
0020
0000
0000
1030
0100
0000
0100
0000
0100
0000
1000
0001
,
1000
0010
0010
0100
1000
0001
2002
3003
,
1000
0001
1000
0000
0010
0010
1010
0000
,
0100
0001
0100
0000
0001
0001
1001
0000
,
0010
0010
0110
0000
1000
0100
0001
0000
,
0100
0100
0110
0000
0001
0100
1000
0000
,
0020
0000
1000
1030
0200
0000
0001
0301
,
2000
0000
0001
3001
0010
0010
1001
0000
,
0200
0000
1000
1300
0020
0000
1000
1030
,
0002
0000
0100
0103
0020
0000
0000
0000
,
1030
0100
0010
0001
2002
0000
3003
0000
,
0001
0100
0010
1000
0001
1000
1001
0000
,
0010
0100
1000
0001
0200
0000
0310
0000
,
1000
0100
0010
0001
0100
0010
0110
0000
,
0001
1000
0010
0100
0002
0000
0013
0010
,
1000
0100
0001
0010
0100
0100
0110
0000
,
0001
0010
0100
1000
0001
0001
0001
1000
,
0100
0010
0001
0100
0010
2000
0002
3003
,
1000
1100
1100
0000
0001
0101
0101
0000
,
0010
0000
0110
0000
0110
0000
0000
0001
1000
0000
1000
0000
1001
0000
0000
0000
,
1000
0000
1010
0000
1010
0000
0000
0001
0010
0000
0010
0000
0011
0000
0001
0100
,
0001
0010
0100
1000
0002
0100
0103
0000
,
1010
1010
1001
0000
0011
0011
1001
0000
,
1100
0000
1100
0000
1001
0000
0000
0010
0100
0000
0100
0000
0110
0000
0000
0000
,
0001
0000
0100
0000
1001
0000
0000
1000
0010
0000
0100
0000
0001
0000
0100
0010
,
0100
0001
0100
0010
2000
0001
0002
3003
,
0100
0200
0001
0301
1000
2000
0010
3010
,
0100
0200
0010
0310
1000
0001
1001
0000
,
0001
0002
0010
0013
1000
2000
0100
3100
,
0010
0020
0100
0130
0001
1000
0001
2000
,
0000
0000
3000
0000
;

//---------------dance-single - ----------------
#NOTES:
     dance-single:
     :
     Medium:
     6:
     0.295,0.269,0.061,0.268,0.000:
0000
0000
0000
0000
,
0000
0000
0000
0000
,
0000
0000
0000
0000
,
0000
0000
0000
0000
,
2000
0000
3020
0032
,
0203
0000
0300
0000
0001
1000
0001
0000
,
0020
0000
0032
0203
,
2300
0000
0000
0000
3000
0001
1000
0001
,
0100
0100
0100
0000
0100
0100
0100
0000
,
0001
0100
1000
0000
0010
0010
0010
0000
,
1000
1000
1000
0000
0001
0001
0001
0000
,
1000
0100
1000
0100
1000
0000
1001
0000
,
0010
0010
0010
0000
0010
0010
0010
0000
,
1000
0010
0001
0000
0100
0100
0100
0000
,
0001
0001
0001
0000
1000
1000
1000
0000
,
0010
0010
0100
0100
0010
0000
1001
0000
,
2000
3100
0002
0103
,
2000
0000
3100
0000
0001
0100
1000
0000
,
0002
0103
2000
3100
,
0002
0000
0103
0000
0010
0100
0010
0000
,
2000
3010
0002
0013
,
2000
0000
3010
0000
0001
0010
1000
0000
,
0002
0013
2000
3010
,
0200
0310
2002
3003
,
1000
0010
1000
0010
1000
0000
0000
0000
,
0001
0010
0001
0010
0001
0000
0000
0000
,
0100
0010
0100
0010
0100
0000
0000
0000
,
0001
0100
1000
0100
0001
0000
0000
0000
,
1000
0100
1000
0100
1000
0000
0000
0000
,
0001
0100
0001
0100
0001
0000
0000
0000
,
1000
0100
1000
0000
0001
0001
0001
0000
,
1000
0010
0001
0000
1001
0000
0110
0000
,
0100
0100
0100
0000
0100
0100
0100
0000
,
0001
0100
1000
0000
0010
0010
0010
0000
,
1000
1000
1000
0000
0001
0001
0001
0000
,
1000
0100
1000
0100
1000
0000
1001
0000
,
0010
0010
0010
0000
0010
0010
0010
0000
,
1000
0010
0001
0000
0100
0100
0100
0000
,
0001
0001
0001
0000
1000
1000
1000
0000
,
0010
0010
0100
0100
0010
0000
1001
0000
,
2000
0000
3002
0203
,
0320
0000
0100
0000
0100
0100
0130
0000
,
0002
0000
2003
3020
,
0230
0000
0000
0000
0310
0100
0010
0200
,
0000
0000
0300
0000
;

//---------------dance-double - ----------------
#NOTES:
     dance-double:
     :
     Medium:
     6:
     0.289,0.269,0.061,0.225,0.000:
00000000
00000000
00000000
00000000
,
00000000
00000000
00000000
00000000
,
00000000
00000000
00000000
00000000
,
00000000
00000000
00000000
00000000
,
20000000
00000000
30100000
00010000
,
00002000
00000000
00003010
00000001
,
00000200
00000000
00000301
00001000
,
00020000
00000000
00031000
00011000
,
00010000
00010000
00010000
00000000
00001000
00001000
00001000
00000000
,
01000000
01000000
01000000
00000000
00010000
01000000
10000000
00000000
,
00100000
00100000
00100000
00000000
01000000
01000000
01000000
00000000
,
10000000
01000000
00100000
00000000
00001000
00000000
00011000
00000000
,
00001000
00001000
00001000
00000000
00010000
00010000
00010000
00000000
,
00000100
00000100
00000100
00000000
00001000
00000100
00000001
00000000
,
00000010
00000010
00000010
00000000
00000100
00000100
00000100
00000000
,
00000001
00000100
00001000
00000000
00010000
00000000
00011000
00000000
,
02000000
13000000
02000000
03010000
,
02000000
00000000
13000000
00000000
10000000
01000000
00010000
00000000
,
00002000
00003100
00000002
00000103
,
00002000
00000000
00003100
00000000
00010000
00001000
00010000
00000000
,
00200000
00310000
00200000
10300000
,
00200000
00000000
00310000
00000000
10000000
00100000
00010000
00000000
,
00002000
00003010
00000002
00000013
,
00002000
00003010
00000200
00000300
,
00000001
00000100
00000001
00000100
00000001
00000000
00000100
00000000
,
00001000
00000100
00001000
00000100
00001000
00000000
00010000
00000000
,
00001000
01000000
00001000
01000000
00001000
00000000
01000000
00000000
,
00010000
10000000
00010000
10000000
00010000
00000000
10010000
00000000
,
10000000
00100000
10000000
00100000
10000000
00000000
00010000
00000000
,
00100000
00001000
00100000
00001000
00100000
00000000
00001000
00000000
,
00010000
00000010
00010000
00000000
00000010
00001000
00000010
00000000
,
00001000
00000001
00001000
00000010
00001000
00000000
00011000
00000000
,
00010000
00010000
00010000
00000000
00001000
00001000
00001000
00000000
,
01000000
01000000
01000000
00000000
00010000
01000000
10000000
00000000
,
00100000
00100000
00100000
00000000
01000000
01000000
01000000
00000000
,
10000000
01000000
00100000
00000000
00001000
00000000
00011000
00000000
,
00001000
00001000
00001000
00000000
00010000
00010000
00010000
00000000
,
00000100
00000100
00000100
00000000
00001000
00000100
00000001
00000000
,
00000010
00000010
00000010
00000000
00000100
00000100
00000100
00000000
,
00000001
00000100
00001000
00000000
00010000
00000000
00011000
00000000
,
00002000
00000000
02003000
03020000
,
20030000
00000000
00000000
00000000
30010000
00100000
00001000
00000000
,
00020000
00000000
00030200
00002300
,
00003002
00000000
00000000
00000003
00000100
00000010
00000100
00000020
,
00000000
00000000
00000030
00000000
;

//---------------dance-single - ----------------
#NOTES:
     dance-single:
     :
     Beginner:
     1:
     0.110,0.114,0.000,0.104,0.000:
0000
0000
0000
0000
,
0000
0000
0000
0000
,
0000
0000
0000
0000
,
0000
0000
0000
0000
,
1000
0000
0001
0000
,
2000
0000
3000
0000
,
0001
0000
1000
0000
,
0002
0000
0003
0000
,
0100
0000
0100
0000
,
0100
0100
0100
0000
,
0010
0000
0010
0000
,
0010
0010
0010
0000
,
0100
0000
0100
0000
,
0100
0100
0100
0000
,
0010
0000
0010
0000
,
0010
0010
0010
0000
,
0000
1000
0000
1000
,
0000
0001
0000
0001
,
0000
1000
0000
1000
,
0000
0001
0000
0001
,
0000
0100
0000
1000
,
0000
0100
0000
0001
,
0000
0100
0000
1000
,
0000
0001
0000
0000
,
2000
0000
3000
0000
,
0002
0000
0003
0000
,
2000
0000
3000
0000
,
0200
0000
0300
0000
,
0002
0000
0003
0000
,
2000
0000
3000
0000
,
0002
0000
0003
0000
,
0200
0000
0300
0000
,
1000
0000
1000
0000
,
0001
0001
0001
0000
,
1000
0000
1000
0000
,
0001
0001
0001
0000
,
0100
0000
0010
0000
,
0100
0100
0100
0000
,
0010
0000
0001
0000
,
0100
0100
0100
0000
,
0010
0000
1000
1000
,
2000
0000
3000
0000
,
0010
0000
0001
0001
,
0002
0000
0000
0003
;

//---------------dance-single - ----------------
#NOTES:
     dance-single:
     :
     Easy:
     3:
     0.130,0.132,0.000,0.052,0.000:
0000
0000
0000
0000
,
0000
0000
0000
0000
,
0000
0000
0000
0000
,
0000
0000
0000
0000
,
0002
0003
1000
0001
,
2000
0000
3000
0000
,
2000
3000
0001
1000
,
0002
0000
0003
0000
,
0100
0000
0100
0000
,
0001
0100
1000
0000
,
0100
0000
0100
0000
,
1000
0100
0001
0000
,
0010
0000
0010
0000
,
0001
0010
1000
0000
,
0010
0000
0010
0000
,
1000
0010
0001
0000
,
0000
1000
0000
0001
,
0000
1000
0001
0001
,
0000
0100
0000
1000
,
0000
0010
0001
0001
,
0100
0010
0000
0010
,
0000
0010
1000
0100
,
0000
0001
0000
0001
,
0000
0001
0000
0000
,
1000
0001
0100
0000
,
1000
0001
1000
0000
,
0001
1000
0100
0000
,
0001
1000
0001
0000
,
1000
0001
0010
0000
,
0001
1000
0001
0000
,
0001
1000
0010
0000
,
0010
1000
0001
0000
,
0100
0000
0100
0000
,
0001
0100
1000
0000
,
0100
0000
0100
0000
,
1000
0100
0001
0000
,
0010
0000
0010
0000
,
0001
0010
1000
0000
,
0010
0000
0010
0000
,
1000
0010
0001
0000
,
1000
0000
0001
1000
,
0002
0000
0003
0000
,
0001
0000
1000
0001
,
2000
0000
0000
3000
;

//---------------dance-double - ----------------
#NOTES:
     dance-double:
     :
     Easy:
     3:
     0.121,0.132,0.000,0.017,0.000:
00000000
00000000
00000000
00000000
,
00000000
00000000
00000000
00000000
,
00000000
00000000
00000000
00000000
,
00000000
00000000
00000000
00000000
,
10000000
00000000
01000000
00000000
,
00010000
00000000
00000000
00000000
,
00001000
00000000
00000100
00000000
,
00000001
00000000
00000000
00000000
,
00000010
00000000
00000010
00000000
,
00000001
00000100
00001000
00000000
,
00100000
00000000
00100000
00000000
,
10000000
01000000
00010000
00000000
,
00000100
00000000
00000100
00000000
,
00000001
00000010
00001000
00000000
,
01000000
00000000
01000000
00000000
,
10000000
00100000
00010000
00000000
,
00000000
10000000
00000000
00010000
,
00000000
10000000
01000000
00010000
,
00000000
00000100
00000000
00000100
,
00000000
00000001
00000100
00001000
,
00000000
00100000
00000000
00100000
,
00000000
10000000
00100000
00010000
,
00000000
00000010
00000000
00000010
,
00000000
00000010
00000000
00000000
,
00001000
00001000
00001000
00000000
,
00010000
00010000
00010000
00000000
,
01000000
10000000
01000000
00000000
,
00010000
01000000
00010000
00000000
,
00001000
00001000
00001000
00000000
,
00010000
00010000
00010000
00000000
,
00000100
00001000
00000100
00000000
,
00000001
00000100
00000001
00000000
,
00000010
00000000
00000010
00000000
,
00000001
00000100
00001000
00000000
,
00100000
00000000
00100000
00000000
,
10000000
01000000
00010000
00000000
,
00000100
00000000
00000100
00000000
,
00000001
00000010
00001000
00000000
,
01000000
00000000
01000000
00000000
,
10000000
00100000
00010000
00000000
,
10000000
00000000
10000000
01000000
,
00020000
00000000
00030000
00000000
,
00001000
00000000
00000001
00000100
,
00002000
00000000
00000000
00003000
;

//---------------dance-single - ----------------
#NOTES:
     dance-single:
     :
     Challenge:
     10:
     0.264,0.327,0.303,0.112,0.000:
0000
0000
0000
0000
,
0000
0000
0000
0000
,
0000
0000
0000
0000
,
0000
0000
0000
0000
,
0020
0030
1000
0100
,
0002
0000
2000
3003
,
0020
0030
0001
0100
,
2000
0000
0002
3003
,
1001
1001
MMMM
0000
1001
1001
MMMM
0000
,
0010
0100
1001
0000
1001
1001
MMMM
0000
,
0010
0010
0010
MMMM
0100
0100
0100
0000
,
1000
0100
0001
0100
1000
0000
MMMM
0000
,
1001
1001
MMMM
0000
1001
1001
MMMM
0000
,
0010
0100
1001
0000
1001
1001
MMMM
0000
,
0100
0100
0100
MMMM
0010
0010
0010
0000
,
0001
0010
1000
0010
0001
0000
0000
0000
,
MMMM
1001
MMMM
1001
,
MMMM
0000
0010
0000
1000
0001
1001
0000
,
0000
1001
MMMM
1001
,
MMMM
0000
1001
0000
0010
0010
0010
0000
,
MMMM
0000
0001
0001
MMMM
0000
1000
1000
,
MMMM
0000
0001
0000
1000
0001
1001
0000
,
MMMM
0000
0001
0001
MMMM
0000
1000
1000
,
MMMM
0000
0010
0010
MMMM
0000
0000
0000
,
1000
0001
0100
0001
1000
0000
MMMM
0000
,
0001
1000
0100
1000
0001
0000
MMMM
0000
,
0010
1000
0100
1000
0001
0000
MMMM
0000
,
0010
0001
0100
0001
1000
0000
MMMM
0000
,
0010
0001
0100
0100
0100
0000
MMMM
0000
,
0010
1000
0100
0100
0100
0000
MMMM
0000
,
1000
0001
0100
0000
0001
1000
0100
0000
,
0002
2003
3100
MMMM
,
1001
1001
MMMM
0000
1001
1001
MMMM
0000
,
0010
0100
1001
0000
1001
1001
MMMM
0000
,
0010
0010
0010
MMMM
0100
0100
0100
0000
,
0001
0100
1000
0100
0001
0000
MMMM
0000
,
1001
1001
MMMM
0000
1001
1001
MMMM
0000
,
0010
0100
1001
0000
1001
1001
MMMM
0000
,
0100
0100
0100
MMMM
0010
0010
0010
0000
,
1000
0010
0001
0010
1000
0000
0000
0000
,
0100
MMMM
0020
2030
,
3001
0000
MMMM
MMMM
0000
0000
MMMM
MMMM
,
1000
MMMM
0002
0203
,
0310
0000
MMMM
MMMM
0000
0010
0100
0020
,
0000
0000
0030
0000
;

//---------------dance-double - ----------------
#NOTES:
     dance-double:
     :
     Challenge:
     10:
     0.313,0.308,0.415,0.104,0.000: // measure 1
00000000
00000000
00000000
00000000
,  // measure 2
00000000
00000000
00000000
00000000
,  // measure 3
00000000
00000000
00000000
00000000
,  // measure 4
00000000
00000000
00000000
00000000
,  // measure 5
MMMM1000
MMMMMMMM
0001MMMM
0001MMMM
,  // measure 6
MMMM2000
00000000
MMMM3000
00000000
00010000
00001000
00010000
00000000
,  // measure 7
02000000
13000000
02000000
03010000
,  // measure 8
20000000
30010000
MMMMMMMM
MMMMMMMM
,  // measure 9
1001MMMM
10010000
MMMM0000
00000000
1001MMMM
10010000
MMMM0000
00000000
,  // measure 10
10000000
01000000
00010000
00000000
MMMM1000
00000100
MMMM0001
00000000
,  // measure 11
MMMM1001
00001001
0000MMMM
00000000
MMMM1001
00001001
0000MMMM
00000000
,  // measure 12
00000001
00000100
00001000
00000000
0001MMMM
01000000
1000MMMM
00000000
,  // measure 13
1001MMMM
10010000
MMMM0000
00000000
1001MMMM
10010000
MMMM0000
00000000
,  // measure 14
10000000
00100000
00010000
00000000
MMMM1000
00000010
MMMM0001
00000000
,  // measure 15
MMMM1001
00001001
0000MMMM
00000000
MMMM1001
00001001
0000MMMM
00000000
,  // measure 16
00000001
00000010
00001000
00000000
0001MMMM
00100000
1000MMMM
00000000
,  // measure 17
20000000
00000000
30010000
00000000
01000000
01000000
01000000
00000000
,  // measure 18
00001000
00001000
00001000
00000000
00010000
00010000
00010000
00000000
,  // measure 19
00000200
00000000
00001300
00000000
00000001
00000001
00000001
00000000
,  // measure 20
00001000
00001000
00001000
00000000
00000010
00000000
00001001
00000000
,  // measure 21
00000002
00000000
00001003
00000000
00000100
00000100
00000100
00000000
,  // measure 22
00010000
00010000
00010000
00000000
00001000
00001000
00001000
00000000
,  // measure 23
02000000
00000000
03010000
00000000
10000000
10000000
10000000
00000000
,  // measure 24
00010000
00010000
00010000
00000000
00100000
00000000
10010000
00000000
,  // measure 25
10000000
01000000
00010000
00000000
MMMM1100
00000000
00001001
00000000
,  // measure 26
00000001
00000100
00001000
00000000
0101MMMM
00000000
10010000
00000000
,  // measure 27
10000000
00100000
00010000
00000000
MMMM1010
00000000
00001001
00000000
,  // measure 28
00000001
00000010
00001000
00000000
0011MMMM
00000000
10010000
00000000
,  // measure 29
10000000
00100000
01000000
00000000
01001000
00000000
00011000
00000000
,  // measure 30
00010000
00000100
00001000
00000000
00001100
00000000
00001001
00000000
,  // measure 31
00000001
00000001
00000001
MMMMMMMM
00001000
00001000
00001000
0001MMMM
,  // measure 32
00001000
00010000
00001000
01000000
0001MMMM
00000000
10010000
00000000
,  // measure 33
1001MMMM
10010000
MMMM0000
00000000
1001MMMM
10010000
MMMM0000
00000000
,  // measure 34
10000000
01000000
00010000
00000000
MMMM1000
00000100
MMMM0001
00000000
,  // measure 35
MMMM1001
00001001
0000MMMM
00000000
MMMM1001
00001001
0000MMMM
00000000
,  // measure 36
00000001
00000100
00001000
00000000
0001MMMM
01000000
1000MMMM
00000000
,  // measure 37
1001MMMM
10010000
MMMM0000
00000000
1001MMMM
10010000
MMMM0000
00000000
,  // measure 38
10000000
00100000
00010000
00000000
MMMM1000
00000010
MMMM0001
00000000
,  // measure 39
MMMM1001
00001001
0000MMMM
00000000
MMMM1001
00001001
0000MMMM
00000000
,  // measure 40
00000001
00000010
00001000
00000000
0001MMMM
00100000
1000MMMM
00000000
,  // measure 41
02000000
00000000
0301MMMM
MMMM1000
,  // measure 42
00000100
00000000
MMMMMMMM
00000000
00000010
00001000
00001001
00000000
,  // measure 43
00000200
00000000
MMMM1300
0001MMMM
,  // measure 44
01000000
00000000
MMMMMMMM
00000000
10000000
00010000
20000000
00020000
,  // measure 45
00000000
00000000
30030000
00000000
;
