#TITLE:Marionette;
#SUBTITLE:;
#ARTIST:Daisuke Ishiwatari;
#TITLETRANSLIT:;
#SUBTITLETRANSLIT:;
#ARTISTTRANSLIT:;
#GENRE:;
#CREDIT:;
#MENUCOLOR:;
#METERTYPE:DDR;
#BANNER:Marionette.png;
#BACKGROUND:Marionette-bg.png;
#LYRICSPATH:;
#CDTITLE:;
#MUSIC:Marionette.ogg;
#OFFSET:-0.016;
#SAMPLESTART:69.648;
#SAMPLELENGTH:20.000;
#SELECTABLE:YES;
#LISTSORT:;
#BPMS:0.000=136.000,68.000=272.000,132.000=136.000,192.000=272.000,424.000=136.000;
#STOPS:;
#BGCHANGES:0.000=Marionette.avi=1.000=1=1=0,
404.000=Marionette.avi=0.000=0=0=0,
99999=-nosongbg-=1.000=0=0=0 // don't automatically add -songbackground-
;
#ATTACKS:;

//---------------dance-single - ----------------
#NOTES:
     dance-single:
     :
     Hard:
     14:
     0.742,1.000,0.205,0.246,0.189:
0000
0000
0000
0000
,
0000
0000
0000
0000
,
0000
0000
0000
0000
,
0000
0000
0000
0000
,
0000
0000
0000
0000
,
1000
0001
0100
0001
,
1000
0100
0010
0001
,
1000
0001
1000
0100
,
0010
0000
0000
0000
0001
0000
0000
0000
0100
0000
0000
0000
1000
0010
1000
0010
,
2000
0001
0001
3010
,
0002
0000
0000
0000
0100
0000
0000
0000
0100
0000
0000
0100
0003
0000
0010
0000
,
2000
0001
0001
3100
,
0002
0010
0100
0013
,
1200
1000
0001
0301
,
0021
0001
1000
1030
,
0010
0100
0010
0100
0001
1000
0001
1000
,
0010
0100
0001
1000
0020
0000
0030
0000
,
1000
0001
1000
0001
1000
0000
0000
0000
,
0000
0000
0001
1000
0001
1000
0001
0000
,
1000
0001
1000
0000
0001
0100
0000
0001
,
0100
0000
0001
0010
0000
0001
0010
0000
,
0001
0100
0001
0000
0100
0010
0000
1000
,
0010
0000
1000
0001
0000
1000
0100
0000
,
1000
0010
0000
1000
0001
0000
0100
0000
,
0001
1000
0001
0100
0002
0000
1003
0000
,
0100
0010
0100
0001
0100
0010
0000
1000
,
0010
0000
0100
0010
0000
0100
0001
0000
,
1000
0010
1000
0010
0100
0010
0000
1000
,
0001
0000
1000
0100
0000
1000
0010
0000
,
0100
0001
0100
0010
0100
0001
0000
1000
,
0010
0000
1000
0001
0000
0100
0010
0000
,
1000
0010
0100
0001
1000
0010
0100
0000
,
0101
0000
0000
0101
0000
0000
0101
0000
,
1000
0000
0000
1000
0000
0000
1000
0000
0002
0000
0000
0000
0203
0000
0000
0000
,
0310
0000
0000
0010
0000
0000
0010
0000
2000
0000
0000
0000
3002
0000
0000
0000
,
0103
0000
0000
0100
0000
0000
0100
0000
0020
0000
0000
0000
2030
0000
0000
0000
,
3001
0000
0000
0001
0000
0000
0001
0000
0200
0000
0000
0000
0320
0000
0000
0000
,
1030
0000
0000
0100
0000
0000
1000
0000
0002
0000
0000
0000
0203
0000
0000
0000
,
0310
0000
0000
0010
0000
0000
0010
0000
2000
0000
0000
0000
3001
0100
0001
0100
,
0001
0000
1000
0010
1000
0100
1000
0000
0001
0100
0001
0010
0001
0000
1000
0000
,
0010
0000
0100
0001
0100
0010
0100
0000
0010
1000
0010
0100
0010
0000
1000
0000
,
0001
0000
0100
0001
0100
0010
0100
0000
0001
1000
0001
0100
0001
0000
0010
0000
,
1000
0000
0001
1000
0001
0100
0001
0000
1000
0000
0001
1000
0001
1000
0010
0000
,
1000
0000
0100
1000
0100
1000
0010
0000
0100
0001
0100
0001
0010
0000
0001
0100
,
0010
0000
0010
1000
0010
1000
0010
0000
0100
0001
0100
0001
0100
0000
0010
1000
,
0100
0000
0010
0001
0100
0001
0010
0000
1000
0010
0100
0010
1000
0000
0001
0100
,
0010
0000
0000
1001
0000
0000
1001
0000
0001
0100
0001
0100
0010
0000
1000
0100
,
0010
0000
0002
2003
,
3010
1000
0001
0000
0100
0001
1000
0000
,
0020
0130
0002
1003
,
0010
0100
0001
0000
0010
0100
0001
0000
,
1000
0010
0100
0001
,
1000
0010
0100
0000
0001
0000
1001
0000
,
0010
0100
0001
0000
1100
0000
0101
0000
,
1100
0000
0010
0100
0001
0000
1000
0000
,
0001
0100
0010
0000
1000
0010
0100
0000
,
0001
0000
0100
0010
1000
0000
0010
0000
,
0100
0001
0100
0010
0100
0000
0001
0000
,
1000
0000
0010
0100
0001
0000
0100
0000
,
0001
0100
1000
0100
0001
0000
1000
0000
,
0010
0100
0010
1000
0010
0000
0100
0000
,
0001
0100
0010
0100
0001
0000
1000
0000
,
0010
0000
0100
0010
0000
1000
0001
0000
,
2002
3003
2200
3300
,
0001
0000
0100
0010
0100
0000
0001
0000
,
1000
0100
1000
0100
1000
0000
0001
0010
,
0001
0000
0100
0010
0100
0000
0001
0000
,
1000
0010
0100
0010
1000
0000
0001
0100
,
0010
0000
0010
0001
1000
0000
0110
0000
,
1000
0001
0100
0010
1000
0000
0101
0000
,
1100
0000
0001
0010
0100
0000
1000
0001
,
1000
0010
0101
1000
,
0001
0100
0001
0000
1000
0001
1000
0000
,
0010
0100
0001
0100
0010
1000
0010
0100
,
0001
1000
0001
0000
1000
0100
1000
0000
,
0001
0100
0010
1000
0001
0100
0010
0000
,
1000
0100
1000
0001
1000
0100
1000
0000
,
0001
1000
0001
0100
0001
1000
0001
0000
,
1001
0000
1000
0100
0000
0010
0001
0000
,
1001
0000
0001
0010
0000
0100
1000
0000
,
1001
0000
0100
0010
0100
0010
0100
0000
,
1000
0100
1000
0100
1000
0000
0001
0010
,
0100
0000
0001
0010
0001
0010
0001
0000
,
1000
0100
0010
0100
1000
0000
1001
0000
,
0100
0010
1000
0010
0100
0001
0000
1000
,
0010
0000
0100
0001
0000
1000
0010
0000
,
1000
0100
1000
0010
1000
0001
0000
0100
,
0010
0000
0100
0001
0000
0100
0010
0000
,
0001
0010
0100
0010
0001
1000
0000
0001
,
0100
0000
0001
0010
0000
0001
0100
0000
,
0001
1000
0010
0100
0000
0010
1000
0000
,
0001
0010
0100
1000
0002
0000
0103
0000
,
1000
0010
0100
0001
0100
0001
0000
1000
,
0010
0000
1000
0100
0000
0010
0001
0000
,
0100
0010
0100
0001
0100
0010
0000
0001
,
0100
0000
1000
0100
0000
0010
0001
0000
,
0010
0001
0100
0001
0010
0001
0000
1000
,
0100
0000
1000
0010
0000
0100
0001
0000
,
0100
0010
1000
0001
0100
0010
1000
0001
,
1001
0000
0000
1001
0000
0000
0110
0000
,
2002
0000
0000
0000
,
3003
0000
0000
0000
;

//---------------dance-single - ----------------
#NOTES:
     dance-single:
     :
     Medium:
     9:
     0.407,0.497,0.123,0.509,0.000:
0000
0000
0000
0000
,
0000
0000
0000
0000
,
0000
0000
0000
0000
,
0000
0000
0000
0000
,
0000
0000
0000
0000
,
1000
0001
0010
0100
,
1000
0010
0100
0001
,
0001
1000
0100
0010
,
0001
0100
0010
2000
,
3002
0000
0100
0000
,
2003
0000
0100
0000
,
3020
0000
0100
0000
,
2030
0000
0100
0000
,
3002
0000
0010
0100
,
0023
0000
0001
0001
,
0130
0100
0001
0001
,
1000
0010
0100
0000
,
1000
0000
0001
1000
0001
0000
0000
0000
,
0000
1001
0000
0000
,
1001
0000
0000
0000
,
0220
0000
0330
0000
,
1001
0000
0001
1000
0001
0000
0000
0000
,
0000
1001
0000
0000
,
0220
0000
0330
0000
,
1100
0000
0011
0000
,
1000
0000
0001
0000
0000
0001
0000
0000
,
0100
0000
0000
0100
0000
0000
1000
0000
,
0000
0000
1000
0000
0000
1000
0000
0000
,
0100
0000
0000
0100
0000
0000
0001
0000
,
0000
0000
0010
0000
0000
0010
0000
0000
,
1000
0000
0000
1000
0000
0000
0100
0000
,
0000
0001
0100
1000
,
0020
0000
0230
0000
,
0301
0010
0100
0010
,
0001
1000
0100
0010
,
1000
0001
0100
0001
,
1000
0010
0100
0001
,
0010
0100
0001
0100
,
0010
1000
0100
0010
,
0002
0000
0000
0203
0000
0000
2300
0000
,
3010
0000
0100
0000
1000
0001
1000
0000
,
0020
0000
0000
0230
0000
0000
0302
0000
,
0013
0000
1000
0000
0001
0100
0001
0000
,
0020
0000
0000
2030
0000
0000
3100
0000
,
0001
0000
0100
0000
1000
0001
1000
0000
,
0020
0000
0000
2030
0000
0000
3100
0000
,
0001
0000
0010
0000
1000
0100
0001
0100
,
0000
0000
0002
2003
,
3020
0100
0000
0130
,
0002
0103
2000
3100
,
0020
0100
0000
0100
,
0000
0130
0001
0000
,
2000
0000
3100
0002
,
0000
0103
1000
0010
,
0200
0001
0000
0301
,
0020
0000
0031
0100
,
0020
0000
0000
0000
,
2030
0001
0000
0001
,
3200
0000
0302
0000
,
0023
0000
2030
0000
,
3002
0100
0000
0103
,
2000
0100
0000
3100
,
0010
0000
0000
0100
0000
0000
0001
0000
,
1001
0000
0110
0000
,
0002
0100
0000
0103
,
0020
0000
2030
0000
,
3200
0001
0000
0301
,
0020
0000
2030
0000
,
3002
0000
0103
0020
,
0030
1000
0100
0010
,
0002
0100
0000
0103
,
2000
0000
3100
0000
,
0020
0100
0000
0130
,
0002
0000
2003
0000
,
3020
0100
0000
0130
,
0000
0001
1000
0100
,
0020
0000
0030
2000
,
0000
3000
0001
0000
,
0100
0000
0010
0100
0000
0010
0100
0000
,
0001
0000
0000
1000
0000
0000
0001
0000
,
0200
0010
0000
0010
,
0000
0310
0000
0001
,
0002
1000
0000
1000
,
1003
0000
0110
0000
,
0001
0000
1000
0000
0000
1000
0000
0000
,
0100
0000
0000
0100
0000
0000
0001
0000
,
0000
0000
1000
0000
0000
1000
0000
0000
,
0100
0000
0000
0100
0000
0000
0001
0000
,
0000
0000
0010
0000
0000
0010
0000
0000
,
1000
0000
0000
1000
0000
0000
0001
0000
,
0000
0100
0010
0100
,
0002
0000
0000
0003
2000
0000
0000
3000
,
0000
0000
0010
0000
0000
0010
0000
0000
,
0100
0000
0000
0100
0000
0000
1001
0000
,
0000
0000
0100
0000
0000
0100
0000
0000
,
0010
0000
0000
0010
0000
0000
1001
0000
,
0000
0000
0001
0000
0000
0010
0000
0000
,
1000
0000
0000
0100
0000
0000
0010
0000
,
0001
0100
1000
0000
,
0110
0000
1001
0000
,
0200
0000
0000
0000
,
0300
0000
0000
0000
;

//---------------dance-single - Copied from----------------
#NOTES:
     dance-single:
     Copied from:
     Easy:
     7:
     0.308,0.373,0.098,0.632,0.000:
0000
0000
0000
0000
,
0000
0000
0000
0000
,
0000
0000
0000
0000
,
0000
0000
0000
0000
,
0000
0000
0000
0000
,
2000
0000
3000
0000
,
0002
0000
0003
0000
,
2000
0000
3000
0000
,
0002
0000
0003
0020
,
0032
0000
0100
0000
,
2003
0000
0100
0000
,
3020
0000
0100
0000
,
2030
0000
0100
0000
,
3002
0000
0010
0000
,
0203
0000
0001
0000
,
0302
0000
1000
0000
,
1003
0010
0100
0000
,
2002
0000
3003
0000
,
0000
1001
0000
0000
,
2002
0000
3003
0000
,
0220
0000
0330
0000
,
2002
0000
3003
0000
,
0000
1001
0000
0000
,
0220
0000
0330
0000
,
1100
0000
0011
0000
,
1000
0001
0000
0001
,
0000
0100
0000
0100
,
0000
1000
0000
1000
,
0000
0100
0000
0100
,
0000
0001
0000
0001
,
0000
0100
0000
0100
,
0100
0000
0010
0000
,
0002
0000
2003
0000
,
3001
0010
0001
0010
,
1000
0010
1000
0010
,
1000
0100
1000
0100
,
0001
0100
0001
0100
,
1000
0100
0001
0100
,
1000
0010
0001
0010
,
2000
0000
3001
0000
,
0002
0000
1003
0000
,
0200
0000
0310
0000
,
0020
0000
0130
0000
,
0002
0000
0013
0000
,
0200
0000
1300
0000
,
2000
0000
3010
0000
,
0200
0000
0001
0000
,
0310
0000
0002
2003
,
3020
0000
0000
0030
,
0002
0003
2000
3000
,
0020
0000
0000
0000
,
0000
0030
0002
0000
,
2003
0000
3000
0002
,
0000
0003
1000
0000
,
0200
0000
0000
0000
,
0320
0000
0030
0000
,
0002
0000
0000
0000
,
2003
0000
0000
0000
,
3200
0000
0302
0000
,
0023
0000
2030
0000
,
3002
0000
0000
0003
,
2000
0000
0000
3000
,
0010
0000
0000
0100
0000
0000
0001
0000
,
1000
0000
0100
0000
,
0002
0000
0000
0003
,
0020
0000
2030
0000
,
3200
0000
0000
0300
,
0020
0000
2030
0000
,
3002
0000
0003
0020
,
0030
0000
0100
0000
,
0002
0000
0000
0003
,
2000
0000
3000
0000
,
0020
0000
0000
0030
,
0002
0000
2003
0000
,
3020
0000
0000
0130
,
0000
0000
0001
0000
,
0020
0000
0030
2000
,
0000
3000
0001
0000
,
0220
0000
0330
0000
,
2002
0000
3003
0000
,
0200
0000
0000
0000
,
0000
0300
0000
0001
,
0002
0000
0000
0000
,
0000
0000
0003
0000
,
1000
1000
0000
1000
,
0000
0010
0000
0010
,
0000
0001
0000
0001
,
0000
0010
0000
0010
,
0000
1000
0000
1000
,
0000
0010
0000
0010
,
0010
0000
0100
0000
,
2000
0000
3002
0003
,
0001
0001
0000
0001
,
0000
0100
0000
0100
,
0000
1000
0000
1000
,
0000
0100
0000
0100
,
0000
0001
0000
0001
,
0000
0100
0000
0100
,
0100
0000
0010
0000
,
0001
0000
1000
0000
,
2002
0000
0000
0000
,
3003
0000
0000
0000
;

//---------------dance-single - C----------------
#NOTES:
     dance-single:
     C:
     Beginner:
     5:
     0.203,0.373,0.066,0.337,0.000:
0000
0000
0000
0000
,
0000
0000
0000
0000
,
0000
0000
0000
0000
,
0000
0000
0000
0000
,
0000
0000
0000
0000
,
2000
0000
3000
0000
,
0002
0000
0003
0000
,
2000
0000
3000
0000
,
0002
0000
0003
0000
,
0200
0000
0300
0000
,
0200
0000
0300
0000
,
0020
0000
0030
0000
,
0020
0000
0030
0000
,
2000
0000
3000
0000
,
0002
0000
0003
0000
,
0200
0000
0300
0000
,
0020
0000
0030
0000
,
1001
0000
0000
0000
,
0000
0000
0000
0000
,
1001
0000
0000
0000
,
0020
0000
0030
0000
,
1001
0000
0000
0000
,
0000
0000
0000
0000
,
0020
0000
0030
0000
,
0100
0000
0100
0000
,
0000
0001
0000
0001
,
0000
0001
0000
0001
,
0000
1000
0000
1000
,
0000
1000
0000
1000
,
0000
0001
0000
0001
,
0000
0001
0000
0000
,
0110
0000
0000
0000
,
1001
0000
0000
0000
,
0000
0010
0000
0010
,
0000
0010
0000
0010
,
0000
0100
0000
0100
,
0000
0100
0000
0100
,
0000
0001
0000
0001
,
0000
1000
0000
1000
,
2000
0000
3000
0000
,
0002
0000
0003
0000
,
0200
0000
0300
0000
,
0020
0000
0030
0000
,
0002
0000
0003
0000
,
0200
0000
0300
0000
,
2000
0000
3000
0000
,
0020
0000
0030
0000
,
0000
0000
0010
0010
,
0010
0000
0000
0000
,
0001
0000
0001
0000
,
0002
0000
0000
0000
,
0003
0000
1000
0000
,
1000
0000
0000
1000
,
0000
0000
1000
0000
,
0200
0000
0000
0000
,
0300
0000
0000
0000
,
0002
0000
0003
0000
,
0100
0000
0100
0000
,
0200
0000
0300
0000
,
0020
0000
0030
0000
,
2000
0000
0000
0000
,
3000
0000
0000
0000
,
0010
0000
0000
0000
,
1000
0000
1000
0000
,
2000
0000
3000
0000
,
0010
0000
0010
0000
,
0020
0000
0000
0000
,
0030
0000
0100
0000
,
0100
0000
0000
0010
,
0000
0000
0100
0000
,
0002
0000
0003
0000
,
2000
0000
3000
0000
,
0010
0000
0000
0000
,
0010
0000
0100
0000
,
0010
0000
0000
0100
,
0000
0000
0010
0000
,
0100
0000
0000
0200
,
0000
0000
0300
0000
,
0220
0000
0330
0000
,
2002
0000
3003
0000
,
0200
0000
0000
0000
,
0000
0300
0000
0000
,
0002
0000
0000
0000
,
0000
0000
0003
0000
,
0000
1000
0000
1000
,
0000
1000
0000
1000
,
0000
0001
0000
0001
,
0000
0001
0000
0001
,
0000
1000
0000
1000
,
0000
0001
0000
0001
,
0000
1000
0000
0000
,
0010
0000
0010
0000
,
0000
0100
0000
0100
,
0000
0010
0000
0010
,
0000
0100
0000
0100
,
0000
0010
0000
0010
,
0000
0100
0000
0100
,
0000
0010
0000
0000
,
1000
0000
0000
0000
,
0001
0000
1000
0000
,
2002
0000
0000
0000
,
3003
0000
0000
0000
;

//---------------dance-double - ----------------
#NOTES:
     dance-double:
     :
     Hard:
     14:
     0.645,1.000,0.066,0.320,0.103:
00000000
00000000
00000000
00000000
,
00000000
00000000
00000000
00000000
,
00000000
00000000
00000000
00000000
,
00000000
00000000
00000000
00000000
,
00000000
00000000
00000000
00000000
,
02000000
03020000
00230000
20300000
,
32000000
03020000
00032000
00003020
,
00000032
00000203
00002300
00023000
,
02030000
00000000
23000000
00000000
30100000
00000000
01000000
01000000
,
00020000
00000000
00000000
00230000
,
20300000
00000000
32000000
03020000
,
00032000
00000000
00003020
00000032
,
00000203
00000000
00002300
00023000
,
01030000
00100000
01000000
00100000
10000000
00010000
10000000
00010000
,
10000000
01000000
10000000
01000000
00100000
00010000
00100000
00010000
,
00001000
00010000
00000100
00001000
,
00000010
00000001
00000100
00000000
00002020
00000000
00003030
00000000
,
00001000
00000001
00001000
00000001
00001000
00000000
00000000
00000000
,
00000000
00000000
00000010
00001000
00000010
00001000
00000010
00000000
,
00001000
00000100
00010000
00001000
,
01000000
00010000
01000000
00100000
,
01000000
00100000
01000000
00100000
01000000
00000000
00000000
00000000
,
00000000
00100000
10000000
01000000
,
00100000
00010000
00001000
00000000
,
00000010
00000100
00000010
00000100
00000010
00000000
00000000
00000000
,
00000001
00000000
00000100
00000000
00000010
00001000
00000000
00000010
,
00001000
00000000
00000100
00001000
00000000
00000100
00001000
00000000
,
00000100
00000000
00010000
00000000
00001000
00010000
00000000
00001000
,
00010000
00000000
00001000
01000000
00000000
00001000
01000000
00000000
,
00010000
00000000
00100000
00000000
01000000
00100000
00000000
01000000
,
00100000
00000000
10000000
00100000
00000000
10000000
00100000
00000000
,
10000000
01000000
00100000
00010000
,
00002000
00000000
00023000
00000000
,
00030200
00000000
00002300
00000000
,
00003010
00000001
00000100
00001000
,
00010000
00100000
10000000
01000000
,
00010000
00000000
00000100
00000000
00001000
00000000
00000010
00000001
,
00000200
00000010
00000310
00001000
,
00000100
00001000
00010000
00000000
00100000
01000000
10000000
00100000
,
01000000
00100000
01000000
00100000
01000000
00000000
00100000
00000000
00000000
00000000
01000000
00000000
00010000
00000000
10000000
00000000
,
00100000
00001000
00100000
00001000
00100000
00000000
00001000
00000000
00000000
00000000
00010000
00000000
00000100
00000000
00001000
00000000
,
00000010
00001000
00000010
00001000
00000010
00000000
00000100
00000000
00000000
00000000
00000100
00000000
00000010
00000000
00001000
00000000
,
00000100
00001000
00000100
00001000
00000100
00000000
00010000
00000000
00000000
00000000
00001000
00000000
01000000
00000000
00010000
00000000
,
10000000
00100000
10000000
00100000
10000000
00000000
00010000
01000000
00010000
01000000
00010000
00000000
00100000
00000000
00000000
00000000
,
00001000
00010000
00001000
00010000
00001000
00000000
00010000
00000100
00010000
00000100
00010000
00000000
00001000
00000000
00010000
00000000
,
00000010
00001000
00000010
00001000
00000010
00000000
00000100
00000001
00000100
00000001
00000100
00000000
00000010
00000000
00001000
00000000
,
00000100
00010000
00000100
00010000
00000100
00000000
00010000
00000000
00001000
00010000
00001000
00010000
00001000
00010000
00001000
00000000
,
00011000
00000000
00200000
00320000
,
01030000
00000000
00100000
00000000
10000000
01000000
10000000
00000000
,
00100000
00000000
00010000
00000000
00100000
00010000
00100000
00000000
,
00001000
00000000
00010000
00000000
00000100
00010000
00000100
00000000
,
00001000
00000000
00000010
00000000
00000100
00000001
00000100
00000000
,
00000001
00001000
00000001
00000000
00001000
00000000
00000100
00001000
,
00000100
00010000
00001000
01000000
,
00010000
01000000
00010000
00000000
01000000
00000000
00100000
00000000
,
10000000
00100000
10000000
00000000
01000000
00100000
01000000
00000000
,
00010000
01000000
00100000
10000000
,
01000000
00010000
01000000
00000000
00001000
01000000
00001000
00000000
,
00010000
00000100
00001000
00000010
,
00000100
00000001
00000100
00000000
00000010
00001000
00000010
00000000
,
00000100
00010000
00001000
01000000
,
00010000
01000000
00010000
00000000
10000000
00100000
10000000
00000000
,
00100000
01000000
00100000
01000000
00100000
00000000
10000000
00000000
,
01010000
00000000
00011000
00000000
,
00001000
00000010
00001000
00000100
00001000
00000010
00001000
00000000
,
00000001
00000100
00000010
00001000
,
00010000
00000100
00010000
00000100
00010000
00001000
00010000
00000000
,
00001000
01000000
00010000
01000000
,
00100000
01000000
00100000
00000000
10000000
01000000
10000000
00000000
,
00100000
00010000
00001000
00000100
,
00001000
00000010
00001000
00000010
00001000
00000000
00000001
00000000
,
00000100
00000010
00000100
00000010
00000100
00000000
00000001
00000000
,
00001000
00000100
00001000
00000000
00000100
00000000
00010000
00000000
,
00001000
00100000
00001000
00000000
00010000
00000000
01000000
00000000
,
00100000
10000000
00100000
00000000
01000000
00000000
00010000
00000000
,
00100000
00001000
00100000
00000000
00001000
00000000
00010000
00000000
,
00000100
00001000
00000100
00000000
00001000
00000000
00000010
00000000
,
00000100
00000001
00000100
00000000
00000010
00000000
00001000
00000000
,
00000100
00000000
00010000
00000100
00000000
00010000
00000100
00000000
,
00010000
00000000
00001000
00010000
00000000
00001000
00010000
00000000
,
00002000
01000000
00000000
00010000
,
00000000
01003000
00100000
10000000
,
02000000
00010000
00000000
00100000
,
00000000
00000000
03010000
00000000
00100000
10000000
00010000
00000000
,
01000000
00100000
01000000
00100000
01000000
00100000
00000000
10000000
,
00010000
00000000
10000000
01000000
00000000
10000000
00100000
00000000
,
01000000
00001000
01000000
00001000
01000000
00001000
00000000
00010000
,
00001000
00000000
00010000
00000100
00000000
00001000
00000010
00000000
,
00001000
00000001
00001000
00000001
00001000
00000000
00000000
00000010
,
00000100
00000000
00000100
00001000
00000000
00001000
00010000
00000000
,
00010000
00100000
00010000
00000000
01000000
00100000
01000000
00000000
,
10000000
01000000
10000000
00100000
02000000
00000000
03000000
00000000
,
10000000
00100000
10000000
00100000
10000000
00100000
00000000
00100000
,
00010000
00000000
00010000
00001000
00000000
00001000
00000100
00000000
,
00000100
00000010
00000100
00000010
00000100
00000010
00000000
00000010
,
00001000
00000000
00001000
00010000
00000000
00010000
00100000
00000000
,
01000000
00010000
01000000
00010000
01000000
00010000
00000000
01000000
,
00100000
00000000
00100000
10000000
00000000
10000000
01000000
00000000
,
01000000
00100000
00010000
00000000
00001000
00000100
00000010
00000000
,
00001001
00000000
00000000
00000110
00000000
00000000
00001001
00000000
,
00002002
00000000
00000000
00000000
,
00003003
00000000
00000000
00000000
;

//---------------dance-double - ----------------
#NOTES:
     dance-double:
     :
     Medium:
     9:
     0.433,0.705,0.033,0.747,0.000:
00000000
00000000
00000000
00000000
,
00000000
00000000
00000000
00000000
,
00000000
00000000
00000000
00000000
,
00000000
00000000
00000000
00000000
,
00000000
00000000
00000000
00000000
,
02000000
23000000
30200000
20300000
,
32000000
03020000
00230000
00320000
,
00032000
00003200
00002300
00003020
,
00002030
00000000
00003002
00000000
00000013
00000000
00001000
00000100
,
00000002
00000000
00000000
00000003
,
00002000
00000000
00003200
00000000
,
00020300
00000000
00031000
00100000
,
00020000
00000000
02030000
03200000
,
20300000
00000000
32000000
03200000
,
00302000
00000000
00023000
00030200
,
00002300
00003020
00000230
00000302
,
00000103
00000010
00001000
00000100
00002002
00000000
00003003
00000000
,
00000010
00000010
00000010
00000000
,
00000000
00001100
00000000
00000000
,
00010000
00010000
00010000
00000000
,
00100000
00010000
01000000
00000000
,
00100000
00100000
00100000
00000000
,
00000000
10010000
00000000
00000000
,
10000000
10000000
10000000
00000000
,
00010000
00010000
00010000
00000000
,
00001000
00000000
00010000
00000000
00000000
00001000
00000000
00000000
,
00001000
00000000
00000000
00010000
00000000
00000000
00001000
00000000
,
00000000
00000000
00100000
00000000
00000000
00100000
00000000
00000000
,
00010000
00000000
00000000
00010000
00000000
00000000
01000000
00000000
,
00000000
00000000
00100000
00000000
00000000
00100000
00000000
00000000
,
10000000
00000000
00000000
10000000
00000000
00000000
01000000
00000000
,
00100000
00000000
00010000
00000000
,
00000200
00000000
00002300
00000000
,
00003020
00000000
00000031
00000100
,
00000010
00000100
00001000
00000100
,
00010000
00001000
01000000
00010000
,
10000000
01000000
00100000
00010000
,
01000000
00010000
00001000
00000100
,
00001000
00000010
00000001
00000100
,
00000020
00000000
00000000
00002030
00000000
00000000
00003100
00000000
,
00020000
00000000
00032000
02003000
,
03200000
00000000
00000000
20300000
00000000
00000000
31000000
00000000
,
00020000
00000000
00230000
00000000
,
00302000
00000000
00000000
00023000
00000000
00000000
00030020
00000000
,
00002030
00000000
00003002
00000203
,
00000320
00000000
00000000
00002000
00000030
00000000
00003200
00000000
,
00020300
00000000
00032000
00000000
,
00003000
00000000
00200000
02300000
,
03020000
00100000
00000000
00130000
,
20000000
00000000
32000000
00000000
,
03200000
00010000
00000000
00310000
,
00002000
00000000
00023000
00000000
,
00030200
00000000
00001300
00000020
,
00000000
00000130
00000001
00000010
,
00002000
00000100
00000000
00000100
,
00000000
00003100
00010000
00001000
,
00200000
00010000
00000000
00310000
,
02000000
00100000
00000000
03100000
,
20000000
01000000
00000000
31000000
,
20000000
00000000
30020000
00000000
,
01030000
00010000
01000000
00000000
,
00010000
00100000
00010000
00000000
,
00100000
00000000
00000000
00100000
00000000
00000000
00100000
00000000
,
20000000
00000000
30020000
00000000
,
02030000
00100000
00000000
00000000
,
03010000
00010000
00100000
00000000
,
20000000
01000000
00000000
31000000
,
10000000
00100000
00020000
00000000
,
20030000
00000000
30100000
02000000
,
00000000
03001000
00010000
00001000
,
00000020
00000100
00000000
00000130
,
00000002
00000000
00000103
00000000
,
00000010
00001000
00000100
00000000
,
00010000
00001000
00100000
00000000
,
00010000
01000000
00100000
20000000
,
00000000
30100000
01000000
00010000
,
20000000
00000000
00100000
00200000
,
00000000
00000000
30300000
00000000
,
01000000
00000000
00000000
01000000
00000000
00000000
01000000
00000000
,
00100000
00000000
00000000
00100000
00000000
00000000
00100000
00000000
,
20000000
01000000
00000000
01000000
,
00000000
31000000
00100000
00010000
,
00002000
00010000
00000000
00010000
,
00000000
00013000
00000100
00000000
,
00000010
00000000
00001000
00000000
00000000
00000100
00000000
00000000
,
00000001
00000000
00000000
00000100
00000000
00000000
00001000
00000000
,
00000000
00000000
00010000
00000000
00000000
00100000
00000000
00000000
,
10000000
00000000
00000000
00100000
00000000
00000000
00010000
00000000
,
00000000
00000000
00001000
00000000
00000000
00000100
00000000
00000000
,
00000010
00000000
00000000
00000100
00000000
00000000
00001000
00000000
,
00000010
00000010
00000100
00000100
,
00000001
00000100
00000001
00000000
00002000
00000000
00000000
00000000
,
00003000
00000000
00000010
00000000
00000000
00000100
00000000
00000000
,
00001000
00000000
00000000
00010000
00000000
00000000
00100000
00000000
,
00000000
00000000
10000000
00000000
00000000
01000000
00000000
00000000
,
00100000
00000000
00000000
00010000
00000000
00000000
00001000
00000000
,
00000000
00000000
00000001
00000000
00000000
00000010
00000000
00000000
,
00000100
00000000
00000000
00001000
00000000
00000000
00010000
00000000
,
00001000
00010000
00001000
00010000
00001000
00000000
00000000
00000000
,
00020000
00000000
00032000
00003000
,
20020000
00000000
00000000
00000000
,
30030000
00000000
00000000
00000000
;

//---------------dance-double - Copied from Copied from----------------
#NOTES:
     dance-double:
     Copied from Copied from:
     Easy:
     7:
     0.320,0.414,0.090,0.665,0.000: // measure 1
00000000
00000000
00000000
00000000
,  // measure 2
00000000
00000000
00000000
00000000
,  // measure 3
00000000
00000000
00000000
00000000
,  // measure 4
00000000
00000000
00000000
00000000
,  // measure 5
00000000
00000000
00000000
00000000
,  // measure 6
20000000
00000000
30000000
00000000
,  // measure 7
00020000
00000000
00030000
00000000
,  // measure 8
00000002
00000000
00000003
00000000
,  // measure 9
00002000
00000000
00003000
00000200
,  // measure 10
00002300
00000000
00000010
00000000
,  // measure 11
00023000
00000000
00001000
00000000
,  // measure 12
00230000
00000000
00010000
00000000
,  // measure 13
20300000
00000000
01000000
00000000
,  // measure 14
30020000
00000000
00100000
00000000
,  // measure 15
00032000
00000000
00010000
00000000
,  // measure 16
00003020
00000000
10000100
00000000
,  // measure 17
00000130
00000001
00001000
00000000
,  // measure 18
00022000
00000000
00033000
00000000
,  // measure 19
00000000
00011000
00000000
00000000
,  // measure 20
00022000
00000000
00033000
00000000
,  // measure 21
00022000
00000000
00033000
00000000
,  // measure 22
00022000
00000000
00033000
00000000
,  // measure 23
00000000
00011000
00000000
00000000
,  // measure 24
00022000
00000000
00033000
00000000
,  // measure 25
00020000
00000000
00230000
00000000
,  // measure 26
10300000
00010000
00000000
00010000
,  // measure 27
00000000
01000000
00000000
01000000
,  // measure 28
00000000
10000000
00000000
10000000
,  // measure 29
00000000
00100000
00000000
00100000
,  // measure 30
00000000
00010000
00000000
00010000
,  // measure 31
00000000
00001000
00000000
00001000
,  // measure 32
00001000
00000000
00000100
00000000
,  // measure 33
00000020
00000000
00000032
00000000
,  // measure 34
00000103
00001000
00000100
00001000
,  // measure 35
00010000
00100000
00010000
00100000
,  // measure 36
10000000
01000000
10000000
01000000
,  // measure 37
00010000
00100000
00010000
00100000
,  // measure 38
00001000
00010000
00001000
00010000
,  // measure 39
00000010
00000100
00000010
00000100
,  // measure 40
00000002
00000000
00001003
00000000
,  // measure 41
00002000
00000000
00013000
00000000
,  // measure 42
00020000
00000000
10030000
00000000
,  // measure 43
20000000
00000000
30010000
00000000
,  // measure 44
00020000
00000000
00031000
00000000
,  // measure 45
00002000
00000000
00003001
00000000
,  // measure 46
00000200
00000000
00001300
00000000
,  // measure 47
00020000
00000000
00230000
00000000
,  // measure 48
01300000
00000000
00020000
20030000
,  // measure 49
30200000
00000000
00000000
00300000
,  // measure 50
00020000
00030000
20000000
30000000
,  // measure 51
00200000
00000000
00000000
00000000
,  // measure 52
00000000
00300000
00020000
00000000
,  // measure 53
02030000
00000000
03000000
00020000
,  // measure 54
00000000
00030000
00001000
00000000
,  // measure 55
00000200
00000000
00000000
00000000
,  // measure 56
00000320
00000000
00000030
00000000
,  // measure 57
00000002
00000000
00000000
00000000
,  // measure 58
00002003
00000000
00000000
00000000
,  // measure 59
02003000
00000000
03020000
00000000
,  // measure 60
00230000
00000000
20300000
00000000
,  // measure 61
30020000
00000000
00000000
00030000
,  // measure 62
20000000
00000000
00000000
30000000
,  // measure 63
00100000
00000000
00000000
01000000
00000000
00000000
00010000
00000000
,  // measure 64
10000000
00000000
01000000
00000000
,  // measure 65
00200000
00000000
00000000
00300000
,  // measure 66
00002000
00000000
00023000
00000000
,  // measure 67
00030020
00000000
00000000
00000030
,  // measure 68
00000200
00000000
00002300
00000000
,  // measure 69
00003002
00000000
00000003
00000020
,  // measure 70
00000030
00000000
00000100
00000000
,  // measure 71
00002000
00000000
00000000
00003000
,  // measure 72
00020000
00000000
00000000
00030000
,  // measure 73
00200000
00000000
00000000
00300000
,  // measure 74
00020000
00000000
20030000
00000000
,  // measure 75
30200000
00000000
00000000
01300000
,  // measure 76
00000000
00000000
00010000
00000000
,  // measure 77
00002000
00000000
00003000
00000002
,  // measure 78
00000000
00000003
00001000
00000000
,  // measure 79
00000220
00000000
00000330
00000000
,  // measure 80
00002200
00000000
00003300
00000000
,  // measure 81
00002000
00010000
00000000
00010000
,  // measure 82
00000000
00013000
00000000
00010000
,  // measure 83
00020000
00001000
00000000
00001000
,  // measure 84
00000000
00031000
00000000
00000000
,  // measure 85
00100000
00000000
10000000
00000000
,  // measure 86
01000000
00000000
00010000
00000000
,  // measure 87
00001000
00000000
00000010
00000000
,  // measure 88
00000001
00000000
00000100
00000000
,  // measure 89
00001000
00000000
00010000
00000000
,  // measure 90
01000000
00000000
10000000
00000000
,  // measure 91
00100000
00000000
00010000
00000000
,  // measure 92
01000000
01000000
02000000
03000000
,  // measure 93
00000000
10000000
00000000
00010000
,  // measure 94
00000000
10000000
00000000
00010000
,  // measure 95
00000000
00001000
00000000
00000001
,  // measure 96
00000000
00001000
00000000
00000001
,  // measure 97
00000000
00001000
00000000
00010000
,  // measure 98
00000000
00001000
00000000
00010000
,  // measure 99
01000000
01000000
00100000
00100000
,  // measure 100
20000000
00000000
30020000
00030000
,  // measure 101
20020000
00000000
00000000
00000000
,  // measure 102
30030000
00000000
00000000
00000000
;
