#TITLE:MASAYUME CHASING;
#SUBTITLE:;
#ARTIST:BoA;
#TITLETRANSLIT:;
#SUBTITLETRANSLIT:;
#ARTISTTRANSLIT:;
#GENRE:;
#CREDIT:;
#BANNER:MASAYUME CHASING.png;
#BACKGROUND:MASAYUME CHASING-bg.png;
#LYRICSPATH:;
#CDTITLE:;
#MUSIC:MASAYUME CHASING.ogg;
#OFFSET:-0.020000;
#SAMPLESTART:45.485115;
#SAMPLELENGTH:13.023254;
#SELECTABLE:YES;
#BPMS:0.000000=129.000000
;
#STOPS:
;
#BGCHANGES:0.000=MASAYUME CHASING.avi=1.000=0=0=0=StretchNoLoop====,
99999=-nosongbg-=1.000=0=0=0 // don't automatically add -songbackground-
;
#KEYSOUNDS:;
#ATTACKS:;

//---------------dance-single - ----------------
#NOTES:
     dance-single:
     :
     Hard:
     12:
     0.442267,0.595581,0.494879,0.230176,0.115088,269.000000,226.000000,43.000000,20.000000,0.000000,0.000000,0.442267,0.595581,0.494879,0.230176,0.115088,269.000000,226.000000,43.000000,20.000000,0.000000,0.000000:
0000
0000
0000
0000
,
0000
0000
0000
0000
,
0000
0000
0000
0000
,
0000
0000
0000
0000
,
0000
0000
0000
0000
,
0020
0000
0000
0200
0000
0000
0330
0000
,
2000
0000
0000
0002
0000
0000
3003
0000
,
0200
0000
0000
0020
0000
0000
0330
0000
,
2000
0000
0000
0002
0000
0000
3003
0000
,
0010
1000
1000
0000
0101
0000
1010
0000
,
0001
1000
1000
0000
0101
0000
1010
0000
,
0001
0100
0001
1000
0010
0000
0100
0020
,
1000
0000
0100
0000
1000
0000
1030
0001
,
1000
0010
0100
0000
0110
0000
1001
0000
,
0001
0100
0010
0000
1010
0000
0101
0000
,
1000
0010
1000
0010
0100
0000
0001
0200
,
0010
0000
0001
0000
0310
0000
0001
1000
,
0100
0000
1100
0000
0101
0000
1000
0010
,
0200
0001
0001
0301
,
1010
0000
0001
0100
1000
0000
0001
0010
,
0001
0100
0001
1000
0001
0000
1000
0010
,
0100
0000
0110
0000
1001
0000
0001
0200
,
0010
0001
0001
0010
,
0301
0100
0010
1000
0001
1000
1000
0001
,
0100
0000
0010
0100
0010
0000
0100
0000
0001
1000
0001
0000
1000
0000
0100
0000
,
1100
1000
1001
0000
1100
1000
1001
0001
,
0100
0010
0110
0000
0101
1001
1001
0000
,
0010
1000
0100
1000
0010
0001
0010
1000
,
0100
0010
0001
0100
0010
0100
0001
1000
,
1001
0001
0101
0000
1001
0001
0101
0100
,
0110
0010
1000
0000
1001
0101
0101
0000
,
0010
1000
0100
0010
0001
0100
0010
0100
,
0001
0010
0100
1000
0010
0010
0110
0000
,
0001
0000
0100
0001
0000
1000
0000
0001
1000
0000
0010
0000
0110
0000
0000
0000
,
1000
0000
0001
0100
0000
0010
0000
1000
0001
0000
0000
0000
0110
0000
0000
0000
,
0001
0000
1000
0100
0000
0010
0000
0100
1000
0000
0001
0000
1001
0000
0000
0000
,
0001
0100
0010
0100
0110
0110
1001
0000
,
0001
0000
0100
0001
0000
1000
0000
0010
0100
0000
0010
0000
0110
0000
0000
0000
,
0001
0000
1000
0100
0000
1000
0000
0010
0100
0000
0000
0000
0110
0000
0000
0000
,
0001
0000
1000
0100
0000
1000
0000
0001
0100
0000
0010
0000
0110
0000
0000
0000
,
0001
0100
1000
0100
0001
0010
0100
0000
,
2001
0000
0000
0020
0000
0000
3030
0000
,
1002
0000
0000
0200
0000
0000
0303
0000
,
0120
0000
0000
2000
0000
0000
3030
0000
,
0102
0000
0000
2000
0000
0000
0000
0000
,
3003
0000
0000
0000
;

//---------------dance-double - ----------------
#NOTES:
     dance-double:
     :
     Hard:
     12:
     0.422538,0.569686,0.437335,0.230176,0.109334,257.000000,219.000000,38.000000,20.000000,0.000000,0.000000,0.422538,0.569686,0.437335,0.230176,0.109334,257.000000,219.000000,38.000000,20.000000,0.000000,0.000000:
00000000
00000000
00000000
00000000
,
00000000
00000000
00000000
00000000
,
00000000
00000000
00000000
00000000
,
00000000
00000000
00000000
00000000
,
00000000
00000000
00000000
00000000
,
20000000
00000000
00000000
00020000
00000000
00000000
30030000
00000000
,
00002000
00000000
00000000
00020000
00000000
00000000
00033000
00000000
,
20000000
00000000
00000000
00020000
00000000
00000000
30030000
00000000
,
00002000
00000000
00000000
00000002
00000000
00000000
00003003
00000000
,
00000001
00000100
00001000
00000000
00001001
00000000
00011000
00000000
,
00010000
00001000
01000000
00000000
10010000
00000000
00011000
00000000
,
00100000
00001000
00010000
00000000
00100000
00000000
00010000
02000000
,
00100000
00000000
00010000
00000000
03100000
00000000
00010000
10000000
,
00010000
01000000
00100000
00000000
10010000
00000000
00011000
00000000
,
00000100
00001000
00000010
00000000
00001001
00000000
00011000
00000000
,
00001000
00100000
00010000
00100000
00001000
00000000
01000000
00200000
,
10000000
00000000
01000000
00000000
10300000
00100000
01000000
00010000
,
10010000
00000000
00110000
00000000
00001100
00000000
00001000
00000001
,
00000200
00000010
00000001
00000310
,
00000001
00000000
00001000
00000100
00010000
00000000
01000000
00010000
,
10000000
00100000
01000000
00010000
00000000
00000000
10000000
00010000
,
01000000
00000000
01010000
00000000
00011000
00000000
00001000
00000100
,
00002000
00000001
00000010
00003001
,
00000010
00001000
00000100
00010000
00001000
01000000
00100000
10000000
,
01000000
00000000
00100000
00010000
00100000
00000000
00001000
00000000
00010000
00000000
00000100
00000000
00001000
00000000
00000010
00000000
,
00000110
00000100
00000101
00000000
00000110
00000010
00001010
00001000
,
00000100
00010000
00001000
00000000
01000000
00010000
10010000
00000000
,
10000000
00010000
10000000
00100000
01000000
00001000
00010000
00000100
,
00000000
00001100
00000000
00000101
00000000
00000010
00001000
00000100
,
00001100
00000100
00010100
00000000
00001100
00000100
00010100
00010000
,
00011000
00001000
01000000
00000000
00100000
01100000
01100000
00000000
,
00100000
10000000
01000000
00100000
00000000
00110000
00000000
10000000
,
00100000
01000000
00001000
00010000
00001000
00010000
00000010
00000000
,
00000100
00000000
00000001
00001000
00000000
00000100
00000000
00010000
00001000
00000000
01000000
00000000
01010000
00000000
00000000
00000000
,
10000000
00000000
00100000
01000000
00000000
00001000
00000000
00010000
00000100
00000000
00000000
00000000
00001001
00000000
00000000
00000000
,
00000010
00000000
00001000
00000100
00000000
00010000
00000000
00001000
01000000
00000000
00100000
00000000
01100000
00000000
00000000
00000000
,
10010000
00010000
01010000
01000000
01001000
00001000
00011000
00000000
,
00000010
00000000
00001000
00000100
00000000
00010000
00000000
00001000
01000000
00000000
00100000
00000000
10100000
00000000
00000000
00000000
,
01000000
00000000
00001000
00010000
00000000
00000100
00000000
00001000
00000010
00000000
00000000
00000000
00001001
00000000
00000000
00000000
,
00000010
00000000
00001000
00000100
00000000
00010000
00000000
00001000
01000000
00000000
00100000
00000000
10100000
00000000
00100000
00000000
,
10000000
01000000
00010000
00001000
00000100
00000001
00000020
00000000
,
00020000
00000000
00000000
00030030
,
00000200
00000000
00000000
00020000
00000000
00000000
00030300
00000000
,
02000000
00000000
00000000
00200000
00000000
00000000
03300000
00000000
,
00002000
00000000
00000000
00020000
00000000
00000000
00000000
00000000
,
00033000
00000000
00000000
00000000
;

//---------------dance-single - ----------------
#NOTES:
     dance-single:
     :
     Medium:
     6:
     0.267991,0.388422,0.391299,0.345264,0.000000,163.000000,129.000000,34.000000,30.000000,0.000000,0.000000,0.267991,0.388422,0.391299,0.345264,0.000000,163.000000,129.000000,34.000000,30.000000,0.000000,0.000000:
0000
0000
0000
0000
,
0000
0000
0000
0000
,
0000
0000
0000
0000
,
0000
0000
0000
0000
,
0000
0000
0000
0000
,
2000
0000
0001
3000
,
0002
0000
1000
0003
,
0200
0000
0010
0300
,
0020
0000
0100
0030
,
1000
0110
2002
3003
,
0001
0110
2002
3003
,
0010
1000
0100
0001
,
2002
0000
3003
0000
,
0001
0110
2002
3003
,
1000
0110
2002
3003
,
0010
0001
0100
1000
,
2002
0000
3003
0010
,
1000
1000
0001
0001
,
1000
0100
0010
0000
,
0001
0001
1000
1000
,
0001
0100
0010
0000
,
1000
1000
0001
0001
,
0100
0010
1001
0000
,
0001
0001
1000
1000
,
0010
0100
1001
1001
,
0001
0101
1000
1100
,
0001
1000
0001
0000
1001
0000
0000
0000
,
0010
0010
1000
1001
,
0010
0010
0001
1001
,
1000
1010
0001
0011
,
1000
0001
1000
0000
1001
0000
0000
0000
,
0010
0010
0220
0330
,
0100
0100
0220
0330
,
0001
0000
0100
0000
0001
1000
0001
0000
,
1000
0100
1001
1001
,
0001
0000
0100
0000
0001
1000
0001
0000
,
0010
0010
2002
3003
,
1000
0000
0100
0000
1000
0001
1000
0000
,
0001
0100
1001
1001
,
1000
0000
0100
0000
1000
0001
1000
0000
,
0010
0010
0110
1001
,
2200
0000
3300
0000
,
0022
0000
0033
0000
,
0220
0000
0330
0000
,
2002
0000
0000
0000
,
3003
0000
0000
0000
;

//---------------dance-single - ----------------
#NOTES:
     dance-single:
     :
     Easy:
     3:
     0.172632,0.233053,0.092070,0.184141,0.000000,105.000000,97.000000,8.000000,16.000000,0.000000,0.000000,0.172632,0.233053,0.092070,0.184141,0.000000,105.000000,97.000000,8.000000,16.000000,0.000000,0.000000:
0000
0000
0000
0000
,
0000
0000
0000
0000
,
0000
0000
0000
0000
,
0000
0000
0000
0000
,
0000
0000
0000
0000
,
2000
0000
0000
3000
,
0002
0000
0000
0003
,
0200
0000
0000
0300
,
0020
0000
0000
0030
,
1000
0010
2000
3000
,
0001
0010
0002
0003
,
0010
1000
0100
0000
,
2002
0000
3003
0000
,
0001
0100
0002
0003
,
1000
0100
2000
3000
,
0010
0001
0100
0000
,
2002
0000
3003
0000
,
1000
0100
1000
0000
,
0001
0000
1001
0000
,
0001
0100
0001
0000
,
1000
0000
1001
0000
,
0010
1000
0001
0000
,
0100
0000
1001
0000
,
0010
0001
1000
0000
,
0010
0000
1001
0000
,
0001
0100
1000
0100
,
0001
0000
1001
0000
,
0010
1000
0010
0000
,
0010
0001
0010
0000
,
1000
0100
0001
0100
,
1000
0000
1001
0000
,
0100
0001
0100
0000
,
0100
1000
0100
0000
,
0001
0100
0010
0000
,
1000
0100
0010
0000
,
0001
0100
0010
0000
,
1000
0001
1000
0001
,
1000
0010
0100
0000
,
0001
0010
0100
0000
,
1000
0010
0100
0000
,
0010
0010
0010
0000
,
0200
0000
0300
0000
,
0020
0000
0030
0000
,
0002
0000
0003
0000
,
2000
0000
0000
0000
,
3000
0000
0000
0000
;

//---------------dance-single - ----------------
#NOTES:
     dance-single:
     :
     Beginner:
     1:
     0.103579,0.181264,0.069053,0.011509,0.000000,63.000000,57.000000,6.000000,1.000000,0.000000,0.000000,0.103579,0.181264,0.069053,0.011509,0.000000,63.000000,57.000000,6.000000,1.000000,0.000000,0.000000:
0000
0000
0000
0000
,
0000
0000
0000
0000
,
0000
0000
0000
0000
,
0000
0000
0000
0000
,
0000
0000
0000
0000
,
1000
0000
0000
0000
,
0001
0000
0000
0000
,
0100
0000
0000
0000
,
0010
0000
0000
0000
,
1000
0000
1000
0000
,
0001
0000
0001
0000
,
0010
0000
0010
0000
,
0010
0000
0000
0000
,
0001
0000
0001
0000
,
1000
0000
1000
0000
,
0100
0000
0100
0000
,
0100
0000
0000
0000
,
1000
0000
1000
0000
,
0001
0000
0001
0000
,
1000
0000
0001
0000
,
1000
0000
0000
0000
,
0001
0000
0001
0000
,
1000
0000
1000
0000
,
0001
0000
1000
0000
,
0001
0000
0000
0000
,
0010
0000
0010
0000
,
0010
0000
1001
0000
,
0000
0000
0100
0000
,
0000
0000
0100
0000
,
0010
0000
0010
0000
,
0010
0000
1001
0000
,
0000
0000
0100
0000
,
0000
0000
0100
0000
,
0000
0000
0000
1001
,
0000
0000
1000
1000
,
0000
0000
0000
1001
,
0000
0000
0000
0000
,
0000
0000
0000
1001
,
0000
0000
0001
0001
,
0000
0100
0000
1001
,
0000
0000
0000
0000
,
0100
0000
0000
0000
,
0010
0000
0000
0000
,
0001
0000
0000
0000
,
2000
0000
0000
0000
,
3000
0000
0000
0000
;

//---------------dance-double - ----------------
#NOTES:
     dance-double:
     :
     Easy:
     3:
     0.162767,0.258948,0.103579,0.069053,0.000000,99.000000,90.000000,9.000000,6.000000,0.000000,0.000000,0.162767,0.258948,0.103579,0.069053,0.000000,99.000000,90.000000,9.000000,6.000000,0.000000,0.000000:
00000000
00000000
00000000
00000000
,
00000000
00000000
00000000
00000000
,
00000000
00000000
00000000
00000000
,
00000000
00000000
00000000
00000000
,
00000000
00000000
00000000
00000000
,
00001000
00000000
00000000
00000000
,
00001000
00000000
00000000
00000000
,
00010000
00000000
00000000
00000000
,
00010000
00000000
00000000
00000000
,
00000010
00001000
00000010
00000000
,
00010000
00000000
00001000
00000000
,
00100000
00010000
00100000
00000000
,
00001000
00000000
00010000
00000000
,
00000100
00001000
00000100
00000000
,
00010000
00000000
00001000
00000000
,
01000000
00010000
01000000
00000000
,
00002000
00000000
00003000
00000000
,
00000100
00001000
00000010
00000000
,
00001000
00000000
00000001
00000000
,
00001000
00000000
00000100
00000000
,
00010000
00001000
00010000
00000000
,
01000000
00010000
00100000
00000000
,
10000000
00000000
00010000
00000000
,
10000000
00000000
00100000
00000000
,
01000000
00000000
00001000
00000000
,
00010000
01000000
10000000
01000000
,
00010000
00000000
10010000
00000000
,
00100000
00000000
00001000
00000000
,
00010000
00000000
00000010
00000000
,
00001000
00000100
00000001
00000100
,
00001000
00000000
00001001
00000000
,
00000010
00000000
00001000
00000000
,
00010000
00000000
00100000
00000000
,
10000000
00010000
10010000
00000000
,
00001000
00010000
00011000
00000000
,
00000001
00001000
00001001
00000000
,
00000100
00010000
01000000
00000000
,
10000000
00010000
10010000
00000000
,
00001000
00010000
00011000
00000000
,
00000001
00001000
00001001
00000000
,
00000100
00001000
01000000
00000000
,
20020000
00000000
30030000
00000000
,
00200000
00000000
00300000
00000000
,
00002000
00000000
00003000
00000000
,
00020000
00000000
00000000
00000000
,
00030000
00000000
00000000
00000000
;

//---------------dance-double - ----------------
#NOTES:
     dance-double:
     :
     Medium:
     6:
     0.251550,0.414317,0.184141,0.103579,0.000000,153.000000,137.000000,16.000000,9.000000,0.000000,0.000000,0.251550,0.414317,0.184141,0.103579,0.000000,153.000000,137.000000,16.000000,9.000000,0.000000,0.000000:
// measure 0
00000000
00000000
00000000
00000000
,  // measure 1
00000000
00000000
00000000
00000000
,  // measure 2
00000000
00000000
00000000
00000000
,  // measure 3
00000000
00000000
00000000
00000000
,  // measure 4
00000000
00000000
00000000
00000000
,  // measure 5
20000000
00000000
31000000
00000000
,  // measure 6
00020000
00000000
01030000
00000000
,  // measure 7
20000000
00000000
30100000
00000000
,  // measure 8
00020000
00000000
00130000
00000000
,  // measure 9
10000000
01000000
00010000
01000000
,  // measure 10
10000000
01000000
00100000
00001000
,  // measure 11
00010000
00000100
00000010
00000100
,  // measure 12
00010000
00000100
00001000
00000001
,  // measure 13
00000100
00000001
00000100
00001000
,  // measure 14
00000100
00000010
00010000
00001000
,  // measure 15
01000000
00010000
01000000
10000000
,  // measure 16
01000000
00100000
10000000
01000000
,  // measure 17
00100000
00100000
00100000
00000000
,  // measure 18
10010000
00000000
10010000
00000000
,  // measure 19
00100000
00001000
00010000
00000000
,  // measure 20
00001000
00010000
00000010
00000000
,  // measure 21
00000010
00000010
00000010
00000000
,  // measure 22
00001001
00000000
00001001
00000000
,  // measure 23
00000100
00010000
00001000
00000000
,  // measure 24
00010000
00000000
01000000
00000000
00100000
01000000
00100000
00000000
,  // measure 25
11000000
11000000
01010000
01010000
,  // measure 26
00100000
01000000
00100000
00000000
01100000
00000000
00000000
00000000
,  // measure 27
10000000
00100000
01000000
00010000
,  // measure 28
00001000
00000100
00001000
00000001
,  // measure 29
00000101
00000101
00001100
00001100
,  // measure 30
00000010
00000100
00000010
00000000
00000110
00000000
00000000
00000000
,  // measure 31
00000001
00000001
00001000
00001000
,  // measure 32
00000100
00001000
00000100
00000000
00010000
00000000
00001000
00000000
,  // measure 33
01000000
00000000
00100000
00000000
10000000
00010000
10000000
00000000
,  // measure 34
00100000
01000000
00001000
00001000
,  // measure 35
00010000
00000000
00000010
00000000
00001000
00000100
00001000
00000000
,  // measure 36
00000001
00000100
00000010
00000110
,  // measure 37
00000010
00000000
00000100
00000000
00000001
00001000
00000001
00000000
,  // measure 38
00000100
00000010
00010000
00010000
,  // measure 39
00001000
00000000
00100000
00000000
00010000
01000000
00010000
00000000
,  // measure 40
01000000
00100000
10000000
01000000
,  // measure 41
20020000
00000000
00000000
30030000
,  // measure 42
00002000
00000000
00000000
00003000
,  // measure 43
00020000
00000000
00000000
00030000
,  // measure 44
00002000
00000000
00000000
00000000
,  // measure 45
00003000
00000000
00000000
00000000
;
