#TITLE:Last Resort;
#SUBTITLE:;
#ARTIST:xi;
#TITLETRANSLIT:;
#SUBTITLETRANSLIT:;
#ARTISTTRANSLIT:;
#GENRE:;
#CREDIT:;
#BANNER:Last Resort.png;
#BACKGROUND:Last Resort-bg.png;
#LYRICSPATH:;
#CDTITLE:;
#MUSIC:Last Resort.ogg;
#OFFSET:-0.589997;
#SAMPLESTART:72.783249;
#SAMPLELENGTH:12.166655;
#SELECTABLE:YES;
#DISPLAYBPM:126.000000:252.000000;
#BPMS:0.000000=251.999985
,112.000000=125.999992
,124.000000=251.999985
,164.000000=125.999992
,180.000000=251.999985
;
#STOPS:276.000000=0.238000,
276.500000=0.238000,
277.000000=0.238000,
277.500000=0.238000,
280.000000=0.238000,
280.500000=0.238000,
281.000000=0.238000,
281.500000=0.238000
;
#BGCHANGES:;
#KEYSOUNDS:;
#ATTACKS:;

//---------------dance-single - ----------------
#NOTES:
     dance-single:
     :
     Challenge:
     17:
     0.906565,1.141528,0.363570,0.206574,0.516435,768.000000,724.000000,44.000000,25.000000,0.000000,0.000000,0.906565,1.141528,0.363570,0.206574,0.516435,768.000000,724.000000,44.000000,25.000000,0.000000,0.000000:
// measure 0
0000
0000
0000
0000
,  // measure 1
0000
0000
0000
0000
,  // measure 2
0000
0000
0000
0000
,  // measure 3
0000
0000
0000
0000
,  // measure 4
0000
0000
0000
0000
,  // measure 5
0000
0000
0000
0000
,  // measure 6
1001
1001
1100
1100
,  // measure 7
1001
1001
0101
0101
,  // measure 8
1100
1100
0011
0011
,  // measure 9
1000
0000
0000
1000
0010
0100
0001
0000
0000
0100
0000
0000
,  // measure 10
1001
0000
0000
0000
,  // measure 11
1000
0001
1000
0001
1000
0010
0200
0000
,  // measure 12
0301
0000
0100
0000
0001
1000
0100
0000
,  // measure 13
0010
0000
1000
0000
0000
0000
0001
0000
1000
0000
0000
0000
1000
0000
0001
1000
,  // measure 14
0001
0000
0010
0100
0010
0000
1000
0000
,  // measure 15
0001
0000
0100
0000
0000
0000
0000
0000
0011
0000
0000
0000
1000
0000
0001
1000
,  // measure 16
0001
0000
1000
0100
1000
0000
0010
0000
,  // measure 17
0001
0000
0100
0000
0000
0000
1001
0000
0000
0000
0000
0000
0010
0000
1000
0001
,  // measure 18
1000
0000
0001
0100
0001
0000
0100
0000
,  // measure 19
0010
1000
0010
1000
0010
1000
0001
0100
,  // measure 20
0010
0000
1000
0001
0100
0010
0100
0001
,  // measure 21
0010
0000
0001
1000
0010
0100
0010
1000
,  // measure 22
0100
0000
0001
0100
0010
1000
0010
0100
,  // measure 23
0010
1000
0100
0010
0001
1000
0010
0100
,  // measure 24
0001
0000
0100
0001
0100
0010
0100
0001
,  // measure 25
1000
0000
0001
0100
0010
0100
0001
1000
,  // measure 26
0001
0100
0001
0100
0000
0000
1000
0100
1000
0100
0000
0000
,  // measure 27
0010
0100
0010
0100
0010
0100
0001
1000
0001
1000
0000
0000
,  // measure 28
0001
0000
0100
0010
0000
1000
0000
0001
0000
0001
0100
0000
0001
1000
0001
0000
,  // measure 29
0001
0010
0100
1000
0010
0000
0000
1001
0000
1001
0000
0000
0001
1000
0100
1000
,  // measure 30
0001
0000
1000
0001
0000
1000
0000
0001
0000
0000
1000
0001
0100
0001
0010
0000
,  // measure 31
0001
0000
1000
0001
1000
0000
0001
0000
0000
0000
0100
0000
0010
0000
0100
0000
,  // measure 32
0000
0000
1000
0001
1000
0000
0000
0000
0010
0000
0000
0000
0011
0000
0000
0000
,  // measure 33
1000
0010
0100
0001
0000
0001
0000
1001
,  // measure 34
0000
0010
0100
0001
0100
0010
0100
0010
,  // measure 35
1000
0100
0010
0001
0000
0001
0000
0100
,  // measure 36
0000
0010
0100
0000
1000
0100
0010
0000
,  // measure 37
1000
0010
0100
0010
0000
1000
0000
0010
,  // measure 38
0000
0100
0001
0010
0000
0001
0100
0010
,  // measure 39
0100
0000
0000
0000
0000
0000
0001
0000
0100
0000
0001
0000
0100
0000
0000
0010
0000
0000
0000
0000
0000
1001
0000
0000
,  // measure 40
0000
0000
0000
1100
0000
0000
0001
1000
0001
1000
0001
1000
,  // measure 41
0002
0000
0100
2003
,  // measure 42
3020
0000
0200
0330
,  // measure 43
2002
0000
0003
0000
3020
0000
0130
0001
,  // measure 44
2000
0000
3000
0100
0001
0010
0100
1000
,  // measure 45
0001
0000
0100
0001
0000
1000
0010
0000
,  // measure 46
1000
0000
0100
0000
0000
0000
0010
0000
0001
0000
0000
0000
1000
0001
1000
0000
,  // measure 47
0001
0000
0010
0100
0000
1000
0001
0000
,  // measure 48
1000
0000
0100
0000
0000
0000
0001
0000
0100
0000
0000
0000
0001
0000
0100
0001
,  // measure 49
0100
0000
0000
0000
0001
0000
0100
0000
0000
0000
0010
0000
0100
0000
0001
0100
,  // measure 50
0001
0000
0200
0020
0000
0000
0330
0000
,  // measure 51
0022
0000
0000
0033
,  // measure 52
1001
0000
0001
0000
0001
0000
1000
0000
1000
0000
1000
0000
,  // measure 53
0100
0010
0001
0010
0100
1000
0100
0000
,  // measure 54
0010
0100
1000
0100
0010
0001
0010
0000
,  // measure 55
1001
0000
0000
0001
0100
0001
0100
0000
0000
1000
0010
1000
,  // measure 56
0001
0100
0001
1000
0010
1000
0001
0100
0001
0100
0010
0100
,  // measure 57
0010
0000
0000
0000
0000
0000
0001
0000
0010
0000
0001
0000
0010
0000
0000
0100
0000
0000
0002
0000
0000
0000
0000
0000
,  // measure 58
0000
0000
0003
0000
,  // measure 59
1001
0000
0000
0001
0000
0000
0100
0000
0010
0000
0000
0010
0000
0000
1000
0000
,  // measure 60
0100
0000
0000
0100
0000
0000
1000
0000
0010
0000
0000
0010
0000
0000
0001
0000
,  // measure 61
0100
0010
0100
0010
1000
0001
1000
0001
,  // measure 62
1000
0010
1000
0001
0100
0001
1000
0010
0100
0001
0100
0010
,  // measure 63
1000
0001
1000
0100
0001
0100
1000
0010
,  // measure 64
1000
0001
0100
0010
1000
0100
0010
0001
,  // measure 65
2002
0003
3002
0000
,  // measure 66
0023
0000
2030
0000
,  // measure 67
3001
0100
0001
0100
0001
0100
0001
0100
0001
0100
0001
0100
,  // measure 68
0001
0100
0001
0000
2002
0000
3003
0000
,  // measure 69
1100
0101
1100
0101
0001
0010
0100
1000
,  // measure 70
0001
1100
1001
1100
0001
0010
0100
1000
,  // measure 71
0010
0000
1000
0010
1000
0000
0001
0100
,  // measure 72
0001
1000
0001
0010
0001
1000
0100
0010
,  // measure 73
0001
1000
0100
0010
0001
0100
0010
1000
,  // measure 74
0000
0010
0000
1000
0001
0100
0001
1000
,  // measure 75
0010
0000
0001
0100
1000
0000
0100
0001
,  // measure 76
0010
0000
0001
0010
1000
0010
0001
0100
,  // measure 77
0010
0000
0010
0001
0100
0010
1000
0000
,  // measure 78
1000
0010
0100
0001
0010
0001
0100
0010
,  // measure 79
0001
0000
0001
1000
0000
1000
0100
0000
,  // measure 80
0100
1000
0000
1000
0001
0010
0100
1000
,  // measure 81
0010
1000
0010
1000
0001
0100
0001
0100
,  // measure 82
0001
0010
0100
1000
0001
0010
0100
0000
,  // measure 83
1000
1001
0000
0100
0110
0000
1000
1100
,  // measure 84
0000
0010
0011
0000
2002
0000
3003
0000
,  // measure 85
1000
0100
1000
0100
0000
0010
0001
0100
,  // measure 86
0010
0100
0010
0100
0001
1000
0001
0000
,  // measure 87
0010
1000
0100
1000
0000
0001
0100
0000
,  // measure 88
0010
1000
0100
0010
0000
0001
0100
0010
,  // measure 89
0100
0001
1000
0001
0100
0001
1000
0001
,  // measure 90
0100
0000
0000
0010
0000
0000
0001
0100
0001
0100
0010
0100
,  // measure 91
0001
0000
0000
0100
0001
0100
0010
0100
0001
0100
0000
0000
,  // measure 92
1000
0100
1000
0100
1000
0010
0100
0001
0100
0001
0100
0010
,  // measure 93
1000
0001
0100
0010
1000
0001
0100
0010
,  // measure 94
1000
0100
0010
0001
0100
0001
0010
0100
,  // measure 95
1000
0010
0100
0010
1000
0001
0100
0010
,  // measure 96
1000
0000
0000
0001
0000
0000
0010
0000
0001
0000
0010
0000
0001
0000
0100
0000
0001
0000
1000
0000
0001
0000
1000
0000
,  // measure 97
0001
0100
0000
1000
0100
0000
0001
0010
,  // measure 98
0000
0010
0100
0000
0100
0010
0001
0100
,  // measure 99
0010
1000
0001
1000
0001
0100
0010
1000
,  // measure 100
0001
0010
0100
0010
1000
0001
0010
0100
,  // measure 101
1000
0010
0000
0001
0010
0000
1000
0100
,  // measure 102
0000
0000
0000
0001
0000
0000
0010
0000
0000
0000
0000
0000
1000
0000
0001
0000
1000
0000
0001
0000
1000
0000
0001
0000
,  // measure 103
1000
0001
1000
0001
0100
0010
0100
0010
,  // measure 104
1000
0100
0010
0001
1000
0100
0010
0001
,  // measure 105
1000
0000
0000
0000
0010
0100
0010
0100
,  // measure 106
0001
1000
0001
1000
0001
0010
0100
1000
,  // measure 107
0010
0100
0010
0100
0000
0000
0001
1000
0001
1000
0000
0000
,  // measure 108
0001
0010
0001
0010
0001
0010
0001
0010
0001
0010
0000
0000
,  // measure 109
1001
0000
1000
0001
1000
0001
1000
0001
1000
0001
1000
0001
,  // measure 110
1000
0100
0010
0001
1000
0100
0010
0001
,  // measure 111
1000
0100
0000
0010
0001
0000
0100
0010
,  // measure 112
0000
0000
1000
0000
0100
0000
0010
0000
0001
1000
0001
0000
0001
1000
0001
0000
,  // measure 113
0000
2002
0000
0000
,  // measure 114
0000
0000
0000
3003
,  // measure 115
1001
1001
0000
0000
0000
0000
0000
0000
;

//---------------dance-single - ----------------
#NOTES:
     dance-single:
     :
     Hard:
     15:
     0.705893,1.140289,0.446200,0.322255,0.082630,598.000000,544.000000,54.000000,39.000000,0.000000,0.000000,0.705893,1.140289,0.446200,0.322255,0.082630,598.000000,544.000000,54.000000,39.000000,0.000000,0.000000:
// measure 0
0000
0000
0000
0000
,  // measure 1
0000
0000
0000
0000
,  // measure 2
0000
0000
0000
0000
,  // measure 3
0000
0000
0000
0000
,  // measure 4
0000
0000
0000
0000
,  // measure 5
0000
0000
0000
0000
,  // measure 6
0110
0110
1001
1001
,  // measure 7
0101
0101
1100
1100
,  // measure 8
0110
0110
1001
1001
,  // measure 9
1000
0010
0001
0100
,  // measure 10
1001
0000
0000
0000
,  // measure 11
1000
0001
1000
0001
1000
0010
0200
0000
,  // measure 12
0301
0000
0100
0000
0001
1000
0100
0000
,  // measure 13
0010
0000
1000
0000
0000
0000
0001
0000
1000
0000
0000
0000
1000
0000
0001
1000
,  // measure 14
0001
0000
0010
0100
0010
0000
1000
0000
,  // measure 15
0001
0000
0100
0000
0000
0000
0000
0000
0011
0000
0000
0000
1000
0000
0001
1000
,  // measure 16
0001
0000
1000
0100
1000
0000
0010
0000
,  // measure 17
0001
0000
0100
0000
0000
0000
1001
0000
0000
0000
0000
0000
0010
0000
1000
0001
,  // measure 18
1000
0000
0001
0100
0001
0000
0100
0000
,  // measure 19
0010
1000
0010
1000
0010
1000
0010
0000
,  // measure 20
1100
0000
0001
0100
0000
0010
1000
0000
,  // measure 21
0010
0000
0100
0001
0000
1000
0100
0010
,  // measure 22
0001
0000
1000
0100
0000
0001
0010
0000
,  // measure 23
0100
0010
1000
0001
0100
0010
1000
0000
,  // measure 24
0001
0100
0001
0100
0010
0100
0010
0000
,  // measure 25
1000
0010
1000
0010
0100
0010
0100
0000
,  // measure 26
2002
0000
0000
3003
,  // measure 27
0001
0010
0100
0010
0001
0010
0100
0000
,  // measure 28
1000
0000
0000
0010
0000
1000
0000
0001
0000
0000
0100
0000
0001
0000
1000
0000
,  // measure 29
0001
0000
0000
0100
0000
0000
0000
1000
0000
0001
0000
0000
0001
0000
0100
0000
,  // measure 30
0001
0000
1000
0001
0000
1000
0000
0001
0000
0000
0000
0000
0100
0000
0010
0000
,  // measure 31
0100
0000
0000
1001
0000
0000
0000
0110
,  // measure 32
0000
1000
0100
0000
0010
0000
0011
0000
,  // measure 33
0100
0000
0010
1000
0000
0010
0000
0100
,  // measure 34
0000
0001
1000
0000
0010
0100
0010
0100
,  // measure 35
0010
0000
1000
0100
0000
0010
0000
0001
,  // measure 36
0000
0100
0001
0000
1000
0100
0010
0001
,  // measure 37
0100
0000
0010
0100
0000
0010
0000
1001
,  // measure 38
0000
0001
0100
0001
0000
0010
1000
0000
,  // measure 39
2002
0000
3003
0000
0220
0000
0330
1001
,  // measure 40
0000
0110
2002
3003
,  // measure 41
0002
0000
0000
2003
,  // measure 42
3020
0000
0200
0330
,  // measure 43
2002
0000
0000
0000
3003
0000
0100
0010
,  // measure 44
2000
0000
3000
0100
0002
0000
2003
0000
,  // measure 45
3010
0000
0000
1100
0000
0000
0011
0000
,  // measure 46
0000
0110
0000
0000
0001
0000
0100
0000
,  // measure 47
1001
0000
0000
1100
0000
0000
0011
0000
,  // measure 48
0000
0110
0000
0000
0001
0000
0100
0000
,  // measure 49
1010
0000
0000
0110
0000
0000
2000
0000
,  // measure 50
3002
0000
2003
0000
,  // measure 51
3002
0000
0000
0003
,  // measure 52
0001
0000
0100
0000
0001
0000
1000
0000
0100
0000
1000
0000
,  // measure 53
0010
0000
1000
0001
1000
0001
0100
0000
,  // measure 54
0010
0000
1000
0001
1000
0001
0100
0000
,  // measure 55
0001
0000
0010
0100
1000
0000
0001
1000
,  // measure 56
0001
0100
0001
1000
0010
0100
0001
0010
,  // measure 57
0100
0000
1000
0100
0010
0001
0200
0000
,  // measure 58
0000
0000
0300
0000
,  // measure 59
1001
0000
0000
0001
0000
0000
0100
0000
0010
0000
0000
0010
0000
0000
1000
0000
,  // measure 60
0100
0000
0000
0100
0000
0000
1000
0000
0010
0000
0000
0010
0000
0000
1000
0000
,  // measure 61
0100
0100
1000
1000
,  // measure 62
0010
0010
0001
0001
,  // measure 63
0100
0010
0100
0010
0100
0010
0100
0010
,  // measure 64
1000
0001
1000
0001
1000
0001
1000
0001
,  // measure 65
2000
0000
3020
0000
,  // measure 66
0032
0000
0203
0000
,  // measure 67
2300
0000
0000
0000
,  // measure 68
3001
0100
0001
0000
2002
0000
3003
0000
,  // measure 69
0110
0110
0110
0110
0001
0010
0100
1000
,  // measure 70
0001
1001
1001
1001
0001
0100
0001
0100
,  // measure 71
0001
0000
1000
0010
0100
0000
0001
0100
,  // measure 72
1000
0100
0001
0000
0001
1000
0100
0000
,  // measure 73
0001
1000
0001
1000
0010
0100
0010
0100
,  // measure 74
0000
0001
0010
0001
1000
0100
1000
0000
,  // measure 75
0010
0000
0100
0001
0000
0001
0010
0000
,  // measure 76
0010
0001
0100
0000
0001
0010
1000
0000
,  // measure 77
0001
0000
0001
0010
0000
0010
0100
0000
,  // measure 78
0001
0010
0001
0100
0001
1000
0001
0010
,  // measure 79
0001
0000
0001
1000
0000
1000
0100
0000
,  // measure 80
0100
1000
0000
1000
0001
0010
0100
1000
,  // measure 81
0010
1000
0010
1000
0001
0100
0001
0100
,  // measure 82
0000
0001
0000
1000
0001
0100
0010
0000
,  // measure 83
1001
0000
0000
0010
0100
0000
1000
0100
,  // measure 84
0000
0010
0001
0000
2002
0000
3003
0000
,  // measure 85
0010
0000
0000
0100
0000
0001
0100
0001
,  // measure 86
0100
0000
0010
1000
0000
0010
0100
0000
,  // measure 87
1001
0000
0000
1100
0000
0000
1001
0000
,  // measure 88
0001
1000
0100
0000
1000
0001
0010
0000
,  // measure 89
0001
0100
1000
0100
0000
0010
0000
1000
,  // measure 90
0002
0023
0230
0300
,  // measure 91
0001
0010
0001
0010
0001
0010
0100
0000
,  // measure 92
1000
0100
0001
0100
1000
0100
0010
0000
,  // measure 93
0001
1000
0010
0100
0000
0001
0100
0000
,  // measure 94
0010
1000
0010
0100
0000
0001
1000
0000
,  // measure 95
0010
1000
0100
1000
0000
0001
0100
0000
,  // measure 96
0010
1000
0001
1000
0000
0001
1000
0000
,  // measure 97
0010
0001
0000
0001
1000
0000
1000
0001
,  // measure 98
0000
0001
0100
0000
0010
0000
1000
0000
,  // measure 99
0010
0100
0010
0000
1000
0100
1000
0000
,  // measure 100
0001
0010
0001
0000
0100
0010
0100
0000
,  // measure 101
0001
0100
0000
0100
1000
0000
1000
0100
,  // measure 102
0000
0100
0001
0000
0001
0010
0001
0000
,  // measure 103
1000
0010
1000
0010
0100
0001
0100
0001
,  // measure 104
1000
0100
0010
0001
0100
0010
0100
0000
,  // measure 105
1001
0000
0000
0000
0001
0010
0100
1000
,  // measure 106
0001
0010
0100
1000
0010
0100
0010
0000
,  // measure 107
1000
0001
1000
0000
0001
1000
0001
0000
,  // measure 108
0100
0010
0100
0010
0100
0010
0100
0000
,  // measure 109
2002
0000
0000
0000
,  // measure 110
0000
0000
0000
3003
,  // measure 111
0010
0100
0000
0010
0100
0000
0001
1000
,  // measure 112
0000
0001
1000
0000
0010
0100
0010
0100
,  // measure 113
0000
2002
0000
0000
,  // measure 114
0000
0000
0000
3003
,  // measure 115
1001
0000
0000
0000
;

//---------------dance-single - ----------------
#NOTES:
     dance-single:
     :
     Medium:
     12:
     0.456824,0.617656,0.305730,0.239626,0.033052,387.000000,350.000000,37.000000,29.000000,0.000000,0.000000,0.456824,0.617656,0.305730,0.239626,0.033052,387.000000,350.000000,37.000000,29.000000,0.000000,0.000000:
// measure 0
0000
0000
0000
0000
,  // measure 1
0000
0000
0000
0000
,  // measure 2
0000
0000
0000
0000
,  // measure 3
0000
0000
0000
0000
,  // measure 4
0000
0000
0000
0000
,  // measure 5
0000
0000
0000
0000
,  // measure 6
0010
0010
0001
0001
,  // measure 7
0100
0100
1000
1000
,  // measure 8
0010
0010
1000
1000
,  // measure 9
0001
0010
0100
1000
,  // measure 10
1001
0000
0000
0000
,  // measure 11
1000
0002
0000
0103
0010
0000
0010
0000
,  // measure 12
1001
0000
0000
0000
,  // measure 13
0000
0001
0000
0000
0100
0000
0010
0100
,  // measure 14
0010
0000
0000
0000
,  // measure 15
0000
1000
0000
0000
0001
0000
0100
0010
,  // measure 16
0100
0000
0000
0000
,  // measure 17
0000
0100
0000
0000
0010
0000
0001
0100
,  // measure 18
0001
0000
0000
0000
,  // measure 19
0000
0010
0100
0000
0010
0000
1000
0001
,  // measure 20
1000
0000
0000
1001
0000
0000
0010
0100
,  // measure 21
0001
0000
0000
1001
0000
0000
0010
1000
,  // measure 22
0001
0000
0000
1001
0000
0000
1000
0000
,  // measure 23
0001
0000
0000
0100
0000
0000
1000
0000
,  // measure 24
0001
0100
0001
0010
,  // measure 25
1000
0010
0001
0010
,  // measure 26
0200
0000
0000
0300
,  // measure 27
0020
0000
0000
0030
,  // measure 28
1001
0000
0000
1000
0000
0100
0000
1000
0000
0000
0000
0000
0001
0000
0000
0000
,  // measure 29
0100
0000
0000
0000
0010
0000
0000
0100
0000
0010
0000
0000
0100
0000
0000
0000
,  // measure 30
1000
0000
0000
0001
0000
0100
0000
0001
0000
0000
0000
0000
0100
0000
0000
0000
,  // measure 31
0010
0000
0100
0010
0000
0000
0100
0010
,  // measure 32
0000
1000
0000
0000
0001
0000
0100
0000
,  // measure 33
1000
0000
0000
0000
1001
0000
0000
0010
,  // measure 34
0000
0100
0110
0000
,  // measure 35
1000
0000
0000
0000
0001
0000
0000
1000
,  // measure 36
0000
0001
0101
0000
,  // measure 37
0010
0000
1000
0010
0000
1000
0000
0010
,  // measure 38
0000
0000
0000
1001
0000
0000
0000
0000
,  // measure 39
0001
0000
0200
0000
0310
0000
0000
0101
,  // measure 40
0000
0100
0020
0000
,  // measure 41
0230
0000
0000
0302
,  // measure 42
2003
0000
0002
3003
,  // measure 43
0200
0000
0000
0000
0300
0000
0001
0100
,  // measure 44
0002
0000
0000
1003
0100
0010
0001
0100
,  // measure 45
0010
0000
0000
0110
0000
0000
0110
0000
,  // measure 46
0000
1001
0000
0000
1001
0000
0000
0000
,  // measure 47
1010
0000
0000
1010
0000
0000
0101
0000
,  // measure 48
0000
0101
0000
0000
1001
0000
0000
0000
,  // measure 49
1100
0000
0000
1100
0000
0000
0001
0000
,  // measure 50
0200
0000
0320
0000
,  // measure 51
2030
0000
0000
0000
,  // measure 52
3001
0000
0100
0000
,  // measure 53
0001
0010
0001
0000
0100
0000
0001
0000
,  // measure 54
1000
0100
1000
0000
0010
0000
1000
0000
,  // measure 55
0001
0000
0100
0010
0100
0000
0010
0100
,  // measure 56
0010
0100
0001
1000
,  // measure 57
0010
0000
0000
0000
1000
0100
2000
0000
,  // measure 58
0000
0000
3000
0000
,  // measure 59
1001
0000
0110
0000
,  // measure 60
1100
0000
0101
0000
,  // measure 61
2001
0001
0001
0100
,  // measure 62
0100
0100
0100
3100
,  // measure 63
1002
1000
1000
0100
,  // measure 64
0100
0100
0100
0103
,  // measure 65
0220
0000
0000
0000
,  // measure 66
0000
0000
0330
0000
,  // measure 67
0002
0000
0000
0000
,  // measure 68
1003
0001
1000
0000
0000
0000
0000
0000
,  // measure 69
0001
0010
0100
1000
0000
0000
0000
0000
,  // measure 70
0001
0010
0100
1000
0000
0000
0000
0000
,  // measure 71
0001
1000
0000
0001
1000
0000
0001
1000
,  // measure 72
0000
0001
1000
0000
0010
0000
0100
0000
,  // measure 73
0002
0000
0000
1000
0000
0000
1003
0000
,  // measure 74
0000
0010
0000
0100
0010
0000
0000
0000
,  // measure 75
1000
0000
0000
0100
0000
0000
0010
0000
,  // measure 76
0000
0001
0000
0000
1000
0000
0010
0000
,  // measure 77
1000
0000
0000
0100
0000
0000
0010
0000
,  // measure 78
0000
0001
0000
0000
0100
0000
0001
0000
,  // measure 79
1000
0000
0000
0010
0000
0000
0001
0000
,  // measure 80
0000
0100
0000
0000
1000
0000
0100
0000
,  // measure 81
0001
0010
0100
1000
,  // measure 82
0000
0001
0000
0000
1000
0000
0010
0000
,  // measure 83
1001
0000
0000
0000
0110
0000
0000
1100
,  // measure 84
0000
0001
1001
0000
,  // measure 85
0010
0000
0000
0100
0000
0000
0001
0000
,  // measure 86
0100
0000
0000
0010
0000
0000
0100
0000
,  // measure 87
0001
0000
0000
0100
0000
0000
0001
0000
,  // measure 88
0001
1000
0001
0000
1000
0001
1000
0000
,  // measure 89
0010
0000
0000
1000
0000
0010
0000
0000
,  // measure 90
2000
3020
0230
0300
,  // measure 91
0001
0010
0001
0000
0001
0000
0100
0000
,  // measure 92
1000
0100
1000
0000
1000
0000
0010
0000
,  // measure 93
0001
0000
0000
0100
0000
0000
0100
0000
,  // measure 94
0010
0000
0000
0100
0000
0000
0100
0000
,  // measure 95
0010
0000
0000
1000
0000
0000
0100
0000
,  // measure 96
0001
1000
0001
1000
0000
0000
0100
0000
,  // measure 97
0010
0000
0000
0001
0000
0000
0100
0000
,  // measure 98
0000
1000
0000
0000
0010
0000
1000
0000
,  // measure 99
0010
0100
0010
0000
1000
0000
0000
0000
,  // measure 100
0001
0010
0001
0000
0100
0000
0000
0000
,  // measure 101
0001
0000
0000
0100
0000
0000
1000
0000
,  // measure 102
0000
0100
0000
0000
0001
0000
0000
0000
,  // measure 103
1000
0010
1000
0000
0100
0000
0000
0000
,  // measure 104
0001
0010
0001
0000
0100
0000
0000
0000
,  // measure 105
1001
0000
0001
0100
,  // measure 106
0010
1000
0010
0000
0100
0010
0100
0000
,  // measure 107
1000
1000
0001
0001
,  // measure 108
0100
0010
0100
0000
0020
0000
0030
0000
,  // measure 109
2002
0000
0000
0000
,  // measure 110
0000
0000
0000
3003
,  // measure 111
0010
0100
0000
0010
0100
0000
0001
1000
,  // measure 112
0000
0001
1000
0000
0010
0100
0010
0100
,  // measure 113
0000
2002
0000
0000
,  // measure 114
0000
0000
0000
3003
,  // measure 115
1001
0000
0000
0000
;

//---------------dance-single - ----------------
#NOTES:
     dance-single:
     :
     Easy:
     9:
     0.324616,0.474087,0.247889,0.347044,0.000000,275.000000,245.000000,30.000000,42.000000,0.000000,0.000000,0.324616,0.474087,0.247889,0.347044,0.000000,275.000000,245.000000,30.000000,42.000000,0.000000,0.000000:
// measure 0
0000
0000
0000
0000
,  // measure 1
0000
0000
0000
0000
,  // measure 2
0000
0000
0000
0000
,  // measure 3
0000
0000
0000
0000
,  // measure 4
0000
0000
0000
0000
,  // measure 5
0000
0000
0000
0000
,  // measure 6
0010
0000
0001
0000
,  // measure 7
0100
0000
1000
0000
,  // measure 8
0010
0000
0001
0000
,  // measure 9
0001
1000
0001
1000
,  // measure 10
1001
0000
0000
0000
,  // measure 11
1000
0010
0100
0001
,  // measure 12
0002
0000
0000
0003
,  // measure 13
0000
0010
0010
0100
,  // measure 14
2002
0000
3003
0000
,  // measure 15
0000
1000
0000
0000
0001
0000
1000
0000
,  // measure 16
2002
0000
3003
0000
,  // measure 17
0000
0001
0000
0000
0010
0000
0100
0000
,  // measure 18
2000
0000
3000
0000
,  // measure 19
0000
0001
0010
0100
,  // measure 20
1000
0000
0000
0001
0000
0000
1000
0000
,  // measure 21
0001
0000
0000
1000
0000
0000
0001
0000
,  // measure 22
0100
0000
0000
0010
0000
0000
0100
0000
,  // measure 23
0001
0000
0000
1000
0000
0000
0001
0000
,  // measure 24
0010
0100
0020
0030
,  // measure 25
1000
0001
2000
3000
,  // measure 26
0020
0000
0030
0000
,  // measure 27
0200
0000
0300
0000
,  // measure 28
1001
0000
0000
0000
,  // measure 29
0000
0000
0000
0000
,  // measure 30
0000
0000
0000
0000
,  // measure 31
1001
0000
0000
0001
0000
0000
0000
0001
,  // measure 32
0000
1000
0000
0000
0001
0000
0010
0000
,  // measure 33
0100
0000
0000
0000
1001
0000
0000
0010
,  // measure 34
0000
0000
0110
0000
,  // measure 35
1000
0000
0000
0000
0001
0000
0000
1000
,  // measure 36
0000
0000
1001
0000
,  // measure 37
0010
0000
0000
0010
0000
0000
0000
0010
,  // measure 38
0000
0000
0000
1001
0000
0000
0000
0000
,  // measure 39
0001
0000
0100
0000
0010
0000
0000
1001
,  // measure 40
0000
0000
0002
0000
,  // measure 41
0203
0000
0000
0300
,  // measure 42
2000
0000
0002
3003
,  // measure 43
0200
0000
0300
0000
,  // measure 44
0002
0000
0000
0003
0100
0000
0001
0000
,  // measure 45
0010
0000
0000
0010
0000
0000
0010
0000
,  // measure 46
0000
0010
0000
0000
1001
0000
0000
0000
,  // measure 47
0100
0000
0000
0100
0000
0000
0100
0000
,  // measure 48
0000
0100
0000
0000
1001
0000
0000
0000
,  // measure 49
1000
0000
0000
0100
0000
0000
0010
0000
,  // measure 50
0001
0000
0100
0000
,  // measure 51
2002
0000
0000
0000
,  // measure 52
3003
0000
0100
0000
,  // measure 53
0001
0100
0010
0000
,  // measure 54
1000
0010
0100
0000
,  // measure 55
1001
0000
0110
0000
,  // measure 56
1000
0100
0010
0001
,  // measure 57
0100
0000
0000
0000
1000
0100
2000
0000
,  // measure 58
0000
0000
3000
0000
,  // measure 59
1001
0000
0110
0000
,  // measure 60
1100
0000
0101
0000
,  // measure 61
2002
0000
0000
0003
,  // measure 62
0010
0000
0010
3000
,  // measure 63
2002
0000
0000
3000
,  // measure 64
0010
0000
0010
0003
,  // measure 65
2002
0000
0000
0000
,  // measure 66
3003
0000
0000
0000
,  // measure 67
0002
0000
0000
0000
,  // measure 68
1003
0001
1000
0000
0000
0000
0000
0000
,  // measure 69
0020
0000
0000
0030
0000
0000
0000
0000
,  // measure 70
0020
0000
0000
0030
0000
0000
0000
0000
,  // measure 71
0001
0000
0000
0001
0000
0000
1000
0000
,  // measure 72
0000
1000
0000
0000
0010
0000
0100
0000
,  // measure 73
0020
0000
0000
0100
0000
0000
0130
0000
,  // measure 74
0000
0010
0000
0100
0010
0000
0000
0000
,  // measure 75
1000
0000
0000
0100
0000
0000
0010
0000
,  // measure 76
0000
0001
0000
0000
1001
0000
0000
0000
,  // measure 77
1000
0000
0000
0100
0000
0000
0010
0000
,  // measure 78
0000
0001
0000
0000
1001
0000
0000
0000
,  // measure 79
1000
0000
0000
0010
0000
0000
0001
0000
,  // measure 80
0000
0100
0000
0000
1001
0000
0000
0000
,  // measure 81
0001
0010
0100
1000
,  // measure 82
0000
0001
0000
0000
1000
0000
0010
0000
,  // measure 83
0100
0000
0000
0000
0100
0000
0000
0100
,  // measure 84
0000
0000
1001
0000
,  // measure 85
0010
0001
0010
0000
,  // measure 86
1000
0100
1000
0000
,  // measure 87
0001
0100
0001
0000
,  // measure 88
1000
0100
0001
0000
,  // measure 89
0010
0100
0010
0000
,  // measure 90
1000
0100
1000
0000
,  // measure 91
0001
0010
0001
0000
,  // measure 92
1000
0010
0001
0000
,  // measure 93
1000
0100
1000
0100
,  // measure 94
1000
0001
1000
0000
,  // measure 95
0001
0100
0001
0100
,  // measure 96
0001
1000
0001
0000
,  // measure 97
0020
0000
0130
2000
,  // measure 98
0000
3001
1001
0000
,  // measure 99
2000
0000
0001
0000
,  // measure 100
0001
0000
3001
0000
,  // measure 101
0200
0000
0310
0002
,  // measure 102
0000
1003
1001
0000
,  // measure 103
0002
0000
1003
0000
,  // measure 104
2000
0000
3001
0000
,  // measure 105
0020
0000
0130
0000
,  // measure 106
0200
0000
0310
0000
,  // measure 107
1000
0100
1000
0100
,  // measure 108
0001
0100
0001
0000
,  // measure 109
2002
0000
0000
0000
,  // measure 110
0000
0000
0000
3003
,  // measure 111
0010
0000
0000
0010
0000
0000
0010
0000
,  // measure 112
0000
0010
0000
0000
0010
0000
0010
0000
,  // measure 113
0000
2002
0000
0000
,  // measure 114
0000
0000
0000
3003
;

//---------------dance-single - ----------------
#NOTES:
     dance-single:
     :
     Beginner:
     5:
     0.203033,0.331861,0.148733,0.181785,0.000000,172.000000,154.000000,18.000000,22.000000,0.000000,0.000000,0.203033,0.331861,0.148733,0.181785,0.000000,172.000000,154.000000,18.000000,22.000000,0.000000,0.000000:
// measure 0
0000
0000
0000
0000
,  // measure 1
0000
0000
0000
0000
,  // measure 2
0000
0000
0000
0000
,  // measure 3
0000
0000
0000
0000
,  // measure 4
0000
0000
0000
0000
,  // measure 5
0000
0000
0000
0000
,  // measure 6
0010
0000
0000
0000
,  // measure 7
0100
0000
0000
0000
,  // measure 8
0010
0000
0000
0000
,  // measure 9
0100
0000
0000
0000
,  // measure 10
0000
0000
0000
0000
,  // measure 11
0010
0000
0010
0000
,  // measure 12
0010
0000
0000
0000
,  // measure 13
0000
0000
0000
0000
,  // measure 14
1001
0000
0000
0000
,  // measure 15
0001
0000
0100
0000
,  // measure 16
1001
0000
0000
0000
,  // measure 17
0000
0000
0100
0000
,  // measure 18
1001
0000
0000
0000
,  // measure 19
0010
0000
0100
0000
,  // measure 20
1000
0000
0000
0000
,  // measure 21
0001
0000
0000
0000
,  // measure 22
1000
0000
0000
0000
,  // measure 23
0001
0000
1000
0000
,  // measure 24
0100
0000
0100
0000
,  // measure 25
0010
0000
0010
0000
,  // measure 26
2002
0000
0000
0000
,  // measure 27
3003
0000
0000
0000
,  // measure 28
1001
0000
0000
0000
,  // measure 29
0000
0000
0000
0000
,  // measure 30
0000
0000
0000
0000
,  // measure 31
1001
0000
0000
0000
0000
0000
0000
0010
,  // measure 32
0000
0010
0000
0000
0010
0000
0000
0000
,  // measure 33
0000
0000
0010
0000
,  // measure 34
0000
0000
0100
0000
,  // measure 35
0000
0000
0100
0000
,  // measure 36
0000
0000
1001
0000
,  // measure 37
0020
0000
0000
0000
0030
0000
0000
1000
,  // measure 38
0000
0000
0000
1000
0000
0000
0000
0000
,  // measure 39
2000
0000
0000
0000
,  // measure 40
3000
0000
0001
0000
,  // measure 41
0100
0000
0000
0000
,  // measure 42
1000
0000
0001
0000
,  // measure 43
0100
0000
0000
0010
,  // measure 44
0010
0000
0100
0000
,  // measure 45
0010
0000
0000
0010
0000
0000
0000
0000
,  // measure 46
0010
0000
0000
0000
,  // measure 47
0100
0000
0000
0100
0000
0000
0000
0000
,  // measure 48
0100
0000
1000
0000
,  // measure 49
1000
0000
0000
0000
,  // measure 50
0010
0000
0100
0000
,  // measure 51
2002
0000
0000
0000
,  // measure 52
3003
0000
0000
0000
,  // measure 53
0001
0000
0010
0000
,  // measure 54
0100
0000
1000
0000
,  // measure 55
0001
0000
0100
0000
,  // measure 56
1000
0000
0001
0000
,  // measure 57
0100
0000
2002
0000
,  // measure 58
0000
0000
3003
0000
,  // measure 59
0010
0000
0010
0000
,  // measure 60
0100
0000
0100
0000
,  // measure 61
2002
0000
0000
0000
,  // measure 62
3003
0000
0000
0000
,  // measure 63
2002
0000
0000
0000
,  // measure 64
3003
0000
0000
0000
,  // measure 65
2002
0000
0000
0000
,  // measure 66
0000
0000
0000
0000
,  // measure 67
0000
0000
0000
0000
,  // measure 68
0000
3003
0000
0000
,  // measure 69
0020
0000
0000
0030
0000
0000
0000
0000
,  // measure 70
0020
0000
0000
0030
0000
0000
0000
0000
,  // measure 71
0001
0000
0000
0001
0000
0000
0001
0000
,  // measure 72
0000
0000
0000
0000
,  // measure 73
0100
0000
0000
0100
0000
0000
0100
0000
,  // measure 74
0000
0000
0000
0000
,  // measure 75
1000
0000
0000
1000
0000
0000
1000
0000
,  // measure 76
0000
0000
0001
0000
,  // measure 77
0010
0000
0000
0010
0000
0000
0010
0000
,  // measure 78
0000
0000
0001
0000
,  // measure 79
0100
0000
0010
0000
,  // measure 80
1000
0000
0001
0000
,  // measure 81
0001
0000
0010
0000
,  // measure 82
0100
0000
1000
0000
,  // measure 83
0100
0000
0000
0000
0100
0000
0000
0100
,  // measure 84
0000
0000
0001
0000
,  // measure 85
0010
0000
0010
0000
,  // measure 86
0100
0000
0100
0000
,  // measure 87
0010
0000
0010
0000
,  // measure 88
0100
0000
0100
0000
,  // measure 89
0001
0000
0001
0000
,  // measure 90
1000
0000
1000
0000
,  // measure 91
0001
0000
0001
0000
,  // measure 92
2000
0000
3000
0000
,  // measure 93
0010
0000
0010
0000
,  // measure 94
0100
0000
0100
0000
,  // measure 95
0001
0000
0001
0000
,  // measure 96
1000
0000
1000
0000
,  // measure 97
0010
0000
0100
0000
,  // measure 98
0000
1001
0000
0000
,  // measure 99
2000
0000
0001
0000
,  // measure 100
0001
0000
3001
0000
,  // measure 101
0100
0000
0000
0001
,  // measure 102
0000
0000
1001
0000
,  // measure 103
0001
0000
1000
0000
,  // measure 104
0001
0000
1000
0000
,  // measure 105
0010
0000
0100
0000
,  // measure 106
1001
0000
0110
0000
,  // measure 107
1000
0000
1000
0000
,  // measure 108
0001
0000
0001
0000
,  // measure 109
2002
0000
0000
0000
,  // measure 110
0000
0000
0000
3003
,  // measure 111
0010
0000
0000
0010
0000
0000
0010
0000
,  // measure 112
0000
0010
0000
0000
0010
0000
0000
0000
,  // measure 113
0000
2002
0000
0000
,  // measure 114
0000
0000
0000
3003
;
