#TITLE:共犯ヘヴンズコード;
#SUBTITLE:;
#ARTIST:D-Evoke(与那嶺雅人/小日向翔);
#TITLETRANSLIT:Kyouhan heaven's code;
#SUBTITLETRANSLIT:;
#ARTISTTRANSLIT:D-Evoke(Masato Yonamine and Sho Kohinata);
#GENRE:beatmaniaIIDX;
#CREDIT:;
#MENUCOLOR:;
#METERTYPE:DDR;
#BANNER:Kyouhan heaven's code.png;
#BACKGROUND:Kyouhan heaven's code-bg.png;
#LYRICSPATH:;
#CDTITLE:;
#MUSIC:Kyouhan heaven's code.ogg;
#OFFSET:0.000;
#SAMPLESTART:51.126;
#SAMPLELENGTH:16.000;
#SELECTABLE:YES;
#LISTSORT:;
#BPMS:0.000=219.000;
#STOPS:;
#BGCHANGES:3.000=Kyouhan heaven's code.avi=1.000=1=0=0,
99999=-nosongbg-=1.000=0=0=0 // don't automatically add -songbackground-
;
#ATTACKS:;

//---------------dance-single - ----------------
#NOTES:
     dance-single:
     :
     Hard:
     13:
     0.659,0.717,0.409,0.600,0.966:
0000
0000
0000
0000
,
0000
0000
0000
0000
,
0000
0000
0000
0000
,
0000
0000
0000
0000
,
0000
0000
0000
0000
0000
0000
0000
0000
0000
0000
0000
0002
,
0000
0000
0000
1003
0000
0000
0010
0000
0100
0000
0000
0002
,
0000
1003
0010
1000
,
0001
0000
0000
1000
0000
0000
0010
0000
0100
0000
0000
0001
,
0000
0000
1001
0000
0000
1001
0000
0000
2000
0000
0000
0000
,
3010
0000
0100
0010
0000
0200
0000
0000
0000
0301
0000
0000
,
1000
0000
0001
1000
0000
0002
0000
0000
0000
0103
0000
0200
,
0000
0000
0310
0100
0000
0000
0110
0000
0000
0110
0000
0000
,
1000
0000
0001
0000
0000
2002
0000
0000
3003
0000
0000
1001
,
0000
0000
0000
0100
0000
0000
1000
0000
0001
0000
0000
0001
,
0000
0000
1000
0000
0000
0100
0000
0000
1000
0000
0000
0001
,
1000
0000
0000
0010
0000
0000
0100
0000
0010
0000
0000
0010
,
0000
0000
1000
0000
0000
0010
0000
0000
0100
0000
0000
1001
,
0000
0000
0000
0100
0000
0000
1000
0000
1000
0000
0000
0001
,
0000
0100
0010
1000
,
0002
0000
0000
0103
0000
0000
1000
0000
0100
0000
0000
0001
,
0000
0000
0000
2002
0000
0000
0000
0000
3003
0000
0000
1001
,
0000
0000
0000
1000
0000
0010
1000
0000
0010
1000
0000
0010
,
0000
0000
0001
0100
0000
0001
0100
0000
0001
0100
0000
0001
,
0100
0000
0000
0001
0000
0000
1000
0000
0001
0000
0000
1000
,
0000
0000
1000
0001
0000
0100
0000
0000
0010
0000
0000
0000
,
1001
1000
0010
0100
,
0001
0100
0010
1000
,
0001
0000
0010
0000
0100
0000
1000
0000
0000
0001
0000
2000
,
0000
0000
3010
1000
0000
0002
0000
0000
0100
0000
0000
0103
,
0000
0000
0001
0100
0000
0000
0010
0000
0000
0100
0000
0000
,
0002
0000
0000
0000
0000
2003
0000
0000
3010
0100
0000
0020
,
0000
0000
0000
1030
0000
0000
0001
0000
0000
1000
0000
0020
,
0000
0000
0000
0000
0000
0130
0000
0000
0100
0001
0000
0001
,
1000
1001
1000
1001
,
2000
0000
0000
3200
0000
0000
1300
0000
0001
0000
0000
1001
,
0000
0000
0000
0001
0000
0000
0100
0000
0010
0000
0000
2002
,
0000
0000
0000
3003
0000
0000
0010
0000
0000
1000
0000
0100
,
0000
2000
3002
0103
,
1001
0000
0000
0000
0000
0110
0000
0000
0010
1000
0000
0020
,
0000
1030
0001
0100
,
1001
0000
0000
0000
0000
0110
0000
0000
0010
1000
0000
0010
,
0000
0000
0000
1000
0000
0002
0000
0000
0000
0000
0000
0103
,
0000
0000
0010
0100
0000
0010
0100
0000
0002
0000
0000
1003
,
0000
0000
0001
1000
0000
0001
1000
0000
0001
0100
0000
0001
,
0100
0000
0001
0000
0000
1000
0000
0000
0001
0000
0000
0001
,
2000
0000
0000
0000
0000
3020
0000
0000
0000
0230
0000
0000
,
0000
0000
0302
0000
0000
0000
0003
0000
0001
0000
0000
0002
,
0000
0000
0103
0001
0000
0100
0001
0000
1000
0000
0000
0001
,
0000
0000
1000
0000
0000
1100
0000
0000
1000
0000
0000
1001
,
0000
0000
0001
0100
0000
0001
0100
0000
0010
0000
0000
0200
,
0000
0000
0020
0000
0000
0330
0000
0000
0001
0100
0000
0001
,
0000
0000
1000
0001
0000
0000
1000
0000
0010
0000
0000
1001
,
0000
0100
1000
0001
,
0100
0000
0000
0010
0000
0000
0001
0000
0100
0000
0000
0010
,
0000
0000
1000
0100
0000
0000
1000
0000
0001
1000
0000
0002
,
0000
0000
0103
0001
0000
1000
0001
0000
0100
0000
0000
0101
,
0000
0000
1000
0000
0000
1001
0000
0000
0010
0100
0000
0020
,
0000
0000
0000
1030
0000
0000
0001
0000
0100
0000
0000
0010
,
0000
0000
0010
1000
0000
0010
0000
0000
0100
0000
0000
2002
,
0000
0000
0000
3003
0000
0000
0000
0000
0001
1000
0000
0010
,
0000
1000
0010
0100
,
0002
0000
0000
0103
0000
0000
2000
0000
0000
0000
0000
3100
,
0000
0000
0010
0100
0000
0010
0100
0000
0001
0000
0000
1001
,
0000
0000
1000
0100
0000
1000
0010
0000
1000
0000
0000
0001
,
0000
0000
1001
0000
0000
0101
0000
0000
1001
0000
0000
1000
,
0000
0000
0010
0100
0000
0001
0100
0000
0010
0000
0000
0200
,
0000
0000
0020
0000
0000
0000
0330
0000
0001
1000
0000
0020
,
0000
0000
0000
1030
0000
0000
0100
0000
1000
0000
0000
0010
,
0000
0100
0100
0100
,
0000
0000
0000
0101
0000
0000
0000
0000
1100
0000
0000
2002
,
0000
0000
0000
0000
0000
3003
0000
0000
0010
0100
0000
0010
,
0000
0000
1000
0001
0000
1000
0010
0000
2000
0000
0000
3002
,
0000
0000
2003
0000
0000
3200
0000
0000
2300
0000
0000
3010
,
0000
0000
0100
0010
0000
0100
0001
0000
0100
0000
0000
0110
,
0000
0000
1000
0001
0000
1000
0000
0000
1001
0000
0000
0110
,
0000
0000
0000
0000
0000
0000
0000
0000
1000
0001
0000
0200
,
0000
0310
1000
0001
,
2000
0000
0000
0000
0000
0000
3002
0000
0000
0000
0000
0203
,
0000
0000
0000
0010
0000
0000
0010
0000
0000
0310
0000
0020
,
0000
2030
3200
2300
,
3010
0000
0000
0010
0000
0200
0000
0000
0010
0000
0000
0320
,
0000
2030
3200
2300
,
3020
0000
0000
0031
0000
0001
0000
0000
1001
0000
0000
2002
,
0000
3003
0000
0110
0000
0000
1000
0000
0000
1001
0000
0000
,
0010
0110
1000
1001
,
0001
0000
0010
0000
0001
0000
0100
0000
0000
0000
0000
2002
,
0000
0000
0000
3003
0000
0110
0000
0000
0000
0000
0000
0000
,
1001
0000
0000
0000
0000
0000
0000
0000
1000
0100
0000
1000
,
0000
0000
0001
0100
0000
0001
0000
0000
1000
0100
0000
1000
,
0000
0000
0000
0000
0000
0010
0100
0000
0010
0000
0000
0100
,
0000
0000
0001
0100
0000
0000
1000
0000
0000
0000
0000
1001
,
0000
0000
0000
0000
0000
0000
0000
0000
0010
1000
0000
0010
,
0000
0000
0001
0100
0000
0001
0000
0000
1000
0010
0000
1000
,
0000
0000
0000
0010
0000
0000
0100
0000
0000
0010
0000
0100
,
0000
0000
0000
1000
0001
1000
0001
0000
0000
0000
0000
1001
,
0000
0000
0000
0100
0010
0100
0010
0000
0000
0000
0000
1001
,
0000
0000
0000
0010
0100
0010
0100
0000
0010
0000
0001
0000
,
1000
0000
0100
0000
0010
0000
0001
0000
0100
0000
0010
0000
,
1000
0000
0100
0000
0001
0000
0000
0000
0000
0000
0000
2002
,
0000
0000
0000
0000
,
0000
0000
0000
0000
,
0000
0000
0000
3003
,
0000
0000
0000
0000
0000
0000
0000
0000
0000
0000
0000
0000
0000
0000
0000
0100
,
0010
0100
0000
0000
0000
0000
0000
0000
0000
0000
0000
0000
0000
0000
0000
0000
;

//---------------dance-single - Copied from----------------
#NOTES:
     dance-single:
     Copied from:
     Medium:
     10:
     0.452,0.493,0.313,0.305,0.461:
0000
0000
0000
0000
,
0000
0000
0000
0000
,
0000
0000
0000
0000
,
0000
0000
0000
0000
,
0000
0000
0000
0000
0000
0000
0000
0000
0000
0000
0000
0002
,
0000
1003
0010
1000
,
0100
1000
0010
0100
,
0001
0100
0010
1000
,
0100
1000
0001
1000
,
0010
0000
0000
0000
0000
1001
0000
0000
0000
0000
0000
0000
,
0100
0000
0000
0000
0000
1001
0000
0000
0000
0000
0000
0100
,
0000
0010
1000
0001
,
1000
0000
1000
0000
0000
1001
0000
0000
0000
0000
0000
1001
,
0000
1000
0100
1000
,
0000
0001
0100
0001
,
0000
1000
0001
1000
,
0010
0000
0000
0100
0000
0000
0000
0000
0010
0000
0000
0100
,
0000
0001
0100
0001
,
1000
0100
1000
0001
,
1000
0000
0000
0010
0000
0000
1000
0000
0000
0000
0000
1001
,
0000
0000
0000
2002
0000
0000
3003
0000
0000
0000
0000
1001
,
0000
1000
0010
1000
,
0100
0001
0010
0001
,
0100
0010
0100
0010
,
1000
0100
0010
0001
,
0100
0000
0000
0000
0000
0100
0000
0000
0000
0100
0000
0000
,
0010
0000
0000
0000
0000
0010
0000
0000
0000
0010
0000
0000
,
1000
0000
0001
0000
1000
0000
0001
0000
0000
0000
0000
1001
,
0000
0000
0000
0000
0000
0000
0000
0000
0010
0000
0000
0100
,
0000
0001
0100
0001
,
1000
0000
0000
0000
0000
1000
0000
0000
0000
0000
0000
1000
,
0000
0000
0000
0001
0000
0000
0100
0000
0000
0001
0000
1000
,
0000
0001
0000
0001
,
0000
1000
0010
1000
,
1000
0000
0000
0001
0000
0000
1000
0000
0001
0000
0000
1001
,
0000
0000
0000
0010
0000
0000
0100
0000
0010
0000
0000
0110
,
0000
0000
0000
0001
0000
0000
0100
0000
0000
0000
0000
1001
,
0000
1000
0100
0010
,
0002
0000
0000
0000
0000
1003
0000
0000
0000
0000
0000
1001
,
0000
0001
0010
0100
,
2000
0000
0000
0000
0000
3001
0000
0000
0000
0000
0000
1001
,
0000
0000
0000
0000
0000
0020
0000
0000
0000
0000
0000
1030
,
0000
0000
0000
0001
0000
0000
0100
0000
0001
0000
0000
1000
,
0000
0001
0100
0010
,
1000
0000
0100
0000
0000
0010
0000
0000
0001
0000
0000
0000
,
2000
0000
0000
3020
0000
0000
0130
0000
,
0000
0000
0000
1001
0000
0000
0000
0000
0000
0000
0000
0000
0000
0000
0000
0000
0000
0000
0000
0000
0000
0000
1001
0000
,
0002
0000
0003
0001
0000
0000
0001
0000
1000
0000
0000
0001
,
0000
0000
1000
0000
0000
0100
0000
0000
0000
0000
0000
1001
,
0000
0000
0000
0100
0000
0000
0100
0000
0010
0000
0000
0200
,
0000
0000
0000
0000
0000
0300
0000
0000
0000
0000
0000
1001
,
0000
0000
0000
0001
0000
0000
1000
0000
0000
0000
0000
1001
,
0000
0100
1000
0001
,
0100
0000
0000
0010
0000
0000
0000
0000
0110
0000
0000
0000
,
0000
0000
0000
0100
0000
0000
1000
0000
0001
0000
0000
0002
,
0000
0000
0003
0100
0000
0000
0010
0000
0100
0000
0000
0001
,
0000
0000
1000
0000
0000
0001
0000
0000
0010
0000
0000
0020
,
0000
0000
0000
1030
0000
0000
0001
0000
0100
0000
0000
0010
,
0000
0000
0010
0000
0000
0010
0000
0000
0100
0000
0000
2002
,
0000
0000
0000
3003
0000
0000
0000
0000
0001
0000
0000
0010
,
0000
1000
0010
0100
,
0002
0000
0000
0103
0000
0000
2000
0000
0000
0000
0000
3100
,
0000
0000
0000
0100
0000
0000
0100
0000
0000
0000
0000
1001
,
0000
0000
0000
0100
0000
0000
0010
0000
1000
0000
0000
0001
,
0000
0000
1000
0000
0000
0001
0000
0000
0000
0000
0000
1001
,
0000
0000
0000
0100
0000
0000
0100
0000
0010
0000
0000
0200
,
0000
0000
0000
0000
0000
0000
0300
0000
0000
0000
0000
0020
,
0000
0000
0000
1030
0000
0000
0100
0000
0000
0000
0000
0010
,
0000
0100
0100
0100
,
0000
0000
0000
0101
0000
0000
0000
0000
1100
0000
0000
2002
,
0000
0000
0000
0000
0000
3003
0000
0000
0010
0000
0000
0010
,
0000
0000
0000
0001
0000
0000
0010
0000
1000
0000
0000
0001
,
0000
0000
1000
0000
0000
0100
0000
0000
1000
0000
0000
0010
,
0000
0000
0000
0010
0000
0000
0001
0000
0000
0000
0000
0010
,
0000
0000
1000
0000
0000
0001
0000
0000
1000
0000
0000
0010
,
0000
0000
0000
0000
0000
0000
0000
0000
1000
0000
0000
0200
,
0000
0310
1000
0001
,
2000
0000
0000
0000
0000
0000
3002
0000
0000
0000
0000
0203
,
0000
0000
0000
0010
0000
0000
0010
0000
0000
0310
0000
0020
,
0000
1030
0000
1000
,
0010
0000
0000
0000
0000
0200
0000
0000
0000
0000
0000
0320
,
0000
1030
0000
0001
,
0020
0000
0000
0000
0000
0031
0000
0000
0000
0000
0000
1001
,
0000
0110
0000
1001
,
0000
0110
0000
1001
,
0001
0000
0010
0000
0001
0000
0100
0000
0000
0000
0000
2002
,
0000
0000
0000
3003
0000
0110
0000
0000
0000
0000
0000
0000
,
1001
0100
0000
0100
,
0000
0010
0000
0010
,
0000
1000
0000
1000
,
0000
0001
0000
1000
,
0001
0100
0000
0100
,
0000
0010
0000
0010
,
0000
0000
0000
1000
0000
0000
0000
0000
0000
0001
0000
0001
,
0000
0000
0000
1000
0000
0000
0001
0000
0000
0000
0000
1001
,
0000
0000
0000
0001
0000
0000
1000
0000
0000
0000
0000
1001
,
0000
1000
0001
0100
,
0020
0000
2030
0000
,
3002
0000
0000
0000
0000
0000
0003
0000
0000
0000
0000
2002
,
0000
0000
0000
0000
,
0000
0000
0000
0000
,
0000
0000
0000
0000
,
0000
0000
0000
0000
,
3003
0000
0000
0000
;

//---------------dance-single - ----------------
#NOTES:
     dance-single:
     :
     Beginner:
     3:
     0.251,0.448,0.148,0.287,0.013: // measure 1
0000
0000
0000
0000
,  // measure 2
0000
0000
0000
0000
,  // measure 3
0000
0000
0000
0000
,  // measure 4
0000
0000
0000
0000
,  // measure 5
0000
0000
0000
0000
,  // measure 6
0000
1000
0000
1000
,  // measure 7
0000
0001
0000
0001
,  // measure 8
0000
1000
0000
1000
,  // measure 9
0000
0001
0000
0001
,  // measure 10
0000
0000
0000
0000
0000
1001
0000
0000
0000
0000
0000
0000
,  // measure 11
0000
0000
0000
0000
0000
1001
0000
0000
0000
0000
0000
0000
,  // measure 12
0000
0100
0000
0100
,  // measure 13
0000
0000
0000
0000
0000
0100
0000
0000
0000
0000
0000
0000
,  // measure 14
0000
1000
0000
1000
,  // measure 15
0000
1000
0000
1000
,  // measure 16
0000
0001
0000
0001
,  // measure 17
0000
0001
0000
0001
,  // measure 18
0000
1000
0000
1000
,  // measure 19
0000
0001
0000
0001
,  // measure 20
0000
1000
0000
0001
,  // measure 21
0000
0000
0000
0000
,  // measure 22
0000
0100
0000
0100
,  // measure 23
0000
0010
0000
0010
,  // measure 24
0000
0100
0000
0100
,  // measure 25
0000
0010
0000
0010
,  // measure 26
0000
1000
0000
1000
,  // measure 27
0000
0001
0000
0001
,  // measure 28
0001
0000
1000
0000
,  // measure 29
2002
0000
3003
0000
,  // measure 30
0010
0000
0010
0000
,  // measure 31
0020
0000
0030
0000
,  // measure 32
0100
0000
0100
0000
,  // measure 33
0200
0000
0300
0000
,  // measure 34
0001
0000
0001
0000
,  // measure 35
0002
0000
0003
0000
,  // measure 36
1000
0000
1000
0000
,  // measure 37
2000
0000
3000
0000
,  // measure 38
0010
0000
0100
0000
,  // measure 39
0010
0000
0000
0000
,  // measure 40
1000
0000
0001
0000
,  // measure 41
1000
0000
0000
0000
,  // measure 42
0001
0000
0001
0000
,  // measure 43
1000
0000
1000
0000
,  // measure 44
0001
0000
0001
0000
,  // measure 45
0100
0000
0100
0000
,  // measure 46
0020
0000
0000
0000
,  // measure 47
0030
0000
0000
0000
,  // measure 48
1001
0000
1000
0000
,  // measure 49
2000
0000
3000
0000
,  // measure 50
0001
0000
0001
0000
,  // measure 51
0002
0000
0003
0000
,  // measure 52
0100
0000
0100
0000
,  // measure 53
0010
0000
0010
0000
,  // measure 54
0100
0000
0010
0000
,  // measure 55
0200
0000
0300
0000
,  // measure 56
0001
0000
0001
0000
,  // measure 57
2002
0000
3003
0000
,  // measure 58
1000
0000
1000
0000
,  // measure 59
2002
0000
3003
0000
,  // measure 60
0200
0000
0300
0000
,  // measure 61
0020
0000
0030
0000
,  // measure 62
0100
0000
0100
0000
,  // measure 63
0200
0000
0300
0000
,  // measure 64
0001
0000
0001
0000
,  // measure 65
0001
0001
0001
0000
,  // measure 66
1000
0000
1000
0000
,  // measure 67
2000
0000
3000
0000
,  // measure 68
0020
0000
0000
0000
,  // measure 69
0030
0000
0000
0000
,  // measure 70
0000
0110
0000
0110
,  // measure 71
0000
0001
0001
0000
,  // measure 72
0000
1000
0000
1000
,  // measure 73
0000
0001
0000
0001
,  // measure 74
0000
0100
0000
0100
,  // measure 75
0000
0010
0000
0010
,  // measure 76
0010
0000
0100
0000
,  // measure 77
0001
0000
1000
0000
,  // measure 78
0001
0000
1000
0000
,  // measure 79
2002
0000
3003
0000
,  // measure 80
0000
0010
0000
0010
,  // measure 81
0000
0010
0000
0000
,  // measure 82
1001
0000
0100
0000
,  // measure 83
0200
0000
0300
0000
,  // measure 84
0000
1001
0000
0001
,  // measure 85
0000
1001
0000
0000
,  // measure 86
0020
0000
0030
0000
,  // measure 87
2002
0000
3003
0000
,  // measure 88
0000
0100
0000
0100
,  // measure 89
0000
0100
0000
0100
,  // measure 90
0000
0001
0000
0001
,  // measure 91
0000
1000
0000
1000
,  // measure 92
0000
0010
0000
0010
,  // measure 93
0000
0010
0000
0010
,  // measure 94
0000
1000
0000
0000
,  // measure 95
2002
0000
3003
0000
,  // measure 96
2002
0000
3003
0000
,  // measure 97
2002
0000
3003
0000
,  // measure 98
0010
0000
0010
0000
,  // measure 99
0010
0000
0000
0000
,  // measure 100
2002
0000
0000
0000
,  // measure 101
0000
0000
0000
0000
,  // measure 102
0000
0000
0000
0000
,  // measure 103
0000
0000
0000
0000
,  // measure 104
3003
0000
0000
0000
;

//---------------dance-single - Copied from ----------------
#NOTES:
     dance-single:
     Copied from:
     Easy:
     6:
     0.313,0.403,0.244,0.235,0.061: // measure 1
0000
0000
0000
0000
,  // measure 2
0000
0000
0000
0000
,  // measure 3
0000
0000
0000
0000
,  // measure 4
0000
0000
0000
0000
,  // measure 5
0000
0000
0000
0000
,  // measure 6
0000
1000
0000
0100
,  // measure 7
0000
0001
0000
0100
,  // measure 8
0000
1000
0000
0100
,  // measure 9
0000
0001
0000
0100
,  // measure 10
0000
0000
0000
0000
0000
1001
0000
0000
0000
0000
0000
0000
,  // measure 11
0000
0000
0000
0000
0000
1001
0000
0000
0000
0000
0000
0000
,  // measure 12
0000
0100
0000
0010
,  // measure 13
0000
0000
0000
0000
0000
2002
0000
0000
0000
3003
0000
0000
,  // measure 14
0000
1000
0000
0001
,  // measure 15
0000
1000
0000
0001
,  // measure 16
0000
0100
0000
0010
,  // measure 17
0000
0100
0000
0010
,  // measure 18
0000
1000
0100
1000
,  // measure 19
0000
0001
0100
0001
,  // measure 20
0000
1000
0000
0001
,  // measure 21
0000
0220
0000
0330
,  // measure 22
0000
0100
0000
0010
,  // measure 23
0000
0100
0000
0010
,  // measure 24
0000
1000
0000
0100
,  // measure 25
0000
0010
0000
0001
,  // measure 26
0000
1000
0001
1000
,  // measure 27
0000
0001
1000
0001
,  // measure 28
0001
0000
0000
0000
0000
0000
1000
0000
0000
0000
0000
2002
,  // measure 29
0000
0000
3003
0000
,  // measure 30
0010
0000
0010
0000
,  // measure 31
1000
0001
1000
0000
,  // measure 32
0100
0000
0100
0000
,  // measure 33
0001
1000
0001
0000
,  // measure 34
0001
0000
0001
0000
,  // measure 35
0100
0000
0100
0000
,  // measure 36
1000
0000
1000
0000
,  // measure 37
0010
0000
0010
0000
,  // measure 38
1000
0100
1000
0000
,  // measure 39
0010
0000
0010
0000
,  // measure 40
0001
0100
0001
0000
,  // measure 41
0100
0000
0100
0000
,  // measure 42
0001
0000
1001
0000
,  // measure 43
1000
0000
1001
0000
,  // measure 44
0010
0000
0010
0000
,  // measure 45
0100
0100
0100
0000
,  // measure 46
0020
0000
0000
0000
,  // measure 47
0030
0000
0000
0000
,  // measure 48
1001
0000
1000
0000
,  // measure 49
1000
0001
1000
0000
,  // measure 50
0001
0000
0001
0000
,  // measure 51
0002
0000
0003
0000
,  // measure 52
0100
0000
0100
0000
,  // measure 53
0010
0100
0010
0000
,  // measure 54
1000
0000
0010
0000
,  // measure 55
2002
0000
3003
0000
,  // measure 56
0001
0000
0001
0000
,  // measure 57
1000
0001
1000
0000
,  // measure 58
1000
0000
1000
0000
,  // measure 59
0001
1000
0001
0000
,  // measure 60
0100
0000
1001
0000
,  // measure 61
0010
0000
1001
0000
,  // measure 62
0100
0100
0100
0000
,  // measure 63
2002
0000
3003
0000
,  // measure 64
0001
0100
0001
0000
,  // measure 65
0010
0100
0001
0000
,  // measure 66
1000
0100
1000
0000
,  // measure 67
0220
0000
0330
0000
,  // measure 68
0020
0000
0230
0000
,  // measure 69
0302
0000
1003
0000
,  // measure 70
0000
1001
0000
1001
,  // measure 71
0000
2002
0000
3003
,  // measure 72
0000
1000
0000
1000
,  // measure 73
0000
0001
0100
0001
,  // measure 74
0000
0100
0010
0100
,  // measure 75
0000
0010
0000
0010
,  // measure 76
0010
0000
0100
0000
,  // measure 77
0001
0000
1000
0000
,  // measure 78
0001
0000
1000
0000
,  // measure 79
2002
0000
0000
0000
0000
0000
3003
0000
0000
0000
0000
1001
,  // measure 80
0000
0010
0000
0010
,  // measure 81
0000
0000
0000
0010
0000
0000
0000
0000
0000
0000
0000
1001
,  // measure 82
0000
0000
0100
0000
,  // measure 83
0200
0000
0000
0000
0000
0000
0300
0000
0000
0000
0000
0100
,  // measure 84
0000
1001
0000
1001
,  // measure 85
0000
1001
0000
1001
,  // measure 86
0020
0000
0000
0000
0000
0000
0030
0000
0000
0000
0000
2002
,  // measure 87
0000
0000
3003
0000
,  // measure 88
0001
0100
0000
0100
,  // measure 89
0000
0100
0000
0100
,  // measure 90
0000
0001
0000
0001
,  // measure 91
0000
1000
0001
1000
,  // measure 92
0000
0010
0000
0010
,  // measure 93
0000
0010
0000
0010
,  // measure 94
0000
0000
0000
1000
0000
0000
0000
0000
0000
0000
0000
1001
,  // measure 95
0000
0000
0000
0100
0000
0000
0010
0000
0000
0000
0000
1001
,  // measure 96
0000
0000
0000
0100
0000
0000
0010
0000
0000
0000
0000
1001
,  // measure 97
0000
0100
0010
0000
,  // measure 98
1000
0000
0001
0000
,  // measure 99
1000
0000
1000
0000
1000
0000
0000
0000
0000
0000
0000
2002
,  // measure 100
0000
0000
0000
0000
,  // measure 101
0000
0000
0000
0000
,  // measure 102
0000
0000
0000
0000
,  // measure 103
0000
0000
0000
0000
,  // measure 104
3003
0000
0000
0000
;
