#TITLE:壊Rave*it!! 壊Rave*it!!;
#SUBTITLE:;
#ARTIST:LeaF;
#TITLETRANSLIT:KowaRave it!! KowaRave it!!;
#SUBTITLETRANSLIT:;
#ARTISTTRANSLIT:;
#GENRE:;
#CREDIT:;
#BANNER:KowaRave it!! KowaRave it!!.png;
#BACKGROUND:KowaRave it!! KowaRave it!!-bg.png;
#LYRICSPATH:;
#CDTITLE:;
#MUSIC:KowaRave it!! KowaRave it!!.ogg;
#OFFSET:0.236000;
#SAMPLESTART:4.906857;
#SAMPLELENGTH:11.999999;
#SELECTABLE:YES;
#DISPLAYBPM:140.000000:280.000000;
#BPMS:0.000000=280.000000
,56.000000=140.000000
,60.000000=280.000000
,68.000000=140.000000
,72.000000=280.000000
,84.000000=140.000000
,96.000000=280.000000
,168.000000=140.000000
,198.000000=844.000000
,204.000000=1120.000000
,218.000000=280.000000
,220.000000=1120.000000
,236.000000=280.000000
,237.000000=1120.000000
,241.000000=280.000000
,243.000000=1120.000000
,249.000000=140.000000
,250.000000=1120.000000
,255.000000=280.000000
,256.000000=1120.000000
,258.000000=280.000000
,264.000000=140.000000
,265.000000=560.000000
,287.000000=280.000000
,314.000000=140.000000
,316.000000=280.000000
,384.000000=1120.000000
,388.000000=140.000000
,394.000000=840.000000
,400.000000=280.000000
,466.000000=140.000000
;
#STOPS:198.000000=0.429000,
204.000000=0.161000,
205.000000=0.161000,
206.000000=0.161000,
207.000000=0.161000,
208.000000=0.161000,
209.000000=0.161000,
210.000000=0.161000,
211.000000=0.161000,
212.000000=0.161000,
213.000000=0.161000,
214.000000=0.161000,
215.000000=0.161000,
216.000000=0.161000,
217.000000=0.161000,
220.000000=0.161000,
221.000000=0.161000,
222.000000=0.161000,
223.000000=0.161000,
224.000000=0.161000,
225.000000=0.161000,
226.000000=0.161000,
227.000000=0.161000,
228.000000=0.161000,
229.000000=0.161000,
230.000000=0.161000,
231.000000=0.161000,
232.000000=0.375000,
233.000000=0.161000,
234.000000=0.161000,
235.000000=0.161000,
237.000000=0.161000,
238.000000=0.161000,
239.000000=0.161000,
240.000000=0.161000,
243.000000=0.161000,
244.000000=0.161000,
245.000000=0.161000,
246.000000=0.161000,
247.000000=0.161000,
248.000000=0.161000,
250.000000=0.161000,
251.000000=0.161000,
252.000000=0.161000,
253.000000=0.161000,
254.000000=0.161000,
256.000000=0.161000,
257.000000=0.161000,
265.000000=0.214000,
266.000000=0.054000,
266.500000=0.054000,
267.000000=0.107000,
268.000000=0.107000,
269.000000=0.054000,
269.500000=0.161000,
270.000000=0.071000,
270.666656=0.071000,
271.333344=0.143000,
272.000000=0.054000,
272.500000=0.107000,
273.500000=0.054000,
274.000000=0.161000,
274.500000=0.161000,
275.000000=0.054000,
275.500000=0.161000,
276.000000=0.071000,
277.000000=0.071000,
277.666656=0.071000,
278.000000=0.214000,
279.000000=0.054000,
279.500000=0.054000,
280.000000=0.161000,
281.000000=0.107000,
281.500000=0.054000,
282.000000=0.161000,
282.500000=0.107000,
283.000000=0.080000,
284.500000=0.214000,
285.500000=0.214000,
286.500000=0.214000,
291.000000=0.214000,
306.000000=0.214000,
312.500000=0.214000,
313.000000=0.214000,
313.500000=0.214000,
387.000000=0.214000
;
#BGCHANGES:;
#KEYSOUNDS:;
#ATTACKS:;

//---------------dance-single - ----------------
#NOTES:
     dance-single:
     :
     Hard:
     16:
     0.885306,1.648338,0.931264,0.372506,0.114292,732.000000,622.000000,110.000000,44.000000,0.000000,0.000000,0.885306,1.648338,0.931264,0.372506,0.114292,732.000000,622.000000,110.000000,44.000000,0.000000,0.000000:
// measure 0
0000
0000
0000
0000
,  // measure 1
0000
0000
0000
0000
,  // measure 2
0000
0000
0000
0000
,  // measure 3
0000
0000
0000
0000
,  // measure 4
0000
0000
0000
0000
,  // measure 5
0000
0000
0000
0000
,  // measure 6
2000
0000
3001
0200
0000
0310
0100
0000
,  // measure 7
0002
0000
1003
0020
0000
0130
0010
0000
,  // measure 8
1000
0100
1000
0000
0001
0010
0001
0000
,  // measure 9
1000
0010
1000
0000
0001
0010
0001
0000
,  // measure 10
2000
0000
3100
0020
0000
0031
0100
0000
,  // measure 11
0002
0000
0013
0200
0000
1300
0010
0000
,  // measure 12
1000
0100
1000
0000
0001
0100
0001
0000
,  // measure 13
1000
0010
0100
0001
,  // measure 14
0001
0001
0001
0100
0100
0100
0001
0100
,  // measure 15
0010
0100
0010
0100
0010
0000
1000
0100
,  // measure 16
1000
0100
1000
0000
0022
0000
0033
0000
,  // measure 17
1000
1000
1000
0010
0010
0010
1000
0010
,  // measure 18
0100
0010
0000
1000
0001
0000
1100
0000
,  // measure 19
0022
0000
0000
0033
,  // measure 20
2002
0000
0000
3003
,  // measure 21
0010
0000
0100
0000
0010
0000
1000
0100
1000
0000
0010
0100
0010
0000
0100
0000
,  // measure 22
0001
0000
0100
0001
0100
0000
0010
0000
1000
0000
0001
0000
0100
0000
0000
0000
,  // measure 23
0010
0000
1000
0000
0100
0000
1000
0001
1000
0000
0001
1000
0001
0000
0000
0000
,  // measure 24
0100
0010
0100
0010
1000
0000
0001
0100
,  // measure 25
0001
0100
0010
0000
1001
0000
0001
0100
,  // measure 26
0010
1000
0001
0100
0010
1000
0001
0100
,  // measure 27
0010
0100
0001
1000
0100
1000
0001
0010
,  // measure 28
0001
1000
0100
1000
0100
1000
0010
0100
,  // measure 29
0001
0100
0001
0100
0010
0000
1000
0100
,  // measure 30
1000
0010
0100
0010
1000
0100
1000
0001
,  // measure 31
0100
0001
0010
0001
0010
0001
0100
0010
,  // measure 32
1000
0100
1000
0100
0010
0001
0010
0001
,  // measure 33
0100
0000
0010
1000
0100
0000
0010
0001
,  // measure 34
0100
0000
0010
0100
0010
0000
1000
0100
,  // measure 35
1000
0100
1000
0001
0010
0000
0001
0100
,  // measure 36
0010
0100
0001
1000
0100
0010
0001
0100
,  // measure 37
0010
1000
0010
0100
0001
0100
0010
0000
,  // measure 38
1000
0100
1000
0100
0010
0001
0010
0001
,  // measure 39
0100
0000
0001
0000
1000
0100
0010
0001
,  // measure 40
0100
0010
0100
0010
1000
0001
1000
0001
,  // measure 41
0100
0000
0010
0000
1000
0100
0010
0001
,  // measure 42
1000
0000
0001
0100
1001
0000
1000
0010
,  // measure 43
1001
0000
0001
0010
1100
0000
1000
0010
,  // measure 44
0101
0100
1010
1010
1001
0001
1100
1100
,  // measure 45
0011
0001
0101
0101
1001
1000
0110
0110
,  // measure 46
1001
1001
1100
1100
1001
1001
0101
0101
,  // measure 47
1000
0010
1000
0010
0100
0010
0100
0010
1000
0100
0010
0001
1000
0100
0010
0001
,  // measure 48
2000
0000
3001
0010
0100
0000
0010
0001
,  // measure 49
0100
0010
1000
0001
2002
3003
0000
0000
,  // measure 50
0000
0000
0000
0000
,  // measure 51
1010
1010
1010
0101
,  // measure 52
0101
0101
1010
0101
,  // measure 53
1100
1100
1100
0011
,  // measure 54
0011
0110
2002
3003
,  // measure 55
0110
0110
0110
1001
,  // measure 56
1001
1001
1100
0011
,  // measure 57
1100
1100
1100
0110
,  // measure 58
1001
0010
0010
1001
,  // measure 59
1000
0001
0100
0000
1100
0000
0101
0000
,  // measure 60
1100
0000
0000
0001
0000
0100
0000
1000
0000
1001
0000
0000
,  // measure 61
1100
1001
0101
1001
,  // measure 62
0110
0000
0000
0000
0100
0010
0000
1000
0001
0000
0000
0000
1100
0000
0000
0000
,  // measure 63
0101
0000
1100
0000
0110
0000
1000
0001
,  // measure 64
0100
1001
0020
0230
,  // measure 65
0302
2003
3002
0203
,  // measure 66
0320
0000
1030
0000
0001
1000
0100
0000
,  // measure 67
0010
0000
0000
0000
0000
0000
1000
0000
0000
0001
0000
0000
0001
0000
0000
0000
0001
0000
0000
0000
1000
0000
0000
0000
,  // measure 68
0010
0100
0000
0010
0100
0001
1000
0001
,  // measure 69
1000
0000
0000
0000
1000
0000
0000
0000
0001
0000
0000
0000
0100
0000
0000
0000
0000
0000
0010
0000
0000
1000
0000
0000
,  // measure 70
0001
0100
0000
0010
1000
0010
1000
0000
,  // measure 71
0010
1100
0101
1100
,  // measure 72
0101
0000
0000
0000
1001
0000
0000
0000
0000
0000
0000
0020
0000
0000
1000
0000
,  // measure 73
0130
1000
0010
0100
0000
1000
0001
0000
,  // measure 74
1100
0000
0000
0000
1100
0000
0000
0000
1100
0000
0000
0000
0000
0000
0000
0001
0000
0000
0100
0000
0000
0010
0000
0000
,  // measure 75
0100
0000
0001
1000
0000
0001
0100
0000
,  // measure 76
0001
0000
0000
0000
1000
0000
0000
0000
0001
0000
0000
0000
2000
0000
0000
0010
0000
0000
3100
0000
0000
0010
0000
0000
,  // measure 77
0000
0000
0000
1001
0000
0000
0000
0000
0000
1000
0000
0000
0100
0000
0000
0000
0000
0000
0010
0000
0000
0000
0001
0000
,  // measure 78
0000
0100
1010
0101
1010
0001
0110
0000
,  // measure 79
1001
0000
0000
0000
,  // measure 80
0020
0000
0000
1000
0000
0000
0230
0000
,  // measure 81
0000
0001
0000
0000
0310
0000
0001
1000
,  // measure 82
0001
0000
0110
0000
0000
1100
0000
0000
,  // measure 83
0101
0000
0000
1100
0000
0000
0100
0010
,  // measure 84
1000
0001
0100
0000
0010
1000
0010
0100
,  // measure 85
0000
1000
0100
0000
1000
0001
0100
0010
,  // measure 86
0000
0000
1010
0000
0000
0011
0000
0000
,  // measure 87
1100
0000
0000
0101
0000
0000
0110
0000
,  // measure 88
1001
0000
0000
1100
0000
0001
0100
0000
,  // measure 89
1001
0000
0000
0101
0000
1000
0100
0000
,  // measure 90
0001
0010
0100
0000
1000
0010
0100
0000
,  // measure 91
0001
1000
0010
0000
1000
0001
0100
0000
,  // measure 92
1010
0000
0000
0101
0000
1000
0100
0000
,  // measure 93
0101
0000
0000
1100
0000
0001
0100
0000
,  // measure 94
0020
1000
0100
1030
,  // measure 95
0020
0001
0100
0031
,  // measure 96
0220
0000
0000
0330
,  // measure 97
1000
0010
0100
0001
2000
0000
3002
0000
,  // measure 98
0013
0010
0001
0100
2002
0000
0000
0000
,  // measure 99
0000
0000
0000
0000
,  // measure 100
3003
0000
0000
0000
0010
1000
0100
1000
,  // measure 101
0010
0100
0001
0000
0100
0001
0100
0010
,  // measure 102
0100
0001
1000
0000
0001
0100
0010
0000
,  // measure 103
0100
0010
1000
0000
1000
0001
0100
0000
,  // measure 104
0001
1000
0100
0000
1000
0100
1000
0100
,  // measure 105
0010
0001
0010
0000
0001
0100
0001
0100
,  // measure 106
0010
0100
0010
0000
1000
0010
0100
0000
,  // measure 107
0001
0100
0010
0000
2002
0000
3003
0000
,  // measure 108
1100
0000
1001
0000
1000
0100
1000
0100
,  // measure 109
1000
0001
0100
0000
0001
0100
0001
0100
,  // measure 110
0001
1000
0100
0000
0001
0010
0100
0000
,  // measure 111
1000
0100
0010
0000
0001
0100
0010
1000
,  // measure 112
0010
0100
0001
0000
1000
0010
0100
0010
,  // measure 113
1000
0010
0100
0000
0001
0100
0001
0010
,  // measure 114
0001
1000
0100
0000
1000
0010
0100
0001
,  // measure 115
0010
0100
1000
0000
0202
0000
0000
0000
,  // measure 116
0303
0000
0000
0000
0200
0000
0301
1000
,  // measure 117
0020
0000
0130
0001
1000
0100
0010
0000
,  // measure 118
1001
0000
0000
0000
;

//---------------dance-single - ----------------
#NOTES:
     dance-single:
     :
     Medium:
     13:
     0.547874,0.998993,0.169321,0.270913,0.016932,453.000000,433.000000,20.000000,32.000000,0.000000,0.000000,0.547874,0.998993,0.169321,0.270913,0.016932,453.000000,433.000000,20.000000,32.000000,0.000000,0.000000:
0000
0000
0000
0000
,
0000
0000
0000
0000
,
0000
0000
0000
0000
,
0000
0000
0000
0000
,
0000
0000
0000
0000
,
0000
0000
0000
0000
,
0001
0000
0000
0100
0000
0000
1000
0000
,
1000
0000
0000
0100
0000
0000
0001
0000
,
1000
0010
0100
0001
,
1000
0010
0100
0001
,
1000
0000
0000
0100
0000
0000
0001
0000
,
0001
0000
0000
0100
0000
0000
1000
0000
,
0001
0010
0100
1000
,
0010
0100
0001
1000
,
0101
1000
0001
1000
,
0010
0010
0010
0100
,
0100
0100
1001
0000
,
1100
0001
0100
0001
,
1001
0000
0000
1001
0000
0000
0020
0000
,
0200
0330
1001
0000
,
0020
0000
0030
0000
,
0100
0100
0001
0010
,
1000
0100
1000
0001
1000
0100
1000
0000
,
0010
0001
0100
1000
,
0001
0001
0001
1000
,
1000
0000
0010
0000
0110
0000
0001
1000
,
0001
0000
1000
0001
1000
0000
0010
0000
,
0100
0000
0001
0010
0001
0000
1000
0000
,
0010
0100
0001
0001
,
0001
0000
1000
0100
1000
0000
0010
0000
,
0100
0001
1000
1000
,
1000
0000
0010
0100
0010
0000
1000
0000
,
0001
0001
0100
0100
,
0010
0100
0010
0000
0200
0000
0300
0000
,
0001
0010
0100
1000
,
0001
0000
1000
0001
1000
0000
0100
0000
,
0010
0001
0100
0001
,
0010
0000
0100
1000
0100
0000
0010
0000
,
0001
1000
0001
0000
0100
0000
0100
0000
,
0200
0300
0010
1000
,
0001
1000
0001
0000
0100
0000
0100
0000
,
0200
0300
0010
1000
,
0002
0000
0013
0100
2000
0000
3100
0010
,
0002
0000
0103
0010
2000
0000
3010
0100
,
0002
0000
0013
1000
0002
0000
0013
1000
,
0002
0000
0103
1000
0002
0000
0103
1000
,
0010
0100
0010
0100
0001
1000
0001
1000
,
0010
0000
0010
0000
0010
0000
0010
0000
1000
0001
1000
0001
1000
0001
1000
0000
,
0010
0000
0100
0001
0010
0000
0001
0100
,
0010
1000
0010
0100
0002
0003
0000
0000
,
0000
0000
0000
0000
,
0010
1000
0100
1000
,
0010
0001
0100
0001
,
0010
1000
0100
0010
,
0001
0000
1001
0000
,
0010
1000
0100
1000
,
0001
0010
0001
0100
,
0010
1000
0010
0100
,
1001
0000
0000
1000
,
0000
0100
0000
0010
,
1000
0100
0000
1000
,
0001
1000
0010
0100
,
0010
0200
0301
0100
,
0001
1000
0100
1000
,
0001
1000
0020
0030
,
0002
0003
0100
1000
,
0001
0000
1001
0000
0000
0010
0000
0000
,
1000
0000
0000
1000
0001
0000
0000
0000
,
0100
0010
0000
0100
0010
0100
0000
0001
,
1000
0000
0000
0000
0001
0000
0000
1000
,
0000
0000
0100
0000
0000
0000
0000
0000
0000
0000
0000
0000
,
1001
0110
1001
0020
,
0000
0130
0000
2002
,
3003
0000
0000
0010
0000
0100
0010
0000
,
0100
1000
0000
0001
0000
1000
0001
0000
,
1000
0001
0000
1000
0000
0010
0100
0000
,
1000
0001
1000
0000
0010
0100
0010
0100
,
0000
0001
0000
1000
0100
0000
0010
0100
,
0000
0001
0001
0001
0001
0000
1000
0000
,
1001
0000
0000
0000
,
0020
0000
0000
0032
,
0000
0000
0000
2003
,
0000
3020
0000
0000
,
0130
0000
1001
0000
,
0020
0000
0000
2030
,
0000
0000
0000
3002
,
0000
0023
0000
0000
,
0130
0000
1001
0000
,
0010
0000
0000
0001
0000
0000
0100
0000
,
0001
0000
0000
0010
0000
0000
1000
0000
,
0100
1000
0100
1000
,
0001
0010
0001
0010
,
0001
0000
0000
0100
0000
0000
1000
0000
,
0010
0000
0000
1000
0000
0000
0100
0000
,
0001
0010
0100
1000
,
0010
1000
0001
0000
,
2002
0000
0000
3003
,
0010
0001
0100
1000
,
0010
0001
0100
1000
0020
0000
0000
0000
,
0000
0000
0000
0000
,
0030
0000
0000
0000
1000
0000
1000
0100
,
0000
0100
1000
0000
0001
0000
0001
0100
,
0000
0100
0001
0000
0010
0000
0100
0000
,
0001
0001
0100
0010
,
1000
0000
1000
0000
0001
0000
0100
0010
,
0000
0010
0100
0000
0001
0000
1000
0100
,
0000
0100
1000
0000
0001
0010
0001
0000
,
1000
0100
1000
0000
0010
0100
0010
0000
,
1000
0100
1000
0000
0001
0000
0001
0100
,
0000
0100
0010
0000
1000
0000
1000
0010
,
0000
0010
0100
0000
0001
0000
0010
0000
,
0100
0100
1000
0010
,
0100
0000
0100
0000
0001
0000
0100
0010
,
0000
0100
0001
0000
1000
0000
0010
0100
,
0000
0010
1000
0000
0001
0000
0010
0000
,
0100
1000
0001
0000
,
1001
0000
0100
0001
,
0010
0000
1000
0000
0100
0001
0010
1000
,
1001
0000
0000
0000
;

//---------------dance-single - ----------------
#NOTES:
     dance-single:
     :
     Easy:
     9:
     0.377343,0.649345,0.152389,0.279379,0.004233,312.000000,294.000000,18.000000,33.000000,0.000000,0.000000,0.377343,0.649345,0.152389,0.279379,0.004233,312.000000,294.000000,18.000000,33.000000,0.000000,0.000000:
0000
0000
0000
0000
,
0000
0000
0000
0000
,
0000
0000
0000
0000
,
0000
0000
0000
0000
,
0000
0000
0000
0000
,
0000
0000
0000
0000
,
0001
0000
0000
0001
0000
0000
0000
0000
,
1000
0000
0000
1000
0000
0000
0000
0000
,
1000
0010
0100
0000
,
1000
0010
0100
0000
,
0001
0000
0000
0001
0000
0000
0000
0000
,
1000
0000
0000
1000
0000
0000
0000
0000
,
0001
0100
0010
0000
,
0001
0100
0010
0000
,
0010
0010
0010
0000
,
1000
0001
1000
0001
,
1000
0001
1000
0000
,
0100
0100
0100
0000
,
1000
0000
0000
1000
0000
0000
2000
0000
,
0020
0000
3030
0000
,
0000
0000
0000
0000
,
0100
0100
0001
0010
,
1000
1000
0010
0001
,
0100
0100
1000
0010
,
0002
0003
0001
2000
,
3000
1000
1001
0000
,
0001
0000
1000
0010
,
0100
0000
1001
0000
,
0001
0000
0001
0100
,
0010
0000
1001
0000
,
0100
0000
1000
0001
,
1000
0000
0010
1000
,
0001
0000
0010
0001
,
1000
0000
0110
0000
,
0001
0100
0001
1000
,
0001
0000
0010
0000
,
1000
0100
1000
0001
,
1000
0000
0100
0000
,
0001
0000
1000
0001
,
1000
0000
0001
1000
,
0001
0000
1000
0001
,
1000
0000
0010
0000
,
1000
0000
0001
0100
0001
0000
1000
0100
,
1000
0000
0001
0100
0001
0000
1000
0100
,
1000
0000
0001
0100
0001
0000
1000
0100
,
1000
0000
0001
0100
0001
0000
1000
0100
,
1000
0010
0001
0100
,
1000
0001
1000
0001
1000
0001
1000
0000
,
0010
0100
0001
1000
,
0010
0000
0100
0000
2002
3003
0000
0000
,
0000
0000
0000
0000
,
0010
0000
0100
0000
,
0010
0000
0100
0000
,
0001
1000
0001
1000
,
0001
0000
1001
0000
,
0100
0000
0010
0000
,
0100
0000
0010
0000
,
1000
0001
1000
0001
,
1000
0000
0000
0001
,
0000
0100
0000
0010
,
0000
1000
0000
1000
,
0001
1000
0000
0001
,
1000
0001
0100
0000
,
0100
0000
0010
0100
,
0010
0000
0200
0300
,
0100
0020
0030
0010
,
1000
0000
1001
0000
0000
0010
0000
0000
,
0010
0000
0010
0000
,
0000
0010
0000
0100
0000
0000
0000
0001
,
1000
0000
0001
0000
,
0000
0000
0100
0000
0000
0000
0000
0000
0000
0000
0000
0000
,
1001
0110
1001
0020
,
0000
0130
0000
2002
,
3003
0000
0000
0010
0000
0000
0010
0000
,
1000
0000
0000
0001
0000
0000
0001
0000
,
0000
0001
0000
0010
0000
0100
0000
0000
,
1000
0001
0010
0010
,
0000
0001
0000
0000
0100
0000
0000
1000
,
0000
0001
1000
0001
1000
0000
0000
0000
,
1001
0000
0000
0000
,
0020
0000
0000
0032
,
0000
0000
0000
2003
,
0000
3020
0000
0000
,
0130
0000
1001
0000
,
0020
0000
0000
2030
,
0000
0000
0000
3002
,
0000
0023
0000
0000
,
0130
0000
1001
0000
,
0020
0000
0000
2030
,
0000
0000
0000
3002
,
0000
2003
0000
3002
,
0000
0000
0020
0033
,
0200
0000
0000
0020
,
0000
0000
0330
2000
,
0000
3020
0000
2000
,
0030
0000
3001
0000
,
2002
0000
0000
3003
,
0010
0001
0100
1000
,
0010
0001
0200
0000
,
0000
0000
0000
0000
,
0300
0000
0000
0000
0010
0000
0000
0010
,
0000
0000
0000
0000
0100
0000
0000
0100
,
0000
0000
0001
1000
,
0010
0000
1000
0001
,
0010
0000
0000
0000
1000
0000
0000
1000
,
0000
0000
0000
0000
0001
0000
0000
0001
,
0000
0000
0010
1000
,
0001
0000
0010
0001
,
1000
0000
0000
0000
1000
0000
0000
1000
,
0000
0000
0000
0000
0001
0000
0000
0001
,
0000
0000
0010
0100
,
0010
0100
0001
1000
,
0001
0000
1000
0000
0001
0000
0000
0001
,
0000
0000
0000
0000
1000
0000
0000
1000
,
0000
0000
1000
0100
,
0010
0001
1000
0000
,
0001
0000
1001
0000
,
0110
0000
0010
0010
,
1001
0000
0000
0000
;

//---------------dance-single - ----------------
#NOTES:
     dance-single:
     :
     Beginner:
     6:
     0.235840,0.499496,0.118525,0.143923,0.000000,195.000000,181.000000,14.000000,17.000000,0.000000,0.000000,0.235840,0.499496,0.118525,0.143923,0.000000,195.000000,181.000000,14.000000,17.000000,0.000000,0.000000:
0000
0000
0000
0000
,
0000
0000
0000
0000
,
0000
0000
0000
0000
,
0000
0000
0000
0000
,
0000
0000
0000
0000
,
0000
0000
0000
0000
,
0001
0000
0000
0001
0000
0000
0000
0000
,
1000
0000
0000
1000
0000
0000
0000
0000
,
0010
0000
0010
0000
,
0100
0000
0100
0000
,
0001
0000
0000
0001
0000
0000
0000
0000
,
1000
0000
0000
1000
0000
0000
0000
0000
,
0100
0000
0100
0000
,
0010
0000
0000
0000
,
1000
0000
1000
0000
,
2002
0000
0000
0000
,
3003
0000
0000
0000
,
0001
0000
0001
0000
,
2002
0000
3003
0000
,
2002
0000
3003
0000
,
0000
0000
0000
0000
,
0100
0010
0100
0000
,
0010
0100
0010
0000
,
1000
0001
1000
0000
,
2002
0000
0000
0000
,
3003
0000
0000
0000
,
0001
0000
0001
0000
,
0100
0000
0100
0000
,
1000
0000
1000
0000
,
0100
0000
0100
0000
,
0001
0000
0001
0000
,
0010
0000
0010
0000
,
1000
0000
1000
0000
,
0002
0000
0003
0000
,
0100
0000
0100
0000
,
1000
0000
0001
0000
,
0010
0000
0010
0000
,
1000
0000
0001
0000
,
1001
0000
0000
0000
,
0110
0000
0000
0000
,
1001
0000
0000
0000
,
0110
0000
0000
0000
,
0010
0000
0100
0000
,
0010
0000
0100
0000
,
0010
0010
0100
0100
,
0010
0010
0100
0100
,
0001
0001
1000
1000
,
2002
0000
0000
3003
,
0010
0000
0100
0000
,
0010
0000
0010
0000
2002
3003
0000
0000
,
0000
0000
0000
0000
,
0010
0000
0010
0000
,
0100
0000
0000
0000
,
0001
0000
0001
0000
,
1000
0000
0000
0000
,
0100
0000
0100
0000
,
0010
0000
0000
0000
,
1000
0000
1000
0000
,
1000
0000
0000
0001
,
0000
0001
0000
0010
,
0000
0000
0000
1000
,
0000
1000
0000
0010
,
0000
0000
0100
0000
,
0100
0000
0010
0000
,
0000
0000
0100
0000
,
0000
0010
0000
0000
,
1001
1001
0000
0000
,
0010
0000
0000
0000
,
0000
0000
0000
0000
,
1000
0000
0001
0000
,
0000
0000
0000
0000
,
0010
0010
0010
0020
,
0000
0030
0000
2002
,
3003
0000
0000
0010
0000
0000
0000
0000
,
0000
0000
0000
0001
0000
0000
0000
0000
,
0000
0001
0000
0000
0000
0000
0000
0000
,
1000
0000
0010
0000
,
0000
0001
0000
0000
0000
0000
0000
0000
,
0000
0001
0001
0001
0001
0000
0000
0000
,
1001
0000
0000
0000
,
0010
0000
0000
0001
,
0000
0000
0000
0010
,
0000
0010
0000
0000
,
0000
0000
0000
0000
,
0010
0000
0000
1000
,
0000
0000
0000
0010
,
0000
0010
0000
0000
,
0000
0000
0000
0000
,
0001
0000
0000
0100
,
0000
0000
0000
1000
,
0000
1000
0000
1000
,
0000
0000
0000
0000
,
0100
0000
0000
1000
,
0000
0000
0000
0001
,
0000
0001
0000
0001
,
0000
0000
0000
0000
,
0000
0000
0000
0000
,
0010
0000
0100
0000
,
0010
0000
0200
0000
,
0000
0000
0000
0000
,
0300
0000
0000
0000
0010
0000
0000
0010
,
0000
0000
0000
0000
0100
0000
0000
0100
,
0000
0000
0001
0000
,
0010
0000
0100
0000
,
0000
0000
0000
0000
1000
0000
0000
1000
,
0000
0000
0000
0000
0001
0000
0000
0001
,
0000
0000
1000
0000
,
0100
0000
0010
0000
,
0000
0000
0000
0000
1000
0000
0000
1000
,
0000
0000
0000
0000
0001
0000
0000
0001
,
0000
0000
0010
0000
,
0010
0000
0010
0000
,
0000
0000
0000
0000
0001
0000
0000
0001
,
0000
0000
0000
0000
1000
0000
0000
1000
,
0000
0000
0100
0000
,
0100
0000
0100
0000
,
0001
0000
0001
0000
,
1000
0000
0010
0010
,
0010
0000
0000
0000
;

//---------------dance-single - ----------------
#NOTES:
     dance-single:
     :
     Challenge:
     18:
     1.036485,1.448539,1.269906,0.338642,0.182020,857.000000,707.000000,150.000000,40.000000,0.000000,0.000000,1.036485,1.448539,1.269906,0.338642,0.182020,857.000000,707.000000,150.000000,40.000000,0.000000,0.000000:
// measure 0
0000
0000
0000
0000
,  // measure 1
0000
0000
0000
0000
,  // measure 2
0000
0000
0000
0000
,  // measure 3
0000
0000
0000
0000
,  // measure 4
0000
0000
0000
0000
,  // measure 5
0000
0000
0000
0000
,  // measure 6
0020
1000
0031
0200
0001
1300
0020
1000
,  // measure 7
0032
0100
0013
2000
0010
3100
0002
0000
,  // measure 8
1003
0010
1000
0010
0110
0000
1001
0000
,  // measure 9
0001
0100
0001
0100
0110
0000
1001
0000
,  // measure 10
0020
1000
0031
2000
0010
3100
0002
0100
,  // measure 11
0023
0100
0031
2000
0001
3100
0020
1000
,  // measure 12
0031
1001
0000
0001
0101
0000
1100
0000
,  // measure 13
0101
0001
0010
0100
,  // measure 14
1001
0000
0001
0000
1000
0000
1000
0000
0010
0100
0001
0100
0010
0000
1010
0000
,  // measure 15
0110
0110
0110
1001
,  // measure 16
1001
1100
0202
0303
,  // measure 17
1000
0000
1000
0000
1000
0000
0001
0100
0000
0100
0000
0100
0001
0000
1000
0000
,  // measure 18
1001
0001
0000
1001
1000
0000
0110
0000
,  // measure 19
1020
0100
1000
0130
,  // measure 20
2000
0000
3001
0010
0100
1000
0010
0100
,  // measure 21
0002
0000
0000
0000
1003
0100
0010
0001
0100
0000
0001
0100
0001
0000
1000
0010
,  // measure 22
0100
0010
1100
0010
0100
0011
1001
0000
,  // measure 23
0010
0000
1000
0000
0001
0000
1000
0100
0010
0000
0100
0010
0001
0000
1000
0000
,  // measure 24
0101
0000
1000
0010
0100
0001
1000
0000
,  // measure 25
0001
0010
0100
1000
0001
0000
1000
0100
,  // measure 26
0010
0100
0010
0100
0001
0100
1000
0100
,  // measure 27
0001
0100
0001
0100
0010
1000
0010
0001
,  // measure 28
0010
1000
0010
1000
0001
0100
1000
0100
,  // measure 29
0001
1000
0001
1000
0001
0000
1000
0010
,  // measure 30
0001
0100
0001
0100
0010
1000
0010
0001
,  // measure 31
0010
1000
0010
1000
0001
0000
1000
0100
,  // measure 32
0010
0100
0001
1000
0100
0001
0100
1000
,  // measure 33
0010
1000
1010
0000
0101
0000
1000
0001
,  // measure 34
1000
0001
0100
1000
0100
0001
1000
0100
,  // measure 35
0001
0100
1000
0001
0010
1000
0010
0001
,  // measure 36
1000
0100
0010
0100
1000
0001
0010
0100
,  // measure 37
0010
0001
1000
0000
0001
0100
1000
0100
,  // measure 38
0001
1000
0001
1000
0001
0010
1000
0010
,  // measure 39
0001
1000
0001
0000
0001
0100
1000
0100
,  // measure 40
0010
1000
0010
1000
0001
0010
1000
0010
,  // measure 41
0001
0100
0010
0000
1001
0000
0101
0000
,  // measure 42
0110
0000
0001
1000
0001
0000
0100
0000
0011
0000
0000
0000
1010
0000
0100
0000
,  // measure 43
1010
0000
0001
1000
0100
0000
0010
0000
1001
0000
0000
0000
1001
0000
0010
0000
,  // measure 44
0102
0000
1003
0100
0012
0000
1003
0010
,  // measure 45
0102
0000
1003
0010
2100
0000
3001
0100
,  // measure 46
1010
0100
1010
0100
0011
0100
0011
0100
,  // measure 47
1001
0000
1001
0000
0110
0000
0110
0000
1000
0010
0001
0010
1000
0100
0001
0100
,  // measure 48
2000
0000
3001
0100
0020
0000
1030
0100
,  // measure 49
0010
0000
0000
0000
0100
0000
0000
0000
1000
0000
0000
0000
0001
0000
0000
0000
1000
0001
0000
0000
0000
0000
0000
0000
0000
0000
0000
0000
0000
0000
0000
0000
,  // measure 50
0000
0000
0000
0000
,  // measure 51
1100
0011
1010
0101
,  // measure 52
1100
0011
0110
1001
,  // measure 53
1100
0011
1001
1100
,  // measure 54
0110
0000
0011
0000
0001
0010
0100
1000
,  // measure 55
0001
1100
0011
1010
,  // measure 56
0101
1100
0011
1010
,  // measure 57
0101
1001
0110
1001
,  // measure 58
0220
0000
0000
0330
1001
0000
0000
0000
1001
0000
0000
0000
0011
0000
0000
0000
,  // measure 59
1000
0001
1001
0000
0011
0000
1100
0000
,  // measure 60
0011
0000
0000
1001
0000
0001
0000
0001
0000
0101
0000
0000
,  // measure 61
1010
0101
1100
0011
,  // measure 62
0110
0000
0000
0000
1000
1000
0000
1000
1000
0000
0000
0000
0011
0000
0000
0000
,  // measure 63
0110
0000
1100
0000
0110
0000
1000
0001
,  // measure 64
1001
1100
2002
0000
,  // measure 65
0000
0000
3003
0000
0001
0100
0001
0100
,  // measure 66
0001
0100
1000
0100
0001
0000
0000
0000
1000
0000
0010
0000
0001
0000
0000
0000
,  // measure 67
1100
0000
0000
0000
0000
0000
0010
0000
0000
0110
0000
0000
1000
0000
0000
0000
0001
0000
0000
0000
1001
0000
0000
0000
,  // measure 68
0010
1100
0000
0001
0101
1100
0010
0110
,  // measure 69
1000
0000
0000
0000
0000
0000
0100
0000
0000
0000
0010
0000
1001
0000
0000
0000
0000
0000
1000
0000
0000
0001
0000
0000
,  // measure 70
1001
0000
1100
0001
0101
1000
0110
0000
,  // measure 71
1100
0011
0110
1001
,  // measure 72
1100
0000
0011
0000
0000
0020
0200
0330
,  // measure 73
0001
0100
0000
1010
0000
0100
0001
0000
,  // measure 74
1100
0000
0000
0000
0110
0000
0000
0000
0011
0000
0000
0000
0000
0000
0000
1000
0000
0000
0001
0000
0000
1000
0000
0000
,  // measure 75
0001
0000
0100
0000
0001
0000
0100
0000
0000
0001
0000
0000
0000
0000
0000
1000
0000
0000
0010
0000
0000
0000
0000
0000
,  // measure 76
0001
0000
0000
0000
0110
0000
0000
0000
1000
0000
0000
0000
0102
0000
0000
0010
0000
0000
1003
0000
0000
0100
0000
0000
,  // measure 77
0000
0011
0000
1000
0010
0000
0101
1000
,  // measure 78
0001
1001
0110
0011
1100
0100
1001
0000
,  // measure 79
0200
0010
0010
0310
,  // measure 80
1001
0000
0000
0101
0000
1000
0010
0001
,  // measure 81
0000
1000
0100
0001
0000
1000
0001
0100
,  // measure 82
0000
0000
1001
0000
0000
1100
0000
0000
,  // measure 83
0101
0000
0000
0020
0002
0033
2000
3200
,  // measure 84
0310
0001
0100
0010
1000
0100
0010
0100
,  // measure 85
1000
0001
0100
1000
0100
0001
1000
0010
,  // measure 86
0000
0000
0000
0000
0000
0000
1001
0000
0000
0000
0000
0000
0000
0000
0000
1000
0000
0100
0000
0010
0000
0001
0000
0010
,  // measure 87
0000
0001
0000
0010
0000
0100
0000
1000
0000
0002
0000
0000
0000
0000
0000
0000
0000
0000
0000
0000
0000
0000
0000
0000
,  // measure 88
0103
0000
0000
0110
0000
1000
0001
0000
,  // measure 89
0010
0100
0000
0001
0100
0010
1000
0001
,  // measure 90
0000
1100
0000
0001
0010
0100
1000
0001
,  // measure 91
1000
0100
0010
0001
1000
0100
0010
0001
,  // measure 92
1000
0001
0100
0001
1000
0010
0100
0001
,  // measure 93
1000
0010
0100
0010
1000
0100
0010
0001
,  // measure 94
0100
0100
0001
1000
0010
0100
0001
0000
,  // measure 95
1000
1000
0001
0010
0100
1000
0001
0100
,  // measure 96
0020
0000
0000
0000
0000
0000
0000
0000
0000
0000
0000
0000
0000
0000
0000
0030
,  // measure 97
0100
0001
0101
1000
1100
0000
0011
0000
,  // measure 98
1100
1100
0110
0011
2002
0000
0000
0000
,  // measure 99
0000
0000
3003
0000
,  // measure 100
0000
0000
0000
0000
0001
0100
1000
0100
,  // measure 101
0001
1000
0100
0000
1000
0010
0001
0010
,  // measure 102
1000
0001
0100
0000
0010
1000
0100
1000
,  // measure 103
0010
1000
0100
0010
0001
0100
0010
0100
,  // measure 104
0001
0010
0100
1000
0001
0100
1000
0100
,  // measure 105
0001
1000
0100
1000
0001
0010
1000
0010
,  // measure 106
0001
1000
0100
1000
0010
0100
0001
0100
,  // measure 107
0010
0100
0001
1000
0200
0000
0010
0000
,  // measure 108
1000
0000
0310
0000
1000
0001
0100
0010
,  // measure 109
1000
0010
0001
0010
1000
0001
0100
0010
,  // measure 110
1000
0001
0100
1000
0100
0001
0100
1000
,  // measure 111
0100
0001
1000
0010
0001
0010
1000
0001
,  // measure 112
0100
1000
0100
0001
0100
0010
0100
0010
,  // measure 113
1000
0100
0010
0001
0100
0010
0100
0010
,  // measure 114
1000
0100
0010
0001
1000
0001
0100
0000
,  // measure 115
0001
1000
0100
0000
0001
0010
0100
0000
,  // measure 116
1100
0000
0000
0000
0011
0000
0000
0000
1010
0000
0000
0001
0101
0000
1010
0000
,  // measure 117
0101
0000
0000
1000
1100
0000
0011
0000
1000
0001
0100
0000
0001
1000
0100
0000
,  // measure 118
1001
0000
0000
0000
;
