#TITLE:Keeper of the Flame;
#SUBTITLE:;
#ARTIST:Richie Branson and Solar Slim;
#TITLETRANSLIT:;
#SUBTITLETRANSLIT:;
#ARTISTTRANSLIT:;
#GENRE:;
#CREDIT:;
#MENUCOLOR:;
#METERTYPE:DDR;
#BANNER:Keeper of the Flame.png;
#BACKGROUND:Keeper of the Flame-bg.png;
#LYRICSPATH:;
#CDTITLE:;
#MUSIC:Keeper of the Flame.ogg;
#OFFSET:-0.020;
#SAMPLESTART:106.807;
#SAMPLELENGTH:15.000;
#SELECTABLE:YES;
#LISTSORT:;
#DISPLAYBPM:90.000;
#BPMS:0.000=90.090,174.500=87.910,176.000=90.070;
#STOPS:;
#BGCHANGES:;
#ATTACKS:;

//---------------dance-single - ----------------
#NOTES:
     dance-single:
     :
     Hard:
     11:
     0.380,0.391,0.000,0.029,0.416:
0000
0000
0000
0000
,
0000
0000
0000
0000
,
0000
0000
0000
0000
,
0000
0000
0000
0000
,
1000
0000
0000
1000
0001
0000
0000
0001
0000
0001
0100
0000
0010
0000
0000
0000
,
0001
0000
0000
0001
0100
0000
0000
0010
0000
0010
0100
0000
0001
0000
0000
0000
,
1000
0000
0000
1000
0010
0000
0000
0100
0000
0100
0010
0000
0001
0000
0000
0000
,
0100
0000
0000
0100
0010
0000
0000
1000
0000
1000
0001
0000
0100
0000
0000
0000
,
0010
0000
1000
0000
0010
0000
0100
0001
0000
0001
0100
0000
0010
0000
0000
0000
,
1000
0000
0010
0000
1000
0000
0100
0010
0000
0010
0100
0000
0001
0000
0000
0000
,
1000
0000
0001
0000
0100
0000
0001
1000
0000
1000
0001
0000
0010
0000
0000
0000
,
1000
0000
0010
0000
0100
0000
0010
1000
0000
1000
0010
0000
0100
0000
0000
0000
,
0001
0000
0010
0000
0100
0000
0001
0100
0000
0100
0001
0000
0010
0000
0000
0000
,
1000
0000
0010
0000
0100
0000
0010
1000
0000
1000
0010
0000
0100
0000
0000
0000
,
0001
0000
0100
0000
1000
0000
0001
0100
0000
0100
0001
0000
1000
0000
0000
0000
,
0001
0000
0010
0000
1000
0000
0001
0100
0000
0100
0001
0000
1000
0000
0000
0000
,
0010
0100
0010
0100
0010
0100
0010
0100
0000
0000
0000
0000
0000
0000
0000
0000
,
1000
0100
1000
0100
1000
0100
1000
0100
0000
0000
0000
0000
0000
0000
0000
0000
,
0001
0010
0001
0010
0001
0010
0001
0010
0000
0000
0000
0000
0000
0000
0000
0000
,
0100
0010
0100
0010
0100
0010
0100
0010
0000
0000
0000
0000
0000
0000
0000
0000
,
1000
0000
0001
0100
0001
0000
0000
0000
0000
0000
0000
0000
0000
0000
0000
0000
,
0100
0000
0001
0100
0001
0000
1000
0001
0000
0001
1000
0000
0010
0000
0000
0000
,
0100
0000
0001
1000
0001
0000
1000
0100
0000
0100
0010
0000
0001
0000
0000
0000
,
0100
0000
0001
0100
0001
0000
0001
0010
0000
0010
0100
0000
1000
0000
0000
0000
,
0001
0000
0100
0010
0100
0000
0001
0000
1000
0010
1000
0000
0100
0000
0000
0000
,
0001
0000
0100
0010
0100
0000
0001
0000
1000
0100
1000
0000
0010
0000
0000
0000
,
1000
0000
0001
0100
0001
0000
1000
0000
0010
0100
0010
0000
1000
0000
0000
0000
,
0001
0000
0100
0000
0010
0000
1000
0000
0010
0100
0010
0000
1000
0000
0000
0000
,
0001
0000
0100
0000
0001
0100
0000
0001
0100
0000
0001
0100
0000
0000
0010
0000
,
1000
0000
0100
0000
1000
0100
0000
1000
0100
0000
1000
0100
0000
0000
1000
0000
,
0010
0000
0100
0000
0001
0100
0000
0001
0100
0000
0001
0100
0000
0000
0010
0000
,
1000
0000
0001
0000
0100
0010
0000
0100
0010
0000
0100
0010
0000
0000
1000
0000
,
0001
0000
0100
0000
0001
0100
0000
0010
0100
0000
0001
0100
0000
0000
0010
0000
,
1000
0000
0100
0000
1000
0010
0000
0100
0010
0000
1000
0010
0000
0000
0100
0000
,
0001
0000
1000
0000
0010
1000
0000
0100
1000
0000
0010
1000
0000
0000
0001
0000
,
0100
0000
0010
0000
1000
0001
0000
0100
0001
0000
0010
0001
0100
0000
0000
0000
,
0100
0010
0100
0010
0100
0010
0100
0010
0000
0000
0000
0000
0000
0000
0000
0000
,
1000
0100
1000
0100
1000
0100
1000
0100
0000
0000
0000
0000
0000
0000
0000
0000
,
0010
0001
0010
0001
0010
0001
0010
0001
0000
0000
0000
0000
0000
0000
0000
0000
,
0100
0010
0100
0010
0100
0010
0100
0010
0000
0000
0000
0000
0000
0000
0000
0000
,
1000
0100
0010
0001
0100
0010
0100
0000
,
0001
0010
0100
1000
0010
0100
0010
0000
,
1000
0010
0100
0010
1000
0100
0001
0000
,
0001
0100
0010
0100
0001
0100
1000
0000
,
0010
1000
0010
0000
0100
0010
0000
0100
0010
0000
0100
0010
0000
0000
1000
0010
,
1000
0000
0001
0000
0100
0001
0000
0100
0001
0000
0100
0010
0000
0000
0001
0000
,
1000
0000
0010
0000
0100
0010
0000
0100
0010
0000
0100
0010
0000
0000
1000
0000
,
0001
0000
0100
0000
0010
0100
0000
0010
0100
0000
0010
0100
0000
0000
0001
0000
,
2000
0000
3000
0000
,
0002
0000
0003
0000
,
0200
0000
0300
0000
,
0020
0000
0030
0000
;

//---------------dance-double - ----------------
#NOTES:
     dance-double:
     :
     Hard:
     11:
     0.330,0.354,0.000,0.116,0.340:
00000000
00000000
00000000
00000000
,
00000000
00000000
00000000
00000000
,
00000000
00000000
00000000
00000000
,
00000000
00000000
00000000
00000000
,
10000000
00000000
00000000
10000000
00100000
00000000
00000000
00100000
00010000
00000000
00100000
00000000
00010000
00000000
00000000
00000000
,
00001000
00000000
00000000
00001000
00010000
00000000
00000000
00010000
00001000
00000000
00000100
00000000
00001000
00000000
00000000
00000000
,
00000010
00000000
00000000
00000010
00000100
00000000
00000000
00000100
00000001
00000000
00001000
00000000
00000001
00000000
00000000
00000000
,
00001000
00000000
00000000
00001000
00000100
00000000
00000000
00000100
00010000
00000000
00001000
00000000
00010000
00000000
00000000
00000000
,
00001000
00000000
00100000
00000000
00010000
00000000
00000000
00010000
00000000
00000000
01000000
00000000
00100000
00000000
00000000
00000000
,
10000000
00000000
00100000
00000000
01000000
00000000
00000000
01000000
00000000
00000000
00010000
00000000
00100000
00000000
00000000
00000000
,
00001000
00000000
00010000
00000000
00000100
00000000
00000000
00000100
00000000
00001000
00000010
00000000
00001000
00000000
00000000
00000000
,
00000100
00000000
00000001
00000000
00000010
00000000
00000000
00000001
00000000
00000001
00000100
00000000
00000010
00000000
00000000
00000000
,
00001000
00000000
00000100
00000000
00010000
00000000
00000000
00001000
00000000
00001000
00100000
00000000
00010000
00000000
00000000
00000000
,
01000000
00000000
00100000
00000000
10000000
00000000
00000000
00010000
00000000
00010000
10000000
00000000
00100000
00000000
00000000
00000000
,
01000000
00000000
00100000
00000000
00010000
00000000
00000000
00100000
00000000
00100000
00001000
00000000
00010000
00000000
00000000
00000000
,
00000100
00000000
00001000
00000000
00000010
00000000
00000000
00000100
00000000
00000100
00000010
00000000
00000000
00000000
00001000
00000000
,
00000100
00010000
00000100
00010000
00000000
00000000
00000000
00000000
,
00100000
00010000
00100000
00010000
00000000
00000000
00000000
00000000
,
10000000
00100000
10000000
00100000
00000000
00000000
00000000
00000000
,
00010000
00001000
00010000
00001000
00000000
00000000
00000000
00000000
,
00000100
00000000
00000010
00001000
00000010
00000000
00000000
00000000
00000000
00000000
00000000
00000000
00000000
00000000
00000000
00000000
,
00000001
00000000
00000100
00000010
00000100
00000000
00000000
00000010
00000000
00000000
00001000
00000000
00000100
00000000
00000000
00000000
,
00010000
00000000
00001000
01000000
00001000
00000000
00000000
01000000
00000000
00000000
00100000
00000000
01000000
00000000
00000000
00000000
,
00010000
10000000
00010000
00000000
01000000
00000000
00000000
00100000
00000000
00000000
10000000
00000000
01000000
00000000
00000000
00000000
,
10000000
00000000
00100000
00000000
01000000
00000000
00010000
01000000
00000000
01000000
00010000
00000000
00100000
00000000
00000000
00000000
,
00001000
00000000
00010000
00000000
00000100
00000000
00001000
00000010
00000000
00000010
00001000
00000000
00000001
00000000
00000000
00000000
,
00000100
00000000
00000010
00000000
00001000
00000000
00000100
00010000
00000000
00010000
00001000
00000000
01000000
00000000
00000000
00000000
,
00010000
00000000
00100000
00000000
01000000
00000000
10000000
00100000
00000000
00100000
10000000
00000000
01000000
00000000
00000000
00000000
,
10000000
00100000
10000000
00000000
00100000
01000000
00000000
00000000
00100000
00000000
00000000
01000000
00000000
00000000
00010000
00000000
,
00001000
00010000
00001000
00000000
00000000
00010000
00000000
00000000
00000100
00000000
00000000
00001000
00000000
00000000
00000010
00000000
,
00000100
00000001
00000100
00000000
00000001
00001000
00000000
00000000
00000010
00000000
00000000
00001000
00000000
00000000
00000100
00000000
,
00010000
00001000
00010000
00000000
00001000
00000000
00001000
00000000
01000000
00000000
00000000
00000000
00010000
00000000
00100000
00000000
,
00000000
10000000
00010000
00000000
10000000
00010000
00000000
10000000
00010000
00000000
10000000
00010000
00000000
00000000
01000000
00000000
,
00000000
00001000
00010000
00000000
00001000
00010000
00000000
00001000
00010000
00000000
00000000
00001000
00000000
00000000
00010000
00000000
,
00000000
00000100
00001000
00000000
00000100
00001000
00000000
00000100
00001000
00000000
00000000
00000010
00000000
00000000
00000100
00000000
,
00000000
00000001
00001000
00000000
00000001
00001000
00000000
00000001
00001000
00000000
00000010
00000000
00001000
00000000
00000100
00000000
,
00020000
00032000
00003000
00000000
,
02000000
03200000
00300000
00000000
,
20000000
30020000
00030000
00000000
,
00020000
00032000
00003000
00000000
,
00000001
00001000
00000001
00001000
00000001
00001000
00000001
00001000
00000000
00000000
00000000
00000000
00000000
00000000
00000000
00000000
,
00010000
00001000
00010000
00001000
00010000
00001000
00010000
00001000
00000000
00000000
00000000
00000000
00000000
00000000
00000000
00000000
,
10000000
00010000
10000000
00010000
10000000
00010000
10000000
00010000
00000000
00000000
00000000
00000000
00000000
00000000
00000000
00000000
,
00001000
00010000
00001000
00010000
00001000
00010000
00001000
00010000
00000000
00000000
00000000
00000000
00000000
00000000
00000000
00000000
,
00000010
00001000
00000010
00000000
00000100
00000010
00000000
00001000
00000010
00000000
00000100
00000010
00000000
00000000
00000000
00000000
,
00010000
00001000
00010000
00000000
00001000
00100000
00000000
00001000
00010000
00000000
00001000
00100000
00000000
00000000
00000000
00000000
,
10000000
00010000
10000000
00000000
00010000
01000000
00000000
00010000
00100000
00000000
00010000
01000000
00000000
00000000
00000000
00000000
,
00010000
00000100
00010000
00000000
00000100
00001000
00000000
00000100
00001000
00000000
00000010
00001000
00000000
00000000
00000000
00000000
,
00000002
00002003
00003000
00000000
,
00020000
20030000
30000000
00000000
,
00020000
00032000
00003000
00000000
,
00000020
00000230
00000300
00000000
;

//---------------dance-double - ----------------
#NOTES:
     dance-double:
     :
     Medium:
     7:
     0.246,0.279,0.036,0.253,0.000:
00000000
00000000
00000000
00000000
,
00000000
00000000
00000000
00000000
,
00000000
00000000
00000000
00000000
,
00000000
00000000
00000000
00000000
,
01000000
00000000
00100000
00000000
10000000
00100000
10000000
00000000
,
00010000
00000000
00100000
00000000
00001000
00010000
00001000
00000000
,
00000100
00000000
00001000
00000000
00000010
00000100
00000010
00000000
,
00001000
00000000
00000100
00000000
00010000
00001000
00010000
00000000
,
01000000
00000000
00010000
00000000
01000000
01000000
00100000
00000000
,
10000000
00000000
00010000
00000000
01000000
01000000
00100000
00000000
,
01000000
00000000
00001000
00000000
00010000
00010000
00000100
00000000
,
00001000
00000000
00000001
00000000
00000100
00000100
00000010
00000000
,
00002000
00000000
00003001
00000000
00000100
00000100
00000100
00000000
,
00000002
00000000
00001003
00000000
00000100
00000100
00010000
00000000
,
00002000
00000000
01003000
00000000
00010000
01000000
00010000
00000000
,
20000000
00000000
31000000
00000000
10000000
01000000
10000000
00000000
,
00200000
02300000
03000000
00000000
,
00002000
00023000
00030000
00000000
,
00000200
00000320
00000030
00000000
,
00020000
00032000
00003000
00000000
,
01000000
00100000
10010000
00000000
00000000
00000000
00000000
00000000
,
10000000
10000000
00010000
00000000
02000000
00000000
03100000
00000000
,
00010000
00010000
00001000
00000000
00000020
00000000
00000130
00000000
,
00000001
00000001
00001000
00000000
00000200
00000000
00000310
00000000
,
00001000
00000000
00000100
00000000
00010000
00010000
00010000
00000000
,
00001000
00000000
01000000
00000000
00010000
00010000
00010000
00000000
,
10000000
00000000
01000000
00000000
00010000
00010000
00010000
00000000
,
00001000
00000000
00000100
00000000
00000001
00000001
00000001
00000000
,
00000010
00001000
00000010
00000000
00000100
00000000
00001001
00000000
,
00001000
00000100
00001000
00000000
00010000
00000000
00011000
00000000
,
00010000
01000000
00010000
00000000
01000000
00000000
10010000
00000000
,
10000000
00100000
10000000
00000000
00100000
00000000
10010000
00000000
,
01000000
00000000
00010000
00000000
00100000
10000000
00100000
00000000
,
01000000
00000000
00001000
00000000
00010000
00001000
00010000
00000000
,
00000010
00000000
00001000
00000000
00000100
00000001
00000100
00000000
,
00000010
00000000
00001000
00000000
00000100
00010000
00000100
00000000
,
00020000
00000000
00030000
00000000
,
20000000
00000000
30000000
00000000
,
00020000
00000000
00030000
00000000
,
00000020
00000000
00000030
00000000
,
00000002
00000000
00002003
00000000
00003100
00000100
00000100
00000000
,
00020000
00000000
00032000
00000000
01003000
01000000
01000000
00000000
,
20000000
00000000
30020000
00000000
01030000
01000000
01000000
00000000
,
00002000
00000000
00023000
00000000
00030100
00000100
00000100
00000000
,
00000010
00001000
00000010
00000000
00000001
00000000
00001000
00000000
,
00010000
01000000
00010000
00000000
10000000
00000000
01000000
00000000
,
00001000
00010000
00001000
00000000
00010000
00000000
00000010
00000000
,
00000001
00001000
00000001
00000000
00010000
00000000
00001000
00000000
,
02000000
03200000
00300000
00000000
,
02000000
03200000
00300000
00000000
,
00002000
00023000
00030000
00000000
,
00002000
00023000
00030000
00000000
;

//---------------dance-double - ----------------
#NOTES:
     dance-double:
     :
     Easy:
     4:
     0.138,0.167,0.000,0.123,0.000:
00000000
00000000
00000000
00000000
,
00000000
00000000
00000000
00000000
,
00000000
00000000
00000000
00000000
,
00000000
00000000
00000000
00000000
,
00000000
01000000
00000000
01000000
,
00000000
00010000
00000000
00010000
,
00000000
00000100
00000000
00000100
,
00000000
00001000
00000000
00001000
,
00000000
01000000
00010000
10000000
,
00000000
01000000
10000000
00010000
,
00000000
00001000
00010000
00000100
,
00000000
00001000
00000001
00000100
,
00000000
00000010
00001000
00000010
,
00000000
00010000
00001000
00010000
,
00000000
00100000
10000000
00100000
,
00000000
00001000
00010000
00001000
,
01000000
01000000
00000000
00000000
,
00010000
00010000
00000000
00000000
,
00000100
00000100
00000000
00000000
,
00001000
00001000
00000000
00000000
,
00020000
10030000
00000000
00000000
,
01000000
10000000
00000000
10000000
,
10000000
00010000
00000000
00010000
,
00001000
00001000
00000000
00000100
,
00000001
00000010
00000000
00001000
,
00000000
00010000
00000000
01000000
,
10000000
00100000
00000000
10000000
,
00000000
01000000
00000000
00010000
,
00002000
00003000
00010000
00001000
,
00020000
00030000
00000100
00001000
,
00000020
00000030
00000100
00000100
,
00020000
00030000
00001000
01000000
,
00020000
00030000
10000000
10000000
,
00020000
00030000
00001000
00001000
,
00000020
00000030
00000100
00000100
,
00000002
00000003
00001000
00001000
,
00000020
00000000
00000030
00000000
,
00000200
00000000
00000300
00000000
,
00002000
00000000
00003000
00000000
,
00020000
00000000
00030000
00000000
,
01000000
02000000
03000000
00000000
,
00100000
00200000
00300000
00000000
,
00010000
00020000
00030000
00000000
,
00001000
00002000
00003000
00000000
,
00000010
00000001
00000000
00001000
,
00000100
00001000
00000000
00010000
,
00100000
00010000
00000000
10000000
,
01000000
10000000
00000000
00010000
,
01000000
01000000
00000000
00000000
,
00100000
00100000
00000000
00000000
,
10000000
10000000
00000000
00000000
,
00010000
00010000
00000000
00000000
;

//---------------dance-single - ----------------
#NOTES:
     dance-single:
     :
     Beginner:
     1:
     0.097,0.093,0.007,0.007,0.000:
0000
0000
0000
0000
,
0000
0000
0000
0000
,
0000
0000
0000
0000
,
0000
0000
0000
0000
,
0000
1000
0000
1000
,
0000
0001
0000
0001
,
0000
1000
0000
1000
,
0000
0001
0000
0001
,
0000
1000
0000
0001
,
0000
1000
0000
0001
,
0000
1000
0000
0001
,
0000
1000
0000
0000
,
0010
0010
0000
0000
,
0010
0010
0000
0000
,
0100
0100
0000
0000
,
0100
0100
0000
0000
,
0200
0300
0000
0000
,
0000
0001
0000
0001
,
0000
1000
0000
1000
,
0000
0001
0000
1000
,
0000
0001
0000
1000
,
0000
0100
0000
1000
,
0000
0001
0000
0100
,
0000
0001
0000
1000
,
0000
0010
0000
1000
,
0000
0001
0000
0010
,
0000
0001
0000
1000
,
0000
0001
0000
1001
,
0000
1000
0000
1000
,
0000
0001
0000
0001
,
0000
1000
0000
0001
,
0000
1000
0000
0001
,
0000
0100
0000
1000
,
0000
0010
0000
0001
,
0000
0100
0000
1000
,
0000
0010
0000
0000
,
0001
0001
0000
0000
,
1000
1000
0000
0000
,
0001
0001
0000
0000
,
1000
1000
0000
0000
,
0010
0010
0000
0000
,
0001
0001
0000
0000
,
0100
0100
0000
0000
,
1000
1000
0000
0000
,
0000
0010
0000
0010
,
0000
0001
0000
0001
,
0000
0100
0000
0100
,
0000
1000
0000
0000
,
0010
0010
0000
0000
,
0001
0001
0000
0000
,
0100
0100
0000
0000
,
1000
1000
0000
0000
;

//---------------dance-single - ----------------
#NOTES:
     dance-single:
     :
     Medium:
     7:
     0.243,0.259,0.043,0.181,0.000:
0000
0000
0000
0000
,
0000
0000
0000
0000
,
0000
0000
0000
0000
,
0000
0000
0000
0000
,
0010
0000
0100
0000
0001
0100
0001
0000
,
0100
0000
0010
0000
1000
0100
1000
0000
,
0010
0000
1000
0000
0001
0100
0001
0000
,
0010
0000
0001
0000
1000
0100
1000
0000
,
0010
0000
1001
0000
0100
0100
0100
0000
,
0010
0000
1001
0000
0100
0100
0100
0000
,
1000
0000
0001
0000
0100
0001
0100
0000
,
0001
0000
1000
0000
0100
1000
0100
0000
,
1000
0000
0010
0000
0100
0100
0100
0000
,
1000
0000
0010
0000
0100
0100
0100
0000
,
0001
0000
1000
0000
0010
0010
0010
0000
,
0001
0000
1000
0000
0010
0010
0010
0000
,
0200
0000
0000
0000
,
0302
0000
2003
0000
,
3200
0000
0000
0000
,
2300
0000
3002
0000
,
0103
0110
0000
0000
,
1000
0001
1000
0000
0010
0010
0010
0000
,
0001
1000
0001
0000
0100
0100
0100
0000
,
1000
0100
1000
0000
0001
0001
0001
0000
,
0100
0001
0100
0000
0001
0000
1001
0000
,
1000
0100
1000
0000
1000
0000
1001
0000
,
1000
0010
1000
0000
0010
0100
0100
0000
,
0001
0010
0001
0000
0100
0100
0100
0000
,
0020
2030
3100
1000
,
0020
0032
0103
0001
,
0020
0230
0301
0100
,
0020
2030
3100
1001
,
0010
0001
0010
0000
0001
0100
0001
0000
,
0100
1000
0100
0000
1000
0010
1000
0000
,
0010
0001
0001
0000
0010
1000
1000
0000
,
0100
0001
0001
0000
0100
1000
1000
0000
,
0010
0100
0010
0100
0000
0000
0000
0000
,
0010
0100
0010
0100
0000
0000
0000
0000
,
0001
1000
0001
1000
0000
0000
0000
0000
,
0001
1000
0001
1000
0000
0000
0000
0000
,
0200
0320
0000
0000
,
2030
3002
0000
0000
,
2003
3200
0000
0000
,
0320
0032
0000
1003
,
0010
1000
0100
0000
1000
0010
1000
0000
,
0010
0001
0100
0000
0001
0100
0001
0000
,
0100
0010
1000
0000
0010
0100
0001
0000
,
1000
0100
1000
0000
0001
0100
0001
0000
,
2000
0000
0000
3000
,
0002
0003
2000
3000
,
0010
0010
0000
0000
,
0100
0100
0000
0000
;

//---------------dance-single - Copied from ----------------
#NOTES:
     dance-single:
     Copied from:
     Easy:
     3:
     0.140,0.167,0.007,0.036,0.000: // measure 1
0000
0000
0000
0000
,  // measure 2
0000
0000
0000
0000
,  // measure 3
0000
0000
0000
0000
,  // measure 4
0000
0000
0000
0000
,  // measure 5
0000
0100
0000
0100
,  // measure 6
0000
0001
0000
0001
,  // measure 7
0000
0100
0000
0100
,  // measure 8
0000
1000
0000
1000
,  // measure 9
0000
0100
0001
1000
,  // measure 10
0000
0100
1000
0001
,  // measure 11
0000
0010
0001
0100
,  // measure 12
0000
0010
1000
0100
,  // measure 13
0000
1000
0100
0001
,  // measure 14
0000
0001
0100
1000
,  // measure 15
0000
0001
0010
1000
,  // measure 16
0000
1000
0010
0001
,  // measure 17
0100
0010
0000
0000
,  // measure 18
0010
0100
0000
0000
,  // measure 19
1000
0001
0000
0000
,  // measure 20
0001
1000
0000
0000
,  // measure 21
0020
0130
0000
0000
,  // measure 22
0100
0001
0000
0001
,  // measure 23
0100
1000
0000
1000
,  // measure 24
0100
0001
0000
1000
,  // measure 25
0010
1000
0000
1000
,  // measure 26
0010
0001
0000
0001
,  // measure 27
0010
1000
0000
0001
,  // measure 28
0000
0100
1000
1001
,  // measure 29
0000
0010
0001
0100
,  // measure 30
0000
0010
1000
0100
,  // measure 31
0000
0010
0010
0100
,  // measure 32
0000
0100
0100
0000
,  // measure 33
0002
0003
1000
1000
,  // measure 34
0002
0003
1000
0100
,  // measure 35
2000
3000
0001
0001
,  // measure 36
2000
3000
0001
0100
,  // measure 37
0010
0010
0000
0000
,  // measure 38
1000
1000
0000
0000
,  // measure 39
0100
0100
0000
0000
,  // measure 40
0001
0001
0000
0000
,  // measure 41
1000
0001
1000
0000
,  // measure 42
0001
1000
0001
0000
,  // measure 43
0100
0010
0100
0000
,  // measure 44
0010
0100
0010
0000
,  // measure 45
1000
0100
1000
0100
,  // measure 46
0001
0100
0001
0100
,  // measure 47
0001
0010
0001
0010
,  // measure 48
1000
0010
1000
0010
,  // measure 49
0100
0100
0000
0000
,  // measure 50
0010
0010
0000
0000
,  // measure 51
1000
1000
0000
0000
,  // measure 52
0001
0001
0000
0000
;
