#TITLE:JUNK;
#SUBTITLE:;
#ARTIST:kors k vs. KAN TAKAHIKO;
#TITLETRANSLIT:;
#SUBTITLETRANSLIT:;
#ARTISTTRANSLIT:;
#GENRE:;
#CREDIT:;
#MENUCOLOR:;
#METERTYPE:DDR;
#BANNER:JUNK.png;
#BACKGROUND:JUNK-bg.png;
#LYRICSPATH:;
#CDTITLE:;
#MUSIC:JUNK.ogg;
#OFFSET:0.267;
#SAMPLESTART:36.788;
#SAMPLELENGTH:19.200;
#SELECTABLE:YES;
#LISTSORT:;
#BPMS:0.000=145.020,20.000=150.000,160.000=75.000,175.000=150.000,241.000=75.000,244.000=150.000,245.000=75.000,248.000=75.010,249.000=75.000,254.000=150.000;
#STOPS:175.667=0.400
,240.000=0.400
,244.000=0.400
,254.000=0.200
,254.500=0.200
,255.000=0.200
,255.500=0.200
;
#BGCHANGES:;
#ATTACKS:;

//---------------dance-single - ----------------
#NOTES:
     dance-single:
     :
     Hard:
     13:
     0.567,0.904,0.173,0.587,0.290: // measure 1
0000
0000
0000
0000
,  // measure 2
0000
0000
0000
0000
,  // measure 3
0000
0000
0000
0000
,  // measure 4
0000
0000
0000
0000
,  // measure 5
0000
0000
0000
0000
,  // measure 6
0000
0000
0000
0000
,  // measure 7
0000
0000
0000
0000
,  // measure 8
0000
0000
0000
0000
,  // measure 9
0001
0100
0002
0000
0000
0000
0000
0000
0000
0000
1000
0000
0000
0000
0000
0000
,  // measure 10
0203
0000
0000
0000
0300
0020
0000
1030
,  // measure 11
0002
0000
0000
0203
0000
0010
0000
0000
,  // measure 12
0000
0000
0000
0000
0301
2000
3010
0000
,  // measure 13
2002
0000
3000
0000
0000
0100
0000
0000
,  // measure 14
1000
0000
0000
0100
0000
1000
0103
0010
,  // measure 15
0001
0000
0000
1001
0000
0000
0220
0000
,  // measure 16
0330
1000
0010
0100
0001
0100
0010
1000
0100
0010
0001
1000
,  // measure 17
0001
0000
0000
0001
1000
0000
1000
0000
0001
0000
0000
0001
1000
0000
1000
0000
,  // measure 18
0100
0000
0000
0100
1000
0000
1000
0000
0001
0000
0000
0001
0100
0000
0100
0000
,  // measure 19
0010
0000
0000
0010
1000
0000
1000
0000
0001
0000
0000
0001
0100
0000
0100
0000
,  // measure 20
0010
0000
0000
0010
1000
0000
1000
0000
0100
0000
0000
0100
0001
0000
1000
0000
,  // measure 21
0001
0100
0001
0000
1000
0000
1000
0000
0001
0100
0001
0000
1000
0000
1000
0000
,  // measure 22
0010
1000
0010
0000
0100
0000
0100
0000
0010
1000
0010
0000
0100
0000
0100
0000
,  // measure 23
0010
0001
0100
0001
0010
0100
1000
0010
,  // measure 24
2200
3300
0022
0033
0220
0330
2002
3003
,  // measure 25
0110
0000
2000
3002
2000
3000
2000
3003
,  // measure 26
0110
0000
0000
0000
0002
0000
2003
0000
0002
0000
0003
0000
0001
0000
3001
0100
,  // measure 27
0001
0000
0010
2000
3000
0002
0003
0100
,  // measure 28
0100
0000
0010
0001
1000
0001
1000
0100
,  // measure 29
0100
0000
0020
0032
0020
0030
0020
0033
,  // measure 30
0100
0000
0020
2030
0020
0030
0020
3030
,  // measure 31
0110
0000
1000
0001
0100
0001
1000
0001
,  // measure 32
0110
0000
0000
0000
0001
0000
1000
0000
0001
0000
1000
0000
0000
0010
0100
0010
,  // measure 33
0100
0000
0020
0000
0000
0000
1030
0000
0001
0100
0020
0000
0000
0000
1030
0000
,  // measure 34
0001
1000
0020
0000
0000
0000
0130
0000
0001
1000
0020
0000
0000
0000
0130
0000
,  // measure 35
1000
0010
0200
0000
0000
0000
0301
0000
1000
0010
0200
0000
0000
0000
0301
0000
,  // measure 36
0001
0100
0020
0000
0000
0000
1030
0000
0001
0100
0020
0000
0000
0000
1030
0000
,  // measure 37
0001
0100
0001
0100
0010
1000
0010
1000
,  // measure 38
0001
0100
0010
0100
0010
1000
0001
1000
,  // measure 39
0100
0010
0001
0100
0010
0100
0001
0010
,  // measure 40
0200
0320
2030
3002
,  // measure 41
0203
0000
0000
0000
0000
0010
0000
0000
0010
0000
0000
0010
0300
0000
1000
0000
,  // measure 42
0000
0000
0001
0000
0000
1000
0000
0000
0001
0000
0000
0100
0000
0000
0010
0000
,  // measure 43
0000
0000
1000
0000
0000
0001
0000
0000
1000
0000
0000
0010
0000
0000
0100
0000
,  // measure 44
0000
0000
0001
0000
0000
0010
0000
0000
0100
0000
0000
1000
0200
0000
0000
0000
,  // measure 45
0301
0010
0002
0000
0000
0000
0000
0000
0000
0000
1000
0000
0000
0000
0000
0000
,  // measure 46
0203
0000
0000
0000
0300
0020
0000
1030
,  // measure 47
0002
0000
0000
0203
0000
0010
0000
0000
,  // measure 48
0000
0000
0000
0000
0301
2000
3010
0000
,  // measure 49
2002
0000
3000
0000
0000
0100
0000
0000
,  // measure 50
0010
0000
0000
0100
0000
1000
0103
0010
,  // measure 51
0001
0000
0000
1001
0000
0000
0220
0000
,  // measure 52
0330
1000
0010
0100
0001
0100
0010
1000
0100
0010
0001
1000
,  // measure 53
0001
0000
0000
0001
0100
0000
0100
0000
0001
0000
0000
0001
1000
0000
0100
0000
,  // measure 54
1000
0000
0000
1000
0100
0000
0100
0000
1000
0000
0000
1000
0001
0000
0100
0000
,  // measure 55
0010
0000
0000
0010
0100
0000
0100
0000
0010
0000
0000
0010
0100
0000
0010
0000
,  // measure 56
1000
0000
0000
1000
0001
0000
0001
0000
1000
0000
0000
1000
0001
0000
1000
0000
,  // measure 57
0010
0100
0001
0100
0010
1000
0001
1000
,  // measure 58
0010
0100
0001
0100
0010
1000
0001
1000
,  // measure 59
0010
0100
0010
0100
0010
0100
0010
0000
1000
0001
1000
0001
1000
0001
1000
0000
,  // measure 60
0020
0230
2300
3001
,  // measure 61
0022
0000
0033
0000
1000
0100
0010
0001
1000
0100
0010
0001
0200
0000
0310
0000
,  // measure 62
2200
0000
3300
0000
0001
0010
0100
1000
0002
0003
2000
3000
0020
0030
0200
0300
,  // measure 63
1001
0000
0001
0100
0010
1000
0001
0100
0010
1000
0001
0100
0020
0000
1030
0000
,  // measure 64
0100
0000
0000
0100
0000
0000
0010
0000
0000
0010
0000
0000
0002
0003
0000
0020
0030
0000
0200
0300
0000
2000
3000
0000
,  // measure 65
0010
0000
0000
0000
0001
0000
0010
0001
0010
0000
0010
0000
0010
0000
0001
0000
,  // measure 66
0100
0100
0100
0100
0010
1000
0100
0010
,  // measure 67
0001
0000
0000
0000
1000
0000
0001
1000
0001
0000
0001
0000
0001
0000
0001
0000
,  // measure 68
0100
0100
0100
0100
0010
0000
1001
0000
,  // measure 69
0110
0000
0000
0000
1000
0000
0100
1000
0100
0000
0100
0000
0100
0000
1000
0000
,  // measure 70
0010
0010
0010
0010
0010
0000
1100
0000
,  // measure 71
0011
0000
0000
0000
0100
0000
0010
0100
0010
0000
0010
0000
1000
0000
1000
0000
,  // measure 72
0100
0100
0001
0001
0010
0000
1001
0000
,  // measure 73
0220
0000
0000
0330
;

//---------------dance-double - ----------------
#NOTES:
     dance-double:
     :
     Hard:
     13:
     0.478,0.794,0.264,0.211,0.166:
00000000
00000000
00000000
00000000
,
00000000
00000000
00000000
00000000
,
00000000
00000000
00000000
00000000
,
00000000
00000000
00000000
00000000
,
00000000
00000000
00000000
00000000
,
00000000
00000000
00000000
00000000
,
00000000
00000000
00000000
00000000
,
00000000
00000000
00000000
00000000
,
00010000
00001000
00020000
00000000
00000000
00000000
00000000
00000000
00030000
00000000
00001000
00000000
00000000
00000000
00000000
00000000
,
00000002
00000000
00000000
00000100
00000000
00000103
00000000
00000001
,
00000200
00000000
00000000
00000320
00000000
00000000
00000000
00000000
,
00001030
00000000
00000001
00000000
00001000
00000002
00000103
00000001
,
00002000
00000000
00000100
00000000
00000000
00000100
00000000
00000000
,
00000100
00000000
00000000
00003100
00000000
00000100
00010000
00001000
,
01000000
00000000
00000000
01010000
00000000
00000000
22000000
00000000
,
00000000
00000000
00000000
00000000
00000000
33000000
00000000
00000000
,
00100000
01000000
00100000
00000000
00000000
00000000
00000000
00000000
00010000
01000000
00010000
00000000
00000000
00000000
00000000
00000000
,
00010000
00001000
00010000
00000000
00000000
00000000
00000000
00000000
00001000
00000100
00001000
00000000
00000000
00000000
00000000
00000000
,
00000001
00000100
00000001
00000000
00000000
00000000
00000000
00000000
00001000
00000010
00001000
00000000
00000000
00000000
00000000
00000000
,
00010000
00001000
00010000
00000000
00000000
00000000
00000000
00000000
01000000
00010000
01000000
00000000
00000000
00000000
00000000
00000000
,
10000000
01000000
10000000
00100000
01000000
00010000
01000000
00001000
,
00010000
00001000
00010000
00000100
00010000
00000010
00001000
00000010
,
00001000
00000100
00000010
00000001
00001000
00000100
00010000
00001000
,
01000000
00110000
00011000
00001100
,
00000110
00001002
00001000
00001003
,
00000110
00002100
00000100
00003100
,
00000110
00000000
00001000
00000100
00010000
00001000
01000000
00000000
,
01100000
00000000
01000000
00001000
00010000
00000100
00001000
00000000
,
00000110
00002100
00000100
00003100
,
00011000
02010000
00010000
03010000
,
11000000
00000000
10000000
00100000
10000000
00010000
00000000
00100000
,
00000000
00001000
00010000
00001000
00010000
00000010
00001000
00000000
,
00000100
00000000
00000001
00000100
00000000
00000000
00000010
00000000
00000000
00000000
00001000
00000100
00000000
00000000
00001000
00000000
,
00000000
00000000
00000010
00010000
00000000
00000000
00000010
00000000
00000000
00000000
00010000
00001000
00000000
00000000
00010000
00000000
,
00001000
00010000
00001000
00000000
00000000
00000000
00100000
00000000
00010000
01000000
00010000
00000000
00000000
00000000
01000000
00000000
,
00100000
10000000
00100000
00000000
00000000
00000000
01000000
00000000
10000000
00100000
10000000
00000000
00000000
00000000
00100000
00000000
,
01000000
00010000
01000000
00010000
00100000
00010000
00100000
00001000
,
00010000
00001000
00010000
00000010
00001000
00000010
00001000
00000100
,
00001000
00000001
00000010
00000100
00001000
00000100
00010000
00001000
,
00010000
00000000
00000000
00000000
00000000
00000000
00000000
00000000
00001000
00010000
00001000
00000000
00100000
00000000
00000000
00000000
,
01020000
00000000
00000000
00000000
00000000
00000000
00000000
00000000
01000000
00000000
00000000
01000000
00000000
00000000
01030000
00000000
,
00000000
00000000
10000000
00000000
00000000
01000000
00000000
00000000
00100000
00000000
00000000
00010000
00000000
00000000
00001000
00000000
,
00000000
00000000
00000001
00000000
00000000
00000010
00000000
00000000
00000100
00000000
00000000
00001000
00000000
00000000
00010000
00000000
,
00000000
00000000
10000000
00000000
00000000
00010000
00000000
00000000
00100000
00000000
00000000
00002000
00000000
00000000
00003000
00000000
,
00010000
00001000
00020000
00000000
00000000
00000000
00000000
00000000
00030000
00000000
00001000
00000000
00000000
00000000
00000000
00000000
,
00000002
00000000
00000000
00000100
00000000
00000103
00000000
00000001
,
00000200
00000000
00000000
00000320
00000000
00000000
00000000
00000000
,
00001030
00000000
00000001
00000000
00001000
00000002
00000103
00000001
,
00002000
00000000
00000100
00000000
00000000
00000100
00000000
00000000
,
00000100
00000000
00000000
00003100
00000000
00000100
00010000
00001000
,
01000000
00000000
00000000
01010000
00000000
00000000
22000000
00000000
,
00000000
00000000
00000000
00000000
00000000
33000000
00000000
00000000
,
10000000
01000000
10000000
01000000
10000000
00100000
10000000
00100000
,
01000000
00010000
01000000
00010000
01000000
00001000
01000000
00001000
,
00010000
00001000
00010000
00001000
00010000
00000010
00010000
00000010
,
00001000
00000010
00001000
00000010
00001000
00000001
00001001
00000000
,
00000001
00000010
00000100
00000010
00000001
00000010
00000100
00000000
,
00001000
00000100
00000010
00000100
00001000
00000100
00000010
00000000
,
00001000
00000100
00001000
00000100
00010000
00001000
00010000
00000000
,
00011000
00110000
11000000
01100000
,
10010000
00000000
00000000
00000000
10000000
00100000
01000000
00010000
10000000
00100000
01000000
00010000
00100000
00000000
00011000
00000000
,
00000100
00000000
00000000
00000000
00000001
00000100
00000010
00001000
00000001
00000100
00000010
00001000
00000100
00000000
00011000
00000000
,
00100000
00000000
00010000
10000000
00010000
10000000
00010000
01000000
00001000
01000000
00001000
00010000
00001000
00010000
00001000
00000000
,
00011000
00000000
00000100
00000000
00000010
00000000
00000001
00000000
00002000
00003000
00000200
00000300
00020000
00030000
00002000
00003000
,
00110000
00000000
00000000
00000000
01000000
00000000
00100000
01000000
00100000
00000000
00100000
00000000
00100000
00000000
10000000
00000000
,
00010000
00010000
00010000
00010000
00100000
00100000
00001000
00000000
,
00010000
00000000
00000000
00000000
00000100
00000000
00001000
00000100
00001000
00000000
00001000
00000000
00001000
00000000
00000010
00000000
,
00000100
00000100
00000100
00000001
00001000
00001000
00001001
00000000
,
00001100
00000000
00000000
00000000
00000100
00000000
00010000
00000100
00010000
00000000
00010000
00000000
00010000
00000000
00001000
00000000
,
01000000
01000000
01000000
01000000
00010000
00000000
10010000
00000000
,
01100000
00000000
00000000
00000000
10000000
00000000
01000000
10000000
01000000
00000000
01000000
00000000
10000000
00000000
10000000
00000000
,
00100000
00100000
01000000
01000000
00010000
00000000
00110000
00000000
,
00022000
00000000
00000000
00033000
;

//---------------dance-single - ----------------
#NOTES:
     dance-single:
     :
     Beginner:
     3:
     0.120,0.190,0.008,0.143,0.000:
0000
0000
0000
0000
,
0000
0000
0000
0000
,
0000
0000
0000
0000
,
0000
0000
0000
0000
,
0000
0000
0000
0000
,
0000
0000
0000
0000
,
0000
0000
0000
0000
,
0000
0000
0000
0000
,
0020
0000
0030
0000
,
2000
0000
3000
0000
,
0001
0000
0002
0000
,
0003
0000
0000
0000
,
0010
0000
0000
0000
,
0001
0000
0000
0000
,
0100
0000
0100
0000
,
0200
0000
0300
0000
,
0010
0000
0010
0000
,
1000
0000
1000
0000
,
0100
0000
0100
0000
,
0001
0000
0001
0000
,
1000
0000
1000
0000
,
0010
0000
0010
0000
,
0100
0000
0100
0000
,
0010
0010
0010
0000
,
0000
2000
0000
3000
,
0000
0002
0000
0003
,
0000
0000
0100
0100
,
0000
0000
0100
0100
,
0000
0002
0000
0003
,
0000
2000
0000
3000
,
0000
0000
0010
0010
,
0000
0000
0010
0010
,
0000
0100
0000
0100
,
0000
0001
0000
0001
,
0000
1000
0000
1000
,
0000
0001
0000
0001
,
0000
0010
0000
0010
,
0000
0001
0000
0001
,
0000
1000
0000
1000
,
1000
0000
0000
0000
,
0020
0000
0000
0030
,
0000
0000
0000
0000
,
0000
0000
0000
0000
,
0000
0000
0000
0000
,
0002
0000
0000
0000
,
0003
0000
0000
0000
,
1000
0000
2000
0000
,
3000
0000
0000
0000
,
0010
0000
0000
0000
,
0100
0000
0000
0000
,
0010
0000
0010
0000
,
0020
0000
0030
0000
,
1000
0000
1000
0000
,
0001
0000
0001
0000
,
0100
0000
0100
0000
,
0010
0000
0010
0000
,
1000
1000
1000
0000
,
0001
0001
0001
0000
,
0100
0100
0100
0000
,
0010
0010
0010
0000
,
0000
2000
0000
3000
,
0000
0002
0000
0003
,
0000
2000
0000
3000
,
0000
0000
0001
0001
,
0000
0000
0020
0000
,
0000
0000
0030
0000
,
0000
0000
0200
0000
,
0000
0000
0300
0000
,
0000
0000
2000
0000
,
0000
0000
3000
0000
,
0000
0000
0002
0000
,
0000
0000
0003
0000
,
1001
0000
0000
0000
;

//---------------dance-double - ----------------
#NOTES:
     dance-double:
     :
     Medium:
     9:
     0.388,0.712,0.301,0.474,0.000:
00000000
00000000
00000000
00000000
,
00000000
00000000
00000000
00000000
,
00000000
00000000
00000000
00000000
,
00000000
00000000
00000000
00000000
,
00000000
00000000
00000000
00000000
,
00000000
00000000
00000000
00000000
,
00000000
00000000
00000000
00000000
,
00000000
00000000
00000000
00000000
,
00022000
00000000
00000000
00033000
,
00000020
00000000
00000000
00000000
00000030
00002000
00000000
00000000
,
00003200
00000000
00000000
00020000
00000000
00000000
00000000
00000000
,
00000000
00030300
00002000
01003000
,
00220000
00000000
00000000
00000000
,
00000000
00330000
20000000
30000000
,
01020000
00000000
00000000
00100000
00000000
00000000
20000000
00000000
,
00000000
00000000
00000000
30030000
,
01100000
00100000
00110000
00010000
,
00010100
00000100
00000110
00000010
,
00000010
00000001
00001000
00000000
00000100
00001000
00000010
00000000
,
00001000
00000100
00010000
00000000
00010000
00001000
01000000
00000000
,
01000000
00010000
01000000
00010000
10000000
00100000
10000000
00000000
,
01000000
00010000
01000000
00010000
01000000
00100000
01000000
00000000
,
01000000
00001000
00010000
00000100
,
00001010
00001010
00001010
00001001
,
00000110
00000000
00001002
00000000
00000100
00000000
00000010
00000003
,
00000110
00002001
00000010
00003100
,
00000100
00010000
00001000
00011000
00000000
00011000
00000000
00010000
,
00001000
00100000
00010000
01000000
00100000
00000000
01100000
00000000
,
10000000
20010000
00100000
31000000
,
00010000
10020000
01000000
00130000
,
00100000
00000000
00010000
00001000
00010000
00000100
00010000
00000000
,
00001100
00000110
00000011
00001001
,
00000020
00000100
00001030
00000001
,
00002000
00000010
00003100
00000010
,
00020000
00001000
01030000
00100000
,
20000000
01000000
30100000
00010000
,
00100000
00001000
00010000
00000000
00010000
00000100
00001000
00000000
,
00001000
00000010
00000100
00000000
00000100
00000001
00000010
00000000
,
00000001
00000010
00000100
00001000
,
00010000
00001000
00010000
00001000
00010000
00000000
00011000
00000000
,
00202000
00000000
00000000
00000000
00000000
00000000
00000000
00003000
,
00020000
00000000
00000000
00300000
02000000
00000000
00000000
00030000
,
00200000
00000000
00000000
03000000
20000000
00000000
00000000
00300000
,
02000000
00000000
00000000
30000000
00200000
00000000
00000000
03300000
,
20000000
00000000
01000000
00000000
00000000
00100000
00000000
00000000
,
30020000
00000000
00000000
00100000
00000000
00000000
00032000
00000000
,
00023000
00000000
00000100
00000000
00000000
00001000
00000000
00000000
,
00030020
00000000
00000130
00001001
,
00000020
00000000
00001000
00000000
00000000
00000230
00000000
00000000
,
00000302
00000000
00000000
00002003
00000000
00000000
00003100
00000000
,
00000200
00000000
00000000
00020300
00000000
00000000
00002000
00000000
,
00000000
00000000
00000000
00033000
,
00001000
00000000
00100000
00000000
00010000
01000000
00010000
00000000
,
10000000
00000000
00100000
00000000
01000000
00010000
01000000
00000000
,
00010000
00100000
00010000
00000000
00100000
00001000
00100000
00000000
,
00001000
00010000
00001000
00000000
00010000
00000100
00010000
00000000
,
00000100
00001000
00000010
00000000
00000100
00000001
00000010
00000000
,
00000100
00001000
00010000
00000000
00010000
00100000
01000000
00000000
,
10000000
01000000
10000000
01000000
00100000
00010000
00100000
00010000
,
10010000
01010000
00110000
00011000
,
00000200
00020300
00032000
00203000
,
00320000
00000000
20030000
00000000
30010000
01000000
00100000
10010000
,
01100000
00000000
00020000
00000000
00032000
00000000
00003020
00000130
,
00002002
00003003
00000202
00000303
00000011
00000110
00001100
00011000
,
00200000
00000000
00010000
00000000
01000000
00000000
10000000
00300000
,
20000000
01000000
00100000
30010000
,
00200000
00001000
00010000
00301000
,
00020000
00000100
00001000
00030010
,
00000200
00000001
00000010
00001300
,
00000002
00001000
00000100
00001003
,
00000200
00010000
00001000
00010300
,
00002000
01000000
00010000
00103000
,
20020000
00000000
00000000
30030000
;

//---------------dance-double - ----------------
#NOTES:
     dance-double:
     :
     Easy:
     5:
     0.304,0.493,0.399,0.354,0.000:
00000000
00000000
00000000
00000000
,
00000000
00000000
00000000
00000000
,
00000000
00000000
00000000
00000000
,
00000000
00000000
00000000
00000000
,
00000000
00000000
00000000
00000000
,
00000000
00000000
00000000
00000000
,
00000000
00000000
00000000
00000000
,
00000000
00000000
00000000
00000000
,
00022000
00000000
00000000
00003000
,
00000200
00000000
00000000
00030300
,
00002200
00003300
00000220
00000000
,
00000000
00000330
00001001
00001001
,
00000220
00000000
00000000
00000300
,
00020000
00000030
00000200
00030300
,
00011000
00000000
00101000
00000000
,
02200000
00000000
00000000
03300000
,
10000000
01000000
00100000
01000000
,
10000000
01000000
00100000
00010000
,
00100000
00001000
00100000
00001000
,
00010000
00000100
00010000
00000100
,
00001000
00000100
00000010
00000001
,
00000001
00000010
00000100
00001000
,
00010000
00001000
00010000
00001000
,
00010000
00010000
00010000
00011000
,
00000100
00000020
00000000
00000030
,
00001000
00000002
00000000
00000003
,
00001000
00001100
00001100
00001100
,
00010000
00011000
00011000
00011000
,
00100000
02020000
00000000
03030000
,
10000000
02020000
00000000
03030000
,
00100000
00101000
00101000
00101000
,
00010000
00010100
00001000
00001100
,
00001000
00000020
00000031
00000100
,
00001000
00000020
00000030
00001000
,
00000100
00020000
00031000
01000000
,
00010000
20000000
00100000
30100000
,
01010000
01010000
11000000
11000000
,
01010000
01010000
00011000
00011000
,
00001100
00000101
00001100
00000101
,
00001100
00001000
00001000
00011000
,
00220000
00000000
00000000
00330000
,
00000000
00000000
00000000
00000000
,
00000000
00000000
00000000
00000000
,
00000000
00000000
00000000
00000000
,
00022000
00000000
00000000
00030000
,
02000000
00000000
00000000
03003000
,
02020000
03030000
02200000
00000000
,
00000000
03300000
10010000
10010000
,
02200000
00000000
00000000
00300000
,
00002000
00000000
00000000
03003000
,
00011000
00000000
00001100
00000000
,
00000220
00000000
00000000
00000330
,
00000001
00000001
00000100
00000100
,
00001000
00001000
00010000
00010000
,
01000000
01000000
10000000
10000000
,
01000000
00010000
00001000
00000100
,
00000001
00000010
00000100
00001000
,
00010000
00100000
01000000
10000000
,
01000000
00100000
00010000
00001000
,
00010000
00010000
00010000
00011000
,
00000010
00002002
00000000
00003003
,
00010000
00000000
00011000
00000000
00001000
00010000
00001000
00000000
,
00010000
20020000
00000000
30030000
,
10000000
00000000
10010000
00000000
01000000
00100000
00010000
00001000
,
00010000
00000200
00000000
00000300
,
00000010
00000001
00000100
00001000
,
00010000
00002000
00000000
00003000
,
00100000
00010000
01000000
10000000
,
00100000
20000000
00000000
30000000
,
01000000
00010000
00100000
00001000
,
00010000
00000200
00000000
00000300
,
00001000
00000010
00000001
00000100
,
00002002
00000000
00000000
00003003
;

//---------------dance-single - ----------------
#NOTES:
     dance-single:
     :
     Medium:
     9:
     0.398,0.712,0.467,0.459,0.000:
0000
0000
0000
0000
,
0000
0000
0000
0000
,
0000
0000
0000
0000
,
0000
0000
0000
0000
,
0000
0000
0000
0000
,
0000
0000
0000
0000
,
0000
0000
0000
0000
,
0000
0000
0000
0000
,
2002
0000
0000
3003
,
0020
0000
0000
0000
0030
2000
0000
0000
,
3002
0000
0000
2000
0000
0000
0000
0000
,
0000
3003
0110
1001
,
0022
0000
0000
0000
,
0000
0033
2000
3000
,
0102
0000
0000
0010
0000
0000
2000
0000
,
0000
0000
0000
3003
,
1001
0001
0101
0001
,
0011
0001
0101
0001
,
1001
1010
1100
1010
,
1000
0010
1000
0010
1000
0000
1001
0000
,
0100
0001
0100
0001
0100
0001
0100
0000
,
1000
0010
1000
0010
1000
0010
1000
0000
,
0100
1000
0001
0100
,
1010
1010
1010
1001
,
0110
0000
1002
0000
0100
0000
0010
0003
,
0110
2001
0010
3100
,
0100
0001
1000
1001
0000
1001
0000
0001
,
1000
0010
0001
0100
0010
0000
0110
0000
,
1000
2001
0010
3100
,
0001
1002
0100
0013
,
0010
0000
0001
1000
0001
0100
0001
0000
,
1100
0110
0011
1001
,
0020
0100
1030
0001
,
2000
0010
3100
0010
,
0002
1000
0103
0010
,
2000
0100
3010
0001
,
1001
0110
1001
0110
,
1010
0101
1010
0101
,
1001
0010
0100
1000
,
0001
1000
0001
1000
0001
0000
1001
0000
,
2000
0000
0000
0000
,
0002
0000
3000
0000
0200
0000
0000
0003
,
0020
0000
0000
0300
2000
0000
0000
0030
,
0200
0000
0000
3000
0020
0000
0000
0330
,
2000
0000
0100
0000
0000
0010
0000
0000
,
3002
0000
0000
0010
0000
0000
2003
0000
,
3002
0000
0100
0000
0000
1000
0000
0000
,
0023
0000
0130
1001
,
0020
0000
1000
0000
0000
0230
0000
0000
,
0302
0000
0000
2003
0000
0000
3100
0000
,
0200
0000
0000
0310
0000
0000
2002
0000
,
0000
0000
0000
3003
,
1000
0000
0010
0000
0001
0100
0001
0000
,
1000
0000
0010
0000
0100
0001
0100
0000
,
0001
0010
0001
0000
1000
0010
1000
0000
,
0001
1000
0001
0000
1001
0000
1001
0000
,
0001
1000
0001
0000
1001
0000
0110
0000
,
1000
0001
1000
0000
1001
0000
0110
0000
,
1000
0001
1000
0000
0001
1000
0001
0000
,
1001
0101
0011
1001
,
0200
0302
2003
3020
,
0032
0000
2003
0000
3001
0100
0010
1001
,
0110
0000
0002
0000
2003
0000
3020
0130
,
2002
3003
0202
0303
0011
0110
1100
1001
,
0020
0001
0130
1000
,
2000
0100
0010
3001
,
0020
1000
0100
1030
,
0002
0100
1000
0013
,
0200
0001
0310
1000
,
0002
1000
0100
1003
,
0200
0001
0010
0301
,
2000
0100
0001
3010
,
2002
0000
0000
3003
;

//---------------dance-single - ----------------
#NOTES:
     dance-single:
     :
     Easy:
     5:
     0.304,0.493,0.399,0.354,0.000:
0000
0000
0000
0000
,
0000
0000
0000
0000
,
0000
0000
0000
0000
,
0000
0000
0000
0000
,
0000
0000
0000
0000
,
0000
0000
0000
0000
,
0000
0000
0000
0000
,
0000
0000
0000
0000
,
2002
0000
0000
3000
,
0200
0000
0000
0303
,
2200
3300
0220
0000
,
0000
0330
1001
1001
,
0220
0000
0000
0300
,
0002
0030
0200
0303
,
1001
0000
1010
0000
,
0220
0000
0000
0330
,
1000
0100
0010
0100
,
1000
0100
0010
0001
,
0010
1000
0010
1000
,
0001
0100
0001
0100
,
1000
0100
0010
0001
,
0001
0010
0100
1000
,
0001
1000
0001
1000
,
0001
0001
0001
1001
,
0100
0020
0000
0030
,
1000
0002
0000
0003
,
1000
1100
1100
1100
,
0001
1001
1001
1001
,
0010
0202
0000
0303
,
1000
0202
0000
0303
,
0010
1010
1010
1010
,
0001
0101
1000
1100
,
1000
0020
0031
0100
,
1000
0020
0030
1000
,
0100
0002
1003
0100
,
0001
2000
0010
3010
,
0101
0101
1100
1100
,
0101
0101
1001
1001
,
1100
0101
1100
0101
,
1100
1000
1000
1001
,
0022
0000
0000
0033
,
0000
0000
0000
0000
,
0000
0000
0000
0000
,
0000
0000
0000
0000
,
2002
0000
0000
0003
,
0200
0000
0000
3300
,
0202
0303
0220
0000
,
0000
0330
1001
1001
,
0220
0000
0000
0030
,
2000
0000
0000
3300
,
1001
0000
1100
0000
,
0220
0000
0000
0330
,
0001
0001
0100
0100
,
1000
1000
0001
0001
,
0100
0100
1000
1000
,
0100
0001
1000
0100
,
0001
0010
0100
1000
,
0001
0010
0100
1000
,
0100
0010
0001
1000
,
0001
0001
0001
1001
,
0010
2002
0000
3003
,
0001
0000
1001
0000
1000
0001
1000
0000
,
0001
2002
0000
3003
,
1000
0000
1001
0000
0100
0010
0001
1000
,
0001
0200
0000
0300
,
0010
0001
0100
1000
,
0001
2000
0000
3000
,
0010
0001
0100
1000
,
0010
2000
0000
3000
,
0100
0001
0010
1000
,
0001
0200
0000
0300
,
1000
0010
0001
0100
,
2002
0000
0000
3003
;
