#TITLE:隔絶=タナトス;
#SUBTITLE:;
#ARTIST:ろひP;
#TITLETRANSLIT:Isolation Thanatos;
#SUBTITLETRANSLIT:;
#ARTISTTRANSLIT:Rohi-P;
#GENRE:;
#CREDIT:;
#MENUCOLOR:;
#METERTYPE:DDR;
#BANNER:Isolation Thanatos.png;
#BACKGROUND:Isolation Thanatos-bg.png;
#LYRICSPATH:;
#CDTITLE:;
#MUSIC:Isolation Thanatos.ogg;
#OFFSET:-0.050;
#SAMPLESTART:68.149;
#SAMPLELENGTH:13.200;
#SELECTABLE:YES;
#LISTSORT:;
#BPMS:0.000=200.000,388.000=210.000,391.000=215.000,420.000=222.222,430.000=218.000,436.000=200.000,440.000=190.000,444.000=170.000,446.000=160.000;
#STOPS:;
#BGCHANGES:0.500=Isolation Thanatos.avi=1.000=0=0=1,
99999=-nosongbg-=1.000=0=0=0 // don't automatically add -songbackground-
;
#ATTACKS:;

//---------------dance-single - ----------------
#NOTES:
     dance-single:
     :
     Hard:
     13:
     0.763,0.720,0.183,0.113,0.278:
0000
0000
0000
0000
,
0000
0000
0000
0000
,
0000
0000
0000
0000
,
0000
0000
0000
0000
,
0000
0000
0000
0000
,
0000
0000
0000
0000
,
0000
0000
0000
0000
,
0000
0000
0000
0000
,
0000
0000
0000
0000
0000
0000
0001
1000
,
0001
0100
0001
0100
0001
0000
1000
0001
,
1000
0100
1000
0100
1000
0000
0010
0100
,
0001
0100
0001
0100
0001
0000
1000
0010
,
0100
0000
0000
0010
0000
0000
0100
0000
0000
0010
0000
0000
1000
0000
0001
0000
1000
0000
0001
0000
1000
0000
0001
0000
,
1000
0010
1000
0010
1000
0001
0100
0000
,
0001
0010
0001
0010
0001
1000
0100
0000
,
1000
0000
0001
0000
0100
0000
0001
0000
1000
0000
0100
0000
,
1000
0000
0000
0000
0001
0000
0000
0000
0100
0000
0000
0000
1001
0000
0000
0000
0000
0000
0100
0000
0000
1000
0000
0000
,
0010
1000
0010
1000
0100
0000
0010
0001
,
0100
0001
0100
0001
0010
0000
1000
0100
,
1000
0001
1000
0100
1000
0000
0001
0100
,
0001
1000
0001
0100
0001
0000
1000
0010
,
0100
0100
0010
1000
0010
0000
0100
0001
,
0010
0010
0001
0100
0010
0000
1000
0001
,
0100
0010
0100
0000
0010
0100
0010
0000
,
1000
0001
1000
0001
1000
0000
0010
0100
,
0001
0100
0001
0100
0010
0000
0100
0010
,
1000
0010
1000
0010
0100
0000
0010
1000
,
0001
1000
0001
1000
0100
0000
0001
1000
,
0100
0000
0000
1000
0000
0000
0001
0000
0000
1000
0000
0000
0001
0000
0100
0000
0001
0000
0100
0000
0001
0000
0100
0000
,
0001
0100
0010
0100
0001
0000
1000
0010
,
0100
0010
0100
0010
1000
0000
0001
0100
,
0010
0000
0100
0000
0010
0000
1000
0000
0001
0000
1000
0000
,
0010
0000
0000
0000
0100
0000
0000
0000
0001
0000
0000
0000
1001
0000
0000
0000
0000
0000
0010
0000
0000
1000
0000
0000
,
0100
0100
1000
0010
0100
0000
0001
0100
,
0010
0010
0100
0001
1000
0000
0010
0100
,
0001
0001
1000
0010
0100
0000
0001
1000
,
0100
0100
1000
0001
0100
0000
0010
1000
,
0100
0100
0100
1000
0010
0000
0100
0001
,
0010
0010
0010
0001
0100
0000
0001
1000
,
0100
1000
0001
0100
0001
0010
0001
0010
,
0001
0100
0010
1000
0100
0000
1000
0001
,
0200
0310
0002
1003
,
0001
0010
0100
1000
0001
0000
1000
0010
,
0100
0001
0100
0001
1000
0010
1000
0010
,
1000
0100
0010
0001
0000
1001
0000
0000
,
0002
0103
2000
3010
,
0001
0100
0001
0100
0010
0000
1000
0100
,
1000
0100
1000
0001
0100
0000
0010
0000
,
0110
0000
0001
1000
0010
1000
0001
0000
,
1000
0010
1000
0010
0100
0001
0100
0001
,
1000
0000
0001
0000
1000
0001
1000
0000
0001
0000
0100
0000
0010
0000
0100
0000
,
0001
0100
0001
0100
0010
1000
0010
1000
,
0010
0100
0001
1000
0010
0000
1000
0100
,
1000
0010
1000
0010
0100
0001
0100
0001
,
1000
0000
0001
0000
1000
0001
1000
0000
0001
0000
0100
0000
0010
0000
0100
0000
,
0001
1000
0100
0010
0001
0000
1100
0000
,
0022
0000
0000
0000
0033
0000
1000
0001
,
0100
0000
0001
0000
1000
0000
0001
0000
0100
0000
0000
0010
0000
0000
0010
0000
,
1000
0000
0100
0000
1000
0000
0100
0000
1000
0000
0000
0001
0000
0000
0100
0000
,
0010
0000
1000
0000
0010
0000
1000
0000
0010
0000
0000
0100
0000
0000
0001
0000
,
1000
0000
0000
0100
0000
0000
1000
0000
0002
0000
0000
0000
2003
0000
0000
0000
,
3001
0100
0001
1000
0100
1000
0001
0100
,
0010
1000
0010
0100
0001
0100
0010
1000
,
0100
1000
0010
0100
0000
0001
0100
0010
,
0010
0000
0000
1001
0000
0000
1000
0000
0100
0000
0000
0000
1001
0000
0000
0000
,
0010
0000
0001
0000
0100
0000
0001
0000
0010
0000
0000
0010
0000
0000
0100
0000
,
0010
0000
1000
0000
0100
0000
1000
0000
0010
0000
0000
0100
0000
0000
0001
0000
,
1000
0000
0100
0000
1000
0000
0001
0000
0100
0000
0000
0010
0000
0000
0100
0000
,
0001
0000
0000
1000
0000
0000
0001
0000
2000
0000
0000
0000
3020
0000
0000
0000
,
0130
0001
0100
0010
1000
0010
0100
0001
,
1000
0010
1000
0001
0100
0001
1000
0010
,
1000
0000
0010
0100
0001
1000
0100
0000
,
1000
0000
0000
1001
0000
0000
0010
0000
0100
0000
0000
0000
0001
0000
1000
0000
,
0001
0000
0010
0001
0000
0010
0001
0000
0100
0000
0000
0000
0010
0000
1000
0000
,
0100
0000
1000
0100
0000
1000
0100
0000
1000
0000
0000
0000
0010
0000
0100
0000
,
0001
0000
0000
0001
0000
0000
1000
0000
0010
0000
0000
1000
0000
0000
0001
0000
,
0100
0000
0000
0010
0000
0000
1000
0000
0000
0010
0000
0000
0100
0000
0010
0000
0100
0000
0010
0000
0100
0000
0010
0000
,
0100
0000
0000
0001
0000
0000
1000
0000
1000
0000
0000
0010
0000
0000
1000
0000
,
0100
0000
0000
1000
0000
0000
0001
0000
0001
0000
0100
0000
0010
0000
1000
0000
,
0001
0000
0011
0000
0001
0000
1000
0000
1100
0000
1000
0000
,
0020
0000
0000
0000
,
1030
0000
0001
0000
1000
0000
0100
0000
1000
0000
0000
0001
0000
0000
1000
0000
,
0001
0000
1000
0000
0001
0000
0100
0000
0001
0000
0000
1000
0000
0000
0010
0000
,
1000
0000
0100
0000
0010
0000
0001
0000
0100
0000
0000
0010
0000
0000
0100
0000
,
0001
0000
0000
0100
0000
0000
1000
0000
0010
0000
0000
0000
1001
0000
0000
0000
,
1000
0010
1000
0001
0100
0001
1000
0100
,
0010
0001
0010
0001
0100
0001
0100
0010
,
1000
0100
1000
0100
1000
0010
0100
0001
,
0100
0000
0000
0110
0000
0000
1000
0000
0001
0000
1000
0000
0100
0000
1000
0000
,
0001
0000
0010
0000
0001
0000
0100
0000
0010
0000
0000
0010
0000
0000
0010
0000
,
1000
0000
0100
0000
1000
0000
0010
0000
0100
0000
0000
0100
0000
0000
0100
0000
,
0001
0000
1000
0000
0010
0000
1000
0000
0001
0000
0000
0100
0000
0000
0100
0000
,
0010
0000
0000
1000
0000
0000
1000
0000
0002
0000
0000
0000
0203
0000
0000
0000
,
0310
1000
0001
0100
0001
1000
0001
0100
,
0100
1000
0001
0010
0001
1000
0010
0100
,
0001
0001
1000
0100
0100
1000
0010
0100
,
0001
0000
0000
1001
0000
0000
1000
0000
0100
0000
1000
0000
1001
0000
0000
0000
,
2000
0000
3001
0100
0000
0001
1000
0100
,
1000
0001
1000
0001
0100
0010
0100
0010
,
1000
0000
0001
0100
0001
0100
0010
1000
,
0010
0000
0000
1000
0000
0000
0010
0000
0000
0100
0000
0000
0001
0000
1000
0000
0001
0000
1000
0000
0001
0000
1000
0000
,
0001
0000
1000
0100
1000
0100
1000
0010
,
0100
0001
1000
0001
0100
0010
1000
0100
,
1000
0000
0001
0000
1001
0000
1000
0000
0010
0000
1010
0000
,
1000
0000
0001
0000
0100
0000
0101
0000
0000
1100
0000
0000
,
1000
0001
1000
0001
0100
0010
0100
0010
,
1000
0100
1000
0001
0001
0100
0001
1000
,
1000
0010
0100
0001
1000
0010
0100
0001
,
1000
0000
0000
0001
0000
0000
0100
0000
0000
0000
0000
0000
0001
0000
1000
0000
0001
0000
1000
0000
0001
0000
1000
0000
,
0001
0000
0100
0000
0010
0000
1000
0001
,
1001
0000
0010
0000
0100
0000
0010
1000
,
1001
0000
1001
0000
0010
0000
0110
0000
0110
0000
1000
0000
,
1001
0000
0001
0000
0100
0000
2002
0000
0000
0000
0000
0000
,
0000
0000
3003
0000
;

//---------------dance-single - ----------------
#NOTES:
     dance-single:
     :
     Medium:
     11:
     0.543,0.560,0.148,0.204,0.187:
0000
0000
0000
0000
,
0000
0000
0000
0000
,
0000
0000
0000
0000
,
0000
0000
0000
0000
,
0000
0000
0000
0000
,
0000
0000
0000
0000
,
0000
0000
0000
0000
,
0000
0000
0000
0000
,
0000
0000
0000
1001
,
0010
0000
1000
0100
1000
0000
0010
0000
,
0100
0000
0001
0010
0001
0000
0100
0000
,
0001
0000
1000
0100
1000
0000
0010
0000
,
0100
0001
2002
3003
,
0010
0000
0100
0001
0100
0000
0010
0000
,
1000
0000
0100
1000
0100
0000
0001
0000
,
1000
0000
0001
0000
0100
0000
0001
0000
1000
0000
0100
0000
,
1000
0000
0001
0000
0100
0000
0001
0000
0000
0100
0000
0000
,
0010
1000
0010
0000
0100
0000
0010
0000
,
0010
0001
0010
0000
0100
0000
0010
0000
,
1000
0100
1000
0000
0010
0000
0100
0000
,
0001
0100
0001
0000
0100
0000
0010
0000
,
1000
0100
1000
0100
1000
0000
0010
0000
,
0001
0100
0001
0100
0001
0000
1000
0000
,
0010
1000
0100
0001
,
0010
1000
1001
0000
,
1001
0000
0010
0100
0010
0000
1000
0010
,
1000
0000
0001
0100
0001
0000
1000
0010
,
1000
0000
0010
0100
0010
0000
1000
0001
,
1000
0010
0220
0330
,
0001
0000
1000
0100
1000
0000
0001
0100
,
0001
0000
1000
0010
1000
0000
0011
0000
,
0010
0000
0010
0000
0010
0000
1000
0000
1000
0000
1000
0000
,
0001
0000
0000
0000
0001
0000
0000
0000
0001
0000
0000
0000
1000
0000
0000
0000
0000
0000
0010
0000
0000
1000
0000
0000
,
0100
0000
1000
0000
0100
0000
0001
0100
,
0010
0000
0100
0000
0001
0000
0100
1000
,
0001
0000
1000
0000
0100
0000
0001
1000
,
0100
0000
0100
0000
0100
0000
0010
1000
,
0100
0000
1000
0000
0010
0000
0100
0001
,
0010
0000
0001
0000
0100
0000
0001
1000
,
0100
1000
0001
0010
,
0001
0100
0010
0000
0110
0000
0000
0000
,
0002
0000
2003
0000
,
3001
0000
0100
0001
0100
0000
0010
0000
,
0100
0000
0100
0001
1000
0000
1000
0010
,
0000
1000
0010
0000
0100
0000
0000
0000
,
0002
0000
0203
0000
,
0301
0000
0001
0100
0001
0000
1000
0000
,
0001
0000
0100
0001
0100
0000
0010
0000
,
0100
0000
0001
1000
0001
0000
0100
0000
,
0020
0030
0200
0300
,
0001
1000
0001
1000
0001
0000
0100
0000
,
0010
1000
0010
1000
0010
0000
0100
0000
,
0001
0010
0001
0010
0001
0000
0100
0000
,
0020
0030
2000
3000
,
0001
0100
0001
0100
0001
0000
1000
0000
,
0010
0100
0010
0100
0010
0000
0100
0000
,
2002
0000
3003
1001
,
0100
0000
0000
0000
0001
0000
0000
0000
0100
0000
0000
0010
0000
0000
0010
0000
,
0100
0000
0000
0000
0001
0000
0000
0000
1000
0000
0000
0001
0000
0000
0001
0000
,
1000
0000
0000
0000
0001
0000
0000
0000
0010
0000
0000
0010
0000
0000
0000
0000
,
0100
0000
0000
0100
0000
0000
0000
0000
1000
0000
0000
0000
1001
0000
0000
0000
,
0001
1000
0001
1000
0001
0000
0100
0000
,
1000
0001
1000
0001
1000
0000
0010
0000
,
1000
0010
1000
0010
0000
0000
0110
0000
,
1000
0000
0000
1000
0000
0000
1000
0000
0002
0000
0000
0000
1003
0000
0000
0000
,
0100
0000
0000
0000
1000
0000
0000
0000
0100
0000
0000
1000
0000
0000
1000
0000
,
0100
0000
0000
0000
0010
0000
0000
0000
0001
0000
0000
0100
0000
0000
0100
0000
,
0001
0000
0000
0000
1000
0000
0000
0000
0001
0000
0000
0001
0000
0000
0000
0000
,
1000
0000
0000
1000
0000
0000
0000
0000
0001
0000
0000
0000
1001
0000
0000
0000
,
0001
1000
0001
1000
0001
0000
0100
0000
,
1000
0001
1000
0001
1000
0000
0010
0000
,
1000
0000
0000
0001
0000
0000
1001
0000
,
0001
0000
0000
0001
0000
0000
0001
0000
2000
0000
0000
0000
3000
0000
0000
0000
,
0001
0000
0000
0001
0000
0000
0001
0000
0100
0000
0000
0000
0010
0000
0000
0000
,
1000
0000
0000
1000
0000
0000
1000
0000
0010
0000
0000
0000
0100
0000
0000
0000
,
0001
0000
0000
0001
0000
0000
1000
0000
0010
0000
0000
1000
0000
0000
0001
0000
,
0200
0300
0220
0330
,
1000
0000
0000
0001
0000
0000
0001
0000
1000
0000
0000
0001
0000
0000
0001
0000
,
1000
0000
0000
0001
0000
0000
0000
0000
0100
0000
0000
0000
0110
0000
0000
0000
,
0001
0000
0001
0000
0001
0000
1000
0000
1000
0000
1000
0000
,
0020
0000
0000
0000
,
1030
0000
0001
0000
1000
0000
0000
0000
0001
0000
0000
0001
0000
0000
0000
0000
,
0001
0000
1000
0000
0001
0000
0000
0000
1000
0000
0000
1000
0000
0000
0000
0000
,
0010
0000
0100
0000
0010
0000
0000
0000
0010
0000
0000
0010
0000
0000
0000
0000
,
0100
0000
0000
0100
0000
0000
0000
0000
0010
0000
0000
0000
1001
0000
0000
0000
,
1000
0010
1000
0010
0100
0000
0001
0000
,
0100
0001
0100
0001
0010
0000
0001
0000
,
1000
0001
1000
0001
1000
0000
0100
0000
,
0010
0000
0000
0010
0000
0000
1000
0000
0001
0000
0000
0000
1001
0000
0000
0000
,
0001
0000
0010
0000
0001
0000
0000
0000
0010
0000
0000
0010
0000
0000
0000
0000
,
1000
0000
0100
0000
1000
0000
0000
0000
0100
0000
0000
0100
0000
0000
0000
0000
,
0001
0000
1000
0000
0010
0000
0000
0000
0100
0000
0000
0100
0000
0000
0000
0000
,
1000
0000
0000
1000
0000
0000
0000
0000
1000
0000
0000
0000
0001
0000
0000
0000
,
0100
0010
0100
0010
0100
0000
0001
0000
,
1000
0001
0010
0001
1000
0000
0010
0000
,
0100
0000
0000
0010
0000
0000
1001
0000
,
1000
0000
0000
1000
0000
0000
1000
0000
0100
0000
0000
0000
0000
0000
0000
0000
,
2000
0000
3001
0100
0000
0001
1000
0000
,
1000
0001
0100
0010
,
1000
0000
0001
0100
0000
0100
0010
0000
,
0010
0010
2002
3003
,
0001
0000
1000
0100
0000
1000
0010
0000
,
0100
0001
1000
0010
,
1000
0000
0001
0000
0001
0000
1000
0000
0010
0000
0010
0000
,
1000
0000
0001
0000
0001
0000
1000
0000
0000
0000
0000
0000
,
0001
0000
0100
0000
1000
0000
0010
1000
,
0010
1000
0100
0001
,
1000
0000
0010
0000
0100
0000
0001
1000
,
0100
1000
2002
3003
,
0020
0000
0000
0000
0030
0000
1000
0100
,
0002
0003
1000
0001
,
1000
0000
1000
0000
1000
0000
0001
0000
0001
0000
0001
0000
,
1000
0000
2002
0000
,
0000
0000
3003
0000
;

//---------------dance-single - ----------------
#NOTES:
     dance-single:
     :
     Easy:
     8:
     0.463,0.600,0.331,0.529,0.000:
0000
0000
0000
0000
,
0000
0000
0000
0000
,
0000
0000
0000
0000
,
0000
0000
0000
0000
,
0000
0000
0000
0000
,
0000
0000
0000
0000
,
0000
0000
0000
0000
,
0000
0000
0000
0000
,
0000
0000
0000
1001
,
0010
1000
0100
0000
,
0100
0001
0010
0000
,
0001
1000
0100
0000
,
0100
0001
2002
3003
,
0010
0100
0001
0000
,
1000
0001
0100
0000
,
1001
0000
0101
0000
,
1100
0000
1001
0000
,
0010
0001
0200
1300
,
0010
1000
0200
0301
,
0010
0001
0100
0010
,
1000
0100
0010
0001
,
0100
0100
0020
1030
,
0100
0100
0020
0031
,
0100
0010
1000
0001
,
0200
0010
0020
0330
,
0001
0100
2002
3003
,
1000
0100
2002
3003
,
0001
0010
1000
0100
,
0010
0001
2002
3003
,
0010
1000
2200
3300
,
0010
0001
0202
0303
,
1010
0000
0101
0000
,
1100
0000
1001
0000
,
1100
1000
0100
0000
,
0101
0001
0100
0000
,
1001
1000
0100
0000
,
1001
0001
0100
0000
,
1000
0100
0010
0001
,
0100
1000
0010
0001
,
0010
1000
0100
0001
,
0020
0100
0130
0000
,
0002
0000
2003
0000
,
3001
0100
0101
0000
,
0100
0100
1001
0000
,
0010
0010
1001
0000
,
0002
0000
0203
0000
,
0301
1000
1001
0000
,
0001
0100
0010
1000
,
0010
0100
0001
0000
,
0020
0030
0200
0300
,
0001
1001
1001
0000
,
0010
1000
0010
0100
,
0001
1000
0001
0100
,
0020
0030
2000
3000
,
0001
0100
0001
1000
,
0010
0010
0010
0100
,
2002
0000
3003
0001
,
0100
0001
0200
0310
,
1000
0100
2000
3100
,
0001
1000
0002
0003
,
2000
3000
0010
1001
,
0001
1000
0001
0100
,
1000
0001
1000
0010
,
1000
0010
0100
0001
,
1000
1000
2002
3003
,
0100
1000
0020
0130
,
0010
0001
0200
0310
,
0001
0100
1000
0001
,
1000
0100
0001
1000
,
0001
1000
0001
0100
,
1000
0001
1000
0010
,
1000
0000
0000
0001
0000
0000
1000
0000
,
0001
0001
2002
3003
,
0001
0001
0100
0010
,
1000
1000
0010
0100
,
0001
0001
1000
1000
,
0220
0330
2002
3003
,
1000
0001
2002
3003
,
0001
1000
2002
3003
,
0110
0000
1001
0000
,
0020
0000
0000
0000
,
1030
1001
0100
0100
,
0001
1001
0100
0100
,
1000
0100
0010
0001
,
0100
0100
1001
0000
,
1000
0010
0100
0001
,
0100
0001
0010
0001
,
1000
0001
1000
0100
,
0010
0010
2002
3003
,
0001
0010
0220
0330
,
1000
0100
0220
0330
,
0001
0010
1000
0100
,
1000
0010
0001
1000
,
1001
1000
0001
0100
,
0001
1000
0001
1000
,
0100
0000
0000
0010
0000
0000
0001
0000
,
0100
0000
2002
3003
,
2000
3001
0100
0001
,
1000
1000
0001
0001
,
2000
3010
0100
0100
,
0001
0200
0020
0330
,
1000
0010
1000
0010
,
0100
0001
0100
1000
,
0010
0001
0010
1000
,
0001
1000
0001
0000
,
0002
0000
0003
1000
,
0020
0030
0200
0300
,
0002
0000
0103
0001
,
2200
3300
2002
3003
,
0020
0000
0030
1000
,
0002
0003
2000
3000
,
0020
0030
0200
0300
,
1001
0000
2002
0000
,
0000
0000
3003
0000
;

//---------------dance-single - ----------------
#NOTES:
     dance-single:
     :
     Beginner:
     5:
     0.264,0.360,0.106,0.071,0.000:
0000
0000
0000
0000
,
0000
0000
0000
0000
,
0000
0000
0000
0000
,
0000
0000
0000
0000
,
0000
0000
0000
0000
,
0000
0000
0000
0000
,
0000
0000
0000
0000
,
0000
0000
0000
0000
,
0000
0000
0000
0000
,
0010
0000
0010
0000
,
0100
0000
0100
0000
,
0001
0000
0001
0000
,
1000
0000
1000
0000
,
0010
0000
0001
0000
,
0100
0000
0100
0000
,
0010
0000
1000
0000
,
0100
0000
0100
0000
,
0010
0000
0100
0000
,
0010
0000
0100
0000
,
0010
0000
0100
0000
,
1000
0000
1001
0000
,
0100
0000
0010
0000
,
0100
0000
0010
0000
,
0100
0000
0010
0000
,
0001
0000
1001
0000
,
0001
0000
0001
0000
,
1000
0000
1000
0000
,
0001
0000
1000
0000
,
0001
0000
1000
0000
,
0010
0000
0100
0000
,
0010
0000
0100
0000
,
0010
0000
0001
0000
,
0100
0000
1001
0000
,
1000
1000
1000
0000
,
0001
0001
0001
0000
,
1000
0000
0001
0000
,
1000
1000
1000
0000
,
0001
0000
0010
0000
,
0100
0000
1000
0000
,
0010
0010
0010
0000
,
0100
0100
0100
0000
,
0001
0000
1000
0000
,
0100
0100
0100
0000
,
1000
0000
0001
0000
,
0010
0010
0010
0000
,
0001
0000
0100
0000
,
1000
1000
1000
0000
,
1000
0000
0100
0000
,
0001
0001
0001
0000
,
1000
0000
0001
0000
,
1000
1000
1000
0000
,
0001
0001
0001
0000
,
0100
0000
1001
0000
,
0010
0000
0100
0000
,
0001
0001
0001
0000
,
1000
1000
1000
0000
,
2002
0000
3003
0000
,
0100
0000
0100
0000
,
0010
0000
0010
0000
,
0001
0000
0001
0000
,
1000
0000
1000
0000
,
0001
0001
0001
0000
,
1000
1000
1000
0000
,
0010
0000
0100
0000
,
1000
1000
1000
0000
,
0001
0000
2000
3000
,
0001
0000
2000
3000
,
0001
0000
0100
0000
,
1000
0000
1001
0000
,
0001
0001
0001
0000
,
1000
1000
1000
0000
,
0010
0000
0100
0000
,
0010
0000
2002
3003
,
0001
0001
0001
0000
,
1000
1000
1000
0000
,
0001
0000
1000
0000
,
0010
0000
0100
0000
,
1000
1000
1000
0000
,
0001
0001
0001
0000
,
0100
0000
0010
0000
,
2002
0000
3003
0000
,
1000
0000
0100
0000
,
0001
0000
0100
0000
,
1000
0000
0001
0000
,
0100
0000
1001
0000
,
1000
0000
0010
0000
,
0001
0000
0010
0000
,
1000
0000
0001
0000
,
0010
0000
1001
0000
,
0001
0001
0001
0000
,
1000
1000
1000
0000
,
0010
0010
0010
0000
,
0010
0000
1001
0000
,
1000
1000
1000
0000
,
0001
0001
0001
0000
,
0100
0000
0100
0000
,
0100
0000
1001
0000
,
1000
0000
0001
0000
,
1000
1000
1000
0000
,
0001
0000
1000
0000
,
0001
0001
0001
0000
,
0010
0000
0100
0000
,
0100
0100
0100
0000
,
0010
0000
0010
0000
,
1000
0000
1001
0000
,
0001
0000
0000
0010
,
0010
0000
1000
0000
,
0100
0000
0001
0001
,
0001
0000
1001
0000
,
0010
0000
0000
0100
,
0100
0000
0001
0000
,
0010
0000
0100
0000
,
1000
0000
2002
0000
,
0000
0000
3003
0000
;

//---------------dance-single - ----------------
#NOTES:
     dance-single:
     :
     Challenge:
     16:
     0.922,0.960,0.353,0.303,0.627:
0000
0000
0000
0000
,
0000
0000
0000
0000
,
0000
0000
0000
0000
,
0000
0000
0000
0000
,
0000
0000
0000
0000
,
0000
0000
0000
0000
,
0000
0000
0000
0000
,
0000
0000
0000
0000
,
0000
0000
0000
0000
0000
0000
1000
0001
,
0100
0000
0010
0000
1000
0100
1000
0100
1000
0000
0010
0000
0100
0000
0001
0100
,
0001
0000
1000
0000
0001
1000
0001
1000
0001
0000
0100
0000
0001
0100
0001
0000
,
1000
0000
0010
0000
1000
0010
1000
0010
1000
0000
0001
0000
0100
0010
0100
0000
,
0010
0000
0000
0000
0000
0000
1000
0000
0000
0000
0000
0000
0001
0000
0000
1000
0000
0000
0001
0000
0000
0000
0000
0000
1000
0000
0000
0000
0001
0000
0000
0000
1000
0000
0000
0000
0010
0000
0000
0000
0100
0000
0000
0000
0010
0000
0000
0000
,
1000
0000
0100
0000
0010
0001
0010
0001
0010
0000
0001
0000
0100
0010
0100
0000
,
0010
0000
1000
0000
0100
1000
0100
1000
0100
0000
1000
0000
0001
0100
0001
0000
,
1000
0000
0001
0000
0101
0000
1000
0000
0010
0000
0110
0000
,
1000
0000
0000
0000
0100
0000
0000
0000
0010
0000
0000
0000
1001
0000
0000
0000
0000
0000
0010
0000
0000
1000
0000
0000
,
0100
0010
0001
0100
0020
0000
1030
0001
,
0100
0010
0100
1000
0100
0000
0001
0100
,
0010
1000
0100
0010
0002
0000
0103
0010
,
1000
0001
1000
0100
0002
0000
0103
1000
,
0010
1000
0001
1000
0200
0000
1300
0010
,
1000
0001
0100
0010
2000
0000
3001
0100
,
0010
0010
1000
0001
0100
0100
0001
1000
,
0010
0100
0001
1000
0200
0000
1300
0010
,
0100
0000
0001
0000
1000
0001
1000
0001
1000
0000
0010
0000
0100
0010
0100
0000
,
0010
0000
1000
0000
0100
1000
0100
1000
0100
0000
1000
0000
0001
0100
0001
0000
,
0100
0000
0010
0000
1000
0001
1000
0001
1000
0000
0010
0000
0100
0001
0100
0000
,
0010
0000
0000
0000
0000
0000
1000
0000
0000
0000
0000
0000
0100
0000
0000
1000
0000
0000
0100
0000
0000
0000
0000
0000
1000
0000
0000
0000
0010
0000
0000
0000
0100
0000
0000
0000
0001
0000
0000
0000
0100
0000
0000
0000
0010
0000
0000
0000
,
1000
0000
0001
0000
0100
0010
0100
0010
0100
0000
0001
0000
1000
0001
1000
0000
,
0010
0000
0100
0000
0001
0010
0001
0010
0001
0000
0100
0000
0010
1000
0010
0000
,
1000
0000
0100
0000
1100
0000
0010
0000
0001
0000
0011
0000
,
0100
0000
0000
0000
0010
0000
0000
0000
1000
0000
0000
0000
1001
0000
0000
0000
0000
0000
1000
0000
0000
0100
0000
0000
,
0010
0001
0100
0010
2000
0000
3001
0010
,
0100
1000
0100
0001
0200
0000
1300
0010
,
0100
0001
0100
0010
2000
0000
3001
0100
,
1000
0100
0001
0100
0020
0000
1030
0100
,
1000
0010
1000
0001
0200
0000
0310
1000
,
0010
0100
0010
1000
0200
0000
1300
0010
,
0100
0100
0001
1000
0001
0001
1000
0010
,
0100
0001
1000
0001
1001
0000
0010
0100
,
0002
0000
0000
1003
2002
0000
3003
0000
,
1000
0100
0010
0001
1001
0000
0010
0100
,
0001
1000
0001
1000
0010
0100
0010
1000
,
0100
0010
0001
0100
0000
1001
0000
0000
,
0020
0000
0000
0130
0220
0000
0330
0000
,
0001
0100
0010
1000
0100
0000
1000
0100
,
1000
0001
1000
0010
1000
0000
0101
0000
,
1100
0000
0010
0110
0000
1001
0000
0000
,
0100
0000
0010
0100
0000
0000
0010
0000
0000
0000
0010
0100
0000
0000
0010
0000
,
1000
0100
0010
0001
0100
0000
0001
1000
,
0100
0000
1000
0100
1000
0000
0010
0000
0100
0000
0001
0000
0100
0000
0010
1000
,
0010
0100
0010
1000
0001
1001
0000
0000
,
0110
0110
0000
0000
0000
0000
0000
0010
,
1010
1010
0000
0000
0000
0000
0000
0000
,
1000
0100
1100
0000
0001
0100
0101
0000
,
2002
0000
0000
0000
3003
0000
0010
1000
,
0001
0000
1000
0000
0010
0000
0100
0000
0001
0100
0000
0001
0100
0000
0010
0000
,
1000
0000
0100
0000
0010
0000
0001
0000
0100
0010
0000
0100
0010
0000
1000
0000
,
0100
0000
0001
0000
0100
0000
1000
0000
0001
1000
0000
0001
1000
0000
0010
0000
,
0110
0000
0000
0000
0000
0000
1000
0000
0000
0001
0000
0000
1000
0000
0100
0000
0010
0000
0001
0000
0010
0000
0100
0000
,
1000
0000
0001
0000
1000
0000
0010
0000
0100
0000
0010
0000
1000
0100
1000
0000
,
0001
0000
0100
0000
0001
0000
1000
0000
0010
0000
1000
0000
0010
0100
0010
0000
,
1000
0000
0100
0000
0010
0000
0001
0000
0100
0000
0010
0000
1000
0100
1000
0000
,
0010
0000
0000
0110
0000
0000
1001
0000
0001
0000
0100
0000
0010
0100
0010
0100
,
0010
0000
1000
0000
0001
0000
1000
0000
0010
0100
0000
0010
0100
0000
0001
0000
,
1000
0000
0100
0000
0001
0000
0100
0000
1000
0001
0000
1000
0001
0000
1000
0000
,
0010
0000
0001
0000
0010
0000
1000
0000
0001
1000
0000
0001
1000
0000
0010
0000
,
0110
0000
0000
0000
0000
0000
1000
0000
0000
0100
0000
0000
0001
0000
0100
0000
0001
0000
1000
0000
0100
0000
1000
0000
,
0010
0000
0100
0010
0100
0000
0010
0000
1000
0000
0100
0000
0010
0000
0001
0000
,
1000
0000
0001
1000
0001
0000
0100
0000
0010
0000
1000
0000
0100
0000
0010
0000
,
0002
0100
0103
0020
0000
1000
1030
0000
,
0100
0000
0000
1001
0000
0000
1000
0000
2002
0000
3003
0000
0010
0000
0001
0000
,
0100
0000
0010
0100
0000
0010
0100
0000
0002
0000
0000
0000
1003
0000
0100
0000
,
0010
0000
0001
0100
0000
0001
0100
0000
0020
0000
0000
0000
1030
0000
0100
0000
,
0010
0000
0001
0100
0000
0001
0010
0000
0001
0000
1000
0100
0000
1000
0010
0000
,
0200
0000
0000
0000
0000
0000
0301
0010
0100
1000
0010
0100
,
0001
0000
0100
0010
0100
0010
0100
0000
0001
0000
1000
0100
1000
0100
1000
0000
,
0010
0000
0100
0001
0100
0001
0100
0000
0010
0000
1000
0100
1000
0100
1000
0000
,
0101
0000
0101
0000
0001
0000
1001
0000
1001
0000
1000
0000
,
2200
0000
0000
3300
,
0010
0000
1000
0000
0100
0000
1000
0000
0001
0100
0000
0010
1000
0000
0010
0000
,
0100
0000
0001
0000
0010
0000
0100
0000
1000
0100
0000
0010
0001
0000
0100
0000
,
0010
1000
0010
0000
0100
0000
0010
0000
1000
0001
0000
0001
1000
0000
0010
0000
,
0110
0000
0000
0000
0000
0000
1000
0000
0000
0001
0000
0000
1000
0000
0010
0000
1000
0000
0001
0000
0100
0000
0001
0000
,
1000
0010
1000
0000
0010
0000
0100
0010
0100
0000
0010
0000
1000
0000
0100
0000
,
0010
0001
0010
0000
0001
0000
0100
0010
0100
0000
0010
0000
1000
0000
0100
0000
,
0010
0001
0100
0110
0000
1001
1000
0100
,
0010
0000
0000
1001
0000
0000
0100
0000
0010
0000
1000
0000
0100
1000
0100
1000
,
0100
0000
1000
0000
0010
0000
0100
0000
0001
0010
0000
0010
0001
0000
0100
0010
,
0100
0000
0010
0000
1000
0000
0100
0000
1000
0001
0000
0001
0100
0000
0010
1000
,
0100
0000
1000
0000
0010
0000
0100
0000
0001
0010
0000
0001
0100
0000
0010
1000
,
0001
0000
0000
0000
0000
0000
1000
0000
0000
0010
0000
0000
0100
0000
0001
0000
0100
0000
0010
0000
1000
0000
0010
0000
,
0100
0010
0100
0000
0010
0000
1000
0001
1000
0000
0001
0000
0100
0000
0010
0000
,
1000
0100
1000
0000
0010
0000
0001
0100
0001
0000
0100
0000
0010
0000
1000
0000
,
0200
1000
1300
0002
0000
1000
1003
0000
,
0010
0000
0000
0110
0000
0000
1000
0000
2002
0000
0000
0000
3003
0000
0000
0000
,
0020
0030
0110
0020
0000
1030
0100
0010
,
0001
0100
0001
0000
0100
0001
0100
0000
0001
1000
0001
0000
0001
1000
0001
0000
,
1001
0000
1000
1000
0001
0001
0100
0100
,
0010
0000
0000
1000
0000
0000
0010
0000
0000
0000
0000
0000
0100
0000
0000
0000
0000
0000
0010
0000
0000
0000
0000
0000
1000
0000
0000
0000
0100
0000
0000
0000
0010
0000
0000
0000
0001
0000
0000
0000
0100
0000
0000
0000
0010
0000
0000
0000
,
1000
0000
0000
0000
1000
0001
0000
0000
0001
0100
0000
0000
0100
0010
0000
0000
,
0010
1000
0001
0100
0010
0100
0010
0100
,
0110
0000
0110
0000
0010
0000
1010
0000
1010
0000
1000
0000
,
1001
0000
0101
0000
1001
0000
2002
0000
0000
3003
0000
0000
,
0010
0100
0010
0100
0001
0010
0100
1000
,
0010
0100
0010
1000
0001
0100
0001
0100
,
0010
1000
0100
0010
0001
0100
0010
1000
,
0002
0000
0000
0203
0000
0000
0301
0010
0100
1000
0100
0010
,
0002
0000
0100
0000
0103
0010
1000
0100
,
0020
1030
0002
0103
,
1000
0001
1000
0000
0001
0000
0010
0100
0010
0000
0100
0000
,
0001
0000
0000
0000
0100
0000
0000
0000
1000
0000
0000
0000
0000
0000
0000
0000
0100
0000
0000
0000
0000
0000
0000
0000
1000
0000
0000
0100
0000
0000
0010
0000
0000
0002
0000
0000
0000
0000
0000
0000
0000
0000
0000
0000
0000
0000
0000
0000
,
0000
0000
0003
0000
;

//---------------dance-double - ----------------
#NOTES:
     dance-double:
     :
     Challenge:
     16:
     0.819,0.880,0.247,0.233,0.469:
00000000
00000000
00000000
00000000
,
00000000
00000000
00000000
00000000
,
00000000
00000000
00000000
00000000
,
00000000
00000000
00000000
00000000
,
00000000
00000000
00000000
00000000
,
00000000
00000000
00000000
00000000
,
00000000
00000000
00000000
00000000
,
00000000
00000000
00000000
00000000
,
00000000
00000000
00000000
00000000
00000000
00000000
10000000
00010000
,
01000000
00000000
00100000
00000000
10000000
00100000
10000000
00000000
00100000
00000000
01000000
00000000
00001000
00000000
00010000
00000000
,
00000100
00000000
00001000
00000000
00000010
00001000
00000010
00000000
00001000
00000000
00000100
00000000
00010000
00000000
00001000
00000000
,
01000000
00000000
00100000
00000000
10000000
01000000
10000000
00000000
00010000
00000000
01000000
00000000
00001000
00000000
00010000
00000000
,
00000100
00000000
00000000
00000000
00000000
00000000
00001000
00000000
00000000
00000000
00000000
00000000
00000001
00000000
00000000
00001000
00000000
00000000
00000001
00000000
00000000
00000000
00000000
00000000
00001000
00000000
00000000
00000000
00000010
00000000
00000000
00000000
00001000
00000000
00000000
00000000
00000100
00000000
00000000
00000000
00001000
00000000
00000000
00000000
00000010
00000000
00000000
00000000
,
00001000
00000000
00000100
00000000
00010000
00001000
00010000
00000000
00001000
00000000
01000000
00000000
00100000
00000000
10000000
00000000
,
00010000
00000000
00100000
00000000
00001000
00010000
00001000
00000000
00010000
00000000
00000010
00000000
00001000
00000000
00000100
00000000
,
00001000
00000000
00000010
00000000
00000001
00000000
00001000
00000000
00000100
00000000
00000001
00000000
,
00000100
00000000
00010000
00000000
00001000
00000000
00011000
00000000
00000000
00000000
00000000
00000000
,
00100000
00000000
00010000
00000000
01000000
00010000
01000000
00000000
00100000
00000000
00000000
00000000
10000000
00000000
01000000
00000000
,
00100000
00000000
00010000
01000000
00010000
00000000
01000000
00000000
00100000
00000000
00000000
00000000
10000000
00000000
00010000
00000000
,
01000000
00001000
00010000
00001000
00010000
00000000
00000010
00001000
,
00000001
00001000
00000100
00010000
00001000
00000000
00100000
00010000
,
01000000
00100000
01000000
00000000
00010000
00000000
01000000
00000000
00001000
00000000
00000000
00000000
00010000
00000000
00000100
00000000
,
00001000
00000000
00000001
00000000
00001000
00000001
00001000
00000000
00000100
00000000
00000000
00000000
00010000
00000000
00001000
00000000
,
00100000
00010000
01000000
00100000
10000000
01000000
00010000
01000000
,
10000000
00100000
01000000
00001000
00020000
00000000
00031000
00000000
,
00010000
00000000
00000100
00000000
00001000
00000100
00001000
00000000
00000010
00000000
00000100
00000000
00000001
00000010
00000001
00000000
,
00000100
00000000
00000010
00000000
00001000
00000100
00001000
00000000
00000100
00000000
00010000
00000000
00001000
00000000
00100000
00000000
,
00010000
00000000
01000000
00000000
00100000
01000000
00100000
00000000
10000000
00000000
00010000
00000000
01000000
00010000
01000000
00000000
,
00100000
00000000
00000000
00000000
00000000
00000000
10000000
00000000
00000000
00000000
00000000
00000000
00010000
00000000
00000000
01000000
00000000
00000000
00010000
00000000
00000000
00000000
00000000
00000000
01000000
00000000
00000000
00000000
00100000
00000000
00000000
00000000
10000000
00000000
00000000
00000000
00010000
00000000
00000000
00000000
01000000
00000000
00000000
00000000
00100000
00000000
00000000
00000000
,
10000000
00000000
00010000
00000000
00100000
00001000
00100000
00000000
00001000
00000000
00010000
00000000
00001000
00010000
00001000
00000000
,
00010000
00000000
00000100
00000000
00001000
00000100
00001000
00000000
00000010
00000000
00000100
00000000
00000001
00000010
00000001
00000000
,
00000100
00000000
00000010
00000000
00001000
00000000
00000100
00000000
00010000
00000000
00001000
00000000
,
01000000
00000000
00000000
00000000
00100000
00000000
00000000
00000000
10000000
00000000
00000000
00000000
10010000
00000000
00000000
00000000
00000000
00000000
10000000
00000000
00000000
00100000
00000000
00000000
,
01000000
00100000
10000000
00010000
00100000
00000000
00001000
00010000
,
00000100
00001000
00000010
00000100
00000001
00000000
00000100
00000010
,
00001000
00000100
00010000
00001000
01000000
00000000
00010000
01000000
,
00100000
10000000
01000000
00100000
00010000
00000000
00100000
00001000
,
00010000
00000100
00010000
00000000
00000100
00001000
00000100
00000000
00001000
00000000
00000000
00000000
00000001
00000000
00001000
00000000
,
00000100
00010000
00000100
00000000
00010000
00001000
00010000
00000000
00001000
00000000
00000000
00000000
01000000
00000000
00010000
00000000
,
01000000
00010000
01000000
10000000
01000000
00010000
01000000
00100000
,
10000000
01000000
00100000
00010000
01000000
00000000
00001000
00000000
,
02000000
03000000
00000200
00000300
,
00010000
00000100
00001000
00000010
00000100
00000000
00000001
00001000
,
00000100
00001000
00000010
00001000
00000100
00000000
00010000
00001000
,
01000000
00010000
10000000
00100000
00000000
10010000
00000000
00000000
,
00200000
00300000
00000020
00000030
,
00001000
00000001
00001000
00000100
00001000
00000000
00000010
00010000
,
00000100
00010000
00001000
01000000
00010000
00000000
01000000
00000000
,
00100000
00000000
10000000
10010000
00000000
01100000
00000000
00000000
,
20000000
30000000
00020000
00030000
,
10000000
01000000
10000000
00000000
00100000
00000000
01000000
00000000
00010000
00000000
00000000
00000000
01000000
00000000
00001000
00000000
,
00010000
00001000
00010000
00000100
00001000
00000001
00000010
00000100
,
00001000
00000100
00010000
00001000
00000000
00100000
00000000
00000000
,
10010000
10010000
00000000
00000000
00000000
00000000
00000000
00010000
,
00011000
00011000
00000000
00000000
00000000
00000000
00000000
00001000
,
00000001
00000100
00000010
00000000
00010000
00001000
01000000
00000000
,
20020000
00000000
00000000
00000000
30030000
00000000
10000000
00100000
,
01000000
00000000
00010000
00000000
01000000
00000000
00100000
00000000
10000000
00100000
00000000
10000000
00100000
00000000
01000000
00000000
,
00001000
00000000
00010000
00000000
00000100
00000000
00001000
00000000
00000010
00000100
00000000
00000010
00000100
00000000
00000001
00000000
,
00001000
00000000
00000100
00000000
00010000
00000000
00001000
00000000
01000000
00010000
00000000
01000000
00010000
00000000
01000000
00000000
,
00100000
00000000
00000000
00000000
00000000
00000000
10000000
00000000
00000000
00010000
00000000
00000000
01000000
00000000
00100000
00000000
01000000
00000000
00100000
00000000
01000000
00000000
00100000
00000000
,
01000000
00010000
00100000
00010000
00000000
00100000
00001000
00010000
,
00000010
00001000
00000100
00001000
00000000
00000010
00010000
00001000
,
01000000
00010000
01000000
00100000
00000000
10000000
01000000
00100000
,
00010000
00000000
00000000
01000000
00000000
00000000
00100000
00000000
10100000
00000000
00000000
00000000
01000000
00100000
01000000
00100000
,
01000000
00000000
00100000
00000000
10000000
00000000
01000000
00000000
00100000
00010000
00000000
00010000
00100000
00000000
00001000
00000000
,
00010000
00000000
00000010
00000000
00001000
00000000
00000100
00000000
00000010
00000001
00000000
00000001
00000010
00000000
00000001
00000000
,
00001000
00000000
00000100
00000000
00010000
00000000
00001000
00000000
01000000
00010000
00000000
01000000
00100000
00000000
01000000
00000000
,
00010000
00000000
00000000
00000000
00000000
00000000
10000000
00000000
00000000
00100000
00000000
00000000
01000000
00000000
00100000
00000000
01000000
00000000
00010000
00000000
10000000
00000000
00010000
00000000
,
10000000
00100000
01000000
00010000
01000000
00001000
00010000
00000100
,
00001000
00000010
00001000
00000001
00000100
00000001
00001000
00000100
,
00020000
00000000
00030000
00002000
00000000
00003000
01000000
00000000
,
00100000
00000000
00000000
10000000
00000000
00000000
00010000
00000000
20020000
00000000
00000000
00000000
30030000
00000000
00000000
00000000
,
10000000
00000000
10000000
00010000
00000000
00010000
01000000
00000000
00100000
00000000
10000000
00000000
01000000
00000000
00100000
00000000
,
00010000
00000000
01000000
00010000
00000000
00010000
01000000
00000000
00001000
00000000
00010000
00000000
00000100
00000000
00001000
00000000
,
00000010
00000000
00000010
00000100
00000000
00000100
00000001
00000000
00000100
00000000
00000100
00000010
00000000
00000010
00001000
00000000
,
00000200
00000000
00000000
00010300
00000000
00000000
00001000
00100000
00010000
00100000
00010000
01000000
,
00010000
00000000
00000000
01000000
00000000
00000000
00100000
00000000
10000000
00000000
00000000
00100000
00000000
00000000
01000000
00000000
,
00001000
00000000
00000000
00010000
00000000
00000000
00000100
00000000
00001000
00000000
00000000
00000010
00000000
00000000
00000100
00000000
,
00000001
00000000
00000101
00000000
00000101
00000000
00001000
00000000
00001100
00000000
00001100
00000000
,
00002002
00000000
00000000
00003003
,
00000010
00000000
00010000
00000000
00001000
00000000
01000000
00000000
00010000
00000000
00000000
10010000
00000000
00000000
00010000
00000000
,
10000000
00000000
00100000
00000000
01000000
00000000
00001000
00000000
00010000
00000000
00000000
00011000
00000000
00000000
00010000
00000000
,
00000010
00000000
00001000
00000000
00000100
00000000
00001000
00000000
00000001
00000000
00000000
00001001
00000000
00000000
00001000
00000000
,
00000200
00000000
00000000
00000000
00000000
00000000
00010300
00000000
00000000
00001000
00000000
00000000
00010000
00000000
00001000
00000000
00010000
00000000
00001000
00000000
00010000
00000000
00001000
00000000
,
00010000
00001000
01000000
00010000
01000000
10000000
01000000
00010000
,
01000000
00001000
00010000
00000100
00001000
00000100
00000001
00000100
,
00001000
00000010
00000100
00000001
00000000
00001001
00000001
00001000
,
00000100
00000000
00000000
00001100
00000000
00000000
00000100
00000000
00020000
00000000
00000000
00000000
00031000
00000000
00000000
00000000
,
00100000
00000000
00001000
00000000
00100000
00000000
00010000
00000000
01000000
00010000
01000000
00010000
01000000
00000000
00100000
00000000
,
10000000
00000000
01000000
00000000
00100000
00000000
00010000
00000000
00100000
00001000
00100000
00001000
00100000
00000000
00001000
00000000
,
00010000
00000000
00000010
00000000
00001000
00000000
00000100
00000000
00000010
00000001
00000010
00000001
00000010
00000000
00000001
00000000
,
00000100
00000000
00000000
00000000
00000000
00000000
00000010
00000000
00000000
00001000
00000000
00000000
00000100
00000000
00001000
00000000
00000100
00000000
00010000
00000000
00001000
00000000
00010000
00000000
,
00001000
00000000
00100000
00000000
00010000
00000000
01000000
00100000
01000000
00000000
00100000
00000000
10000000
00000000
01000000
10000000
,
01000000
00000000
10000000
00000000
00010000
00000000
00100000
00001000
00100000
00000000
00001000
00000000
00010000
00000000
00000100
00001000
,
00000200
00001000
00001300
00000002
00000000
00000100
00000103
00000000
,
00000010
00000000
00000000
00001000
00000000
00000000
00000100
00000000
00020000
00000000
00000000
00000000
00031000
00000000
00000000
00000000
,
00011000
00000000
00001000
00100000
00010000
01000000
00100000
10000000
,
01000000
00100000
00010000
00000000
00001000
00010000
00000010
00000000
,
00001001
00000000
00000001
00001000
00000100
00010000
00001000
01000000
,
00010000
00100000
01000000
10000000
00100000
00000000
01100000
00000000
,
11000000
00000000
00000000
00000000
10000000
01000000
00000000
00000000
01000000
00100000
00000000
00000000
01000000
00000000
00010000
00000000
,
01000000
00001000
00010000
00000100
00001000
00000001
00001001
00000000
,
00000011
00000000
00000011
00000000
00000001
00000000
00000101
00000000
00000101
00000000
00000001
00000000
,
00001001
00000000
00001001
00000000
00001000
00000000
00001100
00000000
00000000
00010000
00000000
00000000
,
00002000
00000000
00203000
00000000
00310000
00100000
01000000
10000000
,
00200000
00000000
02300000
00000000
03001000
00010000
00000010
00000100
,
00000002
00000000
00000103
00000000
00000010
00001000
00000100
00010000
,
00002000
00000000
00000000
00203000
00000000
00000000
00310000
00100000
01000000
10000000
01000000
00100000
,
00020000
00000000
01000000
00000000
01030000
00001000
00010000
00000100
,
00002000
00003001
00000020
00001030
,
00000100
00010000
00001000
00000000
01000000
00000000
00010000
00100000
01000000
00000000
00100000
00000000
,
00001000
00010000
00000100
00000000
00001000
00000000
00002002
00000000
00000000
00000000
00000000
00000000
,
00000000
00000000
00003003
00000000
;

//---------------dance-double - ----------------
#NOTES:
     dance-double:
     :
     Hard:
     13:
     0.671,0.760,0.106,0.430,0.212:
00000000
00000000
00000000
00000000
,
00000000
00000000
00000000
00000000
,
00000000
00000000
00000000
00000000
,
00000000
00000000
00000000
00000000
,
00000000
00000000
00000000
00000000
,
00000000
00000000
00000000
00000000
,
00000000
00000000
00000000
00000000
,
00000000
00000000
00000000
00000000
,
00000000
00000000
00000000
00000000
00000000
00000000
00001000
00010000
,
00000100
00001000
00000100
00000000
00000010
00000001
00000100
00000000
,
00000010
00001000
00000010
00000000
00001000
00000100
00010000
00000000
,
00001000
01000000
00001000
00000000
01000000
00010000
00100000
00000000
,
00010000
10000000
00010000
00000000
20000000
00000000
30020000
00000000
,
01030000
00100000
01000000
00000000
00001000
00010000
00001000
00000000
,
00010000
00000010
00001000
00000000
00000001
00001000
00000100
00000000
,
00000010
00000000
00001000
00000000
00000010
00000000
00010000
00000000
00001000
00000000
00010000
00000000
,
00001000
00000000
00000000
00000000
00100000
00000000
00000000
00000000
00001000
00000000
00000000
00000000
00100000
00000000
00000000
00000000
00000000
00000000
00010000
00000000
00000000
00100000
00000000
00000000
,
00010000
01000000
00010000
00100000
00010000
00000000
10000000
00000000
,
00100000
01000000
00100000
10000000
00100000
00000000
01000000
00000000
,
00001000
00010000
00001000
00100000
00001000
00000000
00010000
00000000
,
00000100
00001000
00000010
00001000
00000100
00000000
00001000
00000000
,
00000001
00000100
00000010
00000100
00000001
00000000
00001000
00000000
,
00000100
00010000
00000100
00001000
00000100
00000000
00010000
00000000
,
00001000
00100000
00001000
00000000
00100000
00010000
00100000
00000000
,
00010000
00100000
01000000
10000000
00200000
00000000
01300000
00000000
,
10000000
01000000
00100000
00000000
01000000
00100000
00001000
00000000
,
00010000
00001000
00100000
00000000
00001000
00010000
00000100
00000000
,
00001000
00000001
00000010
00000000
00000001
00001000
00000100
00000000
,
00001000
00000100
00010000
00000000
00002000
00000000
00203000
00000000
,
00310000
00100000
01000000
10000000
00010000
00100000
01000000
10000000
,
00100000
01000000
00100000
01000000
00100000
10000000
01000000
00100000
,
00010000
00000000
00100000
00000000
00001000
00000000
00010000
00000000
00000010
00000000
00001000
00000000
,
00000001
00000000
00000100
00000000
00000010
00000000
00002000
00000000
00000000
00003100
00000000
00000000
,
00000100
00010000
00001000
00010000
00000100
00000000
00010000
00000000
,
00001000
00100000
00001000
00010000
00001000
00000000
00100000
00000000
,
00010000
01000000
00100000
10000000
00100000
00000000
01000000
00000000
,
00001000
00010000
00001000
00010000
00001000
00000000
00010000
00000000
,
00000100
00001000
00000010
00001000
00000100
00000000
00001000
00000000
,
00000001
00000010
00000100
00001000
00000010
00000000
00001000
00000000
,
00000100
00010000
00001000
00000000
00010000
00001000
00100000
00000000
,
00100000
00010000
01000000
00100000
10000000
00000000
11000000
00000000
,
02020000
03030000
00022000
00033000
,
00001000
00000100
00000010
00000000
00000001
00000000
00000100
00000000
,
00000010
00001000
00000100
00000000
00001000
00000000
00000100
00000000
,
00010000
00000000
00001000
00010000
00000000
00001000
00000000
00000000
,
00022000
00033000
00220000
00330000
,
00010000
01000000
00100000
00000000
10000000
00000000
00100000
01000000
,
00010000
10000000
01000000
00100000
,
00010000
00000000
00100000
00001000
00000000
00011000
00000000
00000000
,
00020000
00030000
00000020
00000030
,
00001000
00000010
00000100
00000000
00000010
00000000
00001000
00000000
,
00000100
00010000
00001000
01000000
,
00010000
00000000
00100000
01000000
00000000
00100000
00000000
00000000
,
10000000
00010000
00000000
00000000
00000000
00000000
00000000
00000000
,
00001000
00010000
00000000
00000000
00000000
00000000
00000000
00000000
,
00000001
00001000
00000001
00000000
00001000
00000000
00000100
00000000
,
00020000
00000000
00000000
00000000
00030000
00000000
00001000
00100000
,
00010000
00000000
00100000
00000000
00001000
00000000
00010000
00000000
00001000
00000000
00000000
00001000
00000000
00000000
01000000
00000000
,
00100000
00000000
10000000
00000000
00100000
00000000
01000000
00000000
00001000
00000000
00000000
00001000
00000000
00000000
00010000
00000000
,
00000010
00000000
00001000
00000000
00000010
00000000
00000100
00000000
00000001
00000000
00000000
00001001
00000000
00000000
00000001
00000000
,
00001000
00000000
00000100
00010000
00002000
00000000
02003000
00000000
,
03010000
00100000
01000000
00100000
00010000
01000000
00010000
00000000
,
10000000
01000000
00100000
01000000
10000000
00100000
01000000
00000000
,
00010000
00100000
00001000
00010000
00000000
00001000
00010000
00000010
,
00001000
00000000
00000000
00000001
00000000
00000000
00000200
00000000
00000020
00000000
00000000
00000000
00000330
00000000
00000000
00000000
,
00000001
00000000
00001000
00000000
00000100
00000000
00000000
00000000
00001000
00000000
00000000
00000100
00000000
00000000
00010000
00000000
,
00001000
00000000
00100000
00000000
00010000
00000000
00000000
00000000
01000000
00000000
00000000
00100000
00000000
00000000
10000000
00000000
,
01000000
00000000
00100000
00000000
00010000
00000000
00000000
00000000
01000000
00000000
00000000
00100000
00000000
00000000
10000000
00000000
,
00010000
00000000
00100000
00001000
00020000
00000000
00030020
00000000
,
00001030
00000100
00000010
00000001
00000100
00000010
00001000
00000010
,
00010000
00001000
01000000
00010000
10000000
00100000
01000000
00001000
,
00020000
00000000
00000000
00030200
00000000
00000000
00002300
00000000
,
00003010
00000000
00000000
00000010
00000000
00000000
00002000
00000000
00000002
00000000
00003003
00000000
00000010
00000000
00001000
00000000
,
00000100
00000000
00000000
00010000
00000000
00000000
00001000
00000000
01000000
00000000
00000000
00000000
00100000
00000000
10000000
00000000
,
01000000
00000000
00000000
00100000
00000000
00000000
00001000
00000000
00010000
00000000
00000000
00000000
00000100
00000000
00001000
00000000
,
00000010
00000000
00000000
00000100
00000000
00000000
00000001
00000000
00001000
00000000
00000000
00000100
00000000
00000000
00020000
00000000
,
00002000
00033000
00002000
00023000
,
00030100
00000000
00000000
00001000
00000000
00000000
00000010
00000000
00000100
00000000
00000000
00000001
00000000
00000000
00000100
00000000
,
00000010
00000000
00000000
00010000
00000000
00000000
00001000
00000000
00100000
00000000
00000000
00010000
00000000
00000000
01000000
00000000
,
00100000
00000000
10000000
00000000
01000000
00000000
00100000
00000000
00001000
00000000
00010000
00000000
,
00000200
00000000
00000000
00000300
,
00000010
00000000
00000001
00000000
00000100
00000000
00000010
00000000
00001000
00000000
00000000
00000100
00000000
00000000
00010000
00000000
,
00001000
00000000
01000000
00000000
00010000
00000000
10000000
00000000
00100000
00000000
00000000
01000000
00000000
00000000
00001000
00000000
,
00010000
00000000
00000100
00000000
00001000
00000000
00000010
00000000
00000100
00000000
00000000
00000001
00000000
00000000
00001000
00000000
,
00000200
00000000
00010300
00001000
02000000
00000000
03020000
00000000
,
10030000
01000000
00100000
00010000
00100000
01000000
10000000
00100000
,
01000000
00001000
00010000
00001000
01000000
00001000
00010000
00000100
,
00001000
00000100
00000010
00000001
00000010
00000100
00001000
00000010
,
00001000
00000000
00000000
00001100
00000000
00000000
00000100
00000000
00020000
00000000
00000000
00000000
00031000
00000000
00000000
00000000
,
00100000
00000000
00010000
00000000
01000000
00000000
00100000
00000000
10000000
00000000
00000000
00010000
00000000
00000000
01000000
00000000
,
00001000
00000000
00010000
00000000
00000100
00000000
00010000
00000000
00000100
00000000
00000000
00001000
00000000
00000000
00000010
00000000
,
00000100
00000000
00000001
00000000
00001000
00000000
00000100
00000000
00010000
00000000
00000000
00001000
00000000
00000000
00100000
00000000
,
00020000
00000000
01030000
00100000
10000000
00000000
10010000
00000000
,
10000000
00100000
10000000
00000000
00100000
00000000
10000000
00100000
10000000
00000000
00100000
00000000
01000000
00000000
00001000
00000000
,
00010000
00001000
00010000
00000000
00001000
00000000
00010000
00001000
00010000
00000000
00001000
00000000
00010000
00000000
00000100
00000000
,
00002000
00000000
00000000
00003020
00000000
00000000
00000130
00000000
,
00000001
00000000
00000000
00000010
00000000
00000000
00002000
00000000
00000002
00000000
00000000
00000000
00003003
00000000
00000000
00000000
,
00000110
00000000
00000010
00001000
00000000
00000100
00010000
00001000
,
00010000
00001000
00010000
00000000
00001000
01000000
00010000
00000000
,
01100000
00000000
10000000
01000000
00100000
00010000
00100000
01000000
,
00010000
01000000
10000000
01000000
00010000
00000000
00001000
00000000
,
00000100
00000000
00000010
00001000
00000100
00000000
00000010
00000001
,
00000100
00000001
00000010
00000000
00001001
00000000
00001100
00000000
,
00000010
00000000
00001000
00000000
00010000
00000000
00000100
00000000
00010000
00000000
00001000
00000000
,
01000000
00000000
00010000
00000000
10000000
00000000
10010000
00000000
00000000
00000000
00000000
00000000
,
20000000
00000000
30200000
00000000
01300000
00001000
01000000
00010000
,
02000000
03002000
00023000
00030200
,
00002300
00000000
00003002
00000000
00001003
00000010
00000100
00000001
,
00002000
00000000
00000000
00003020
00000000
00000000
00010030
00000100
00010000
00000100
00010000
00000100
,
00020000
00000000
00032000
00000000
02003000
00000000
03010000
00100000
,
00020000
02030000
03200000
20300000
,
31000000
00000000
00100000
00000000
01000000
00000000
00001000
00000000
00010000
00000000
00000100
00000000
,
00001000
00000000
00000001
00000000
00001000
00000000
00002002
00000000
00000000
00000000
00000000
00000000
,
00000000
00000000
00003003
00000000
;

//---------------dance-double - ----------------
#NOTES:
     dance-double:
     :
     Medium:
     11:
     0.574,0.720,0.381,0.501,0.078: // measure 1
00000000
00000000
00000000
00000000
,  // measure 2
00000000
00000000
00000000
00000000
,  // measure 3
00000000
00000000
00000000
00000000
,  // measure 4
00000000
00000000
00000000
00000000
,  // measure 5
00000000
00000000
00000000
00000000
,  // measure 6
00000000
00000000
00000000
00000000
,  // measure 7
00000000
00000000
00000000
00000000
,  // measure 8
00000000
00000000
00000000
00000000
,  // measure 9
00000000
00000000
00000000
00000000
00000000
00000000
00100000
00010000
,  // measure 10
01000000
00000000
00100000
10000000
00100000
00000000
01000000
00000000
,  // measure 11
00010000
00000000
00100000
00010000
00100000
00000000
00001000
00000000
,  // measure 12
00010000
00000000
00000100
00001000
00000100
00000000
00001000
00000000
,  // measure 13
00000001
00000000
00000100
00000010
00000200
00000000
00000320
00000000
,  // measure 14
00001030
00000000
00000100
00001000
00000100
00000000
00010000
00000000
,  // measure 15
00001000
00000000
01000000
00010000
01000000
00000000
00100000
00000000
,  // measure 16
10000000
00000000
10000000
00000000
00000000
00000000
00010000
00000000
00010000
00000000
00000000
00000000
,  // measure 17
01000000
00000000
01000000
00000000
00000000
00000000
20020000
00000000
00000000
30030000
00000000
00000000
,  // measure 18
10000000
00100000
00010000
00100000
,  // measure 19
10000000
01000000
00100000
00001000
,  // measure 20
00010000
00000100
00000010
00000100
,  // measure 21
00010000
00000010
00000100
00000010
,  // measure 22
00001000
00000100
00000001
00000100
,  // measure 23
00001000
00000010
00000001
00000010
,  // measure 24
00001000
00000100
00010000
00001000
,  // measure 25
00100000
00010000
01000000
00010000
00200000
00000000
00300000
00000000
,  // measure 26
10000000
00000000
00010000
01000000
00010000
00000000
00100000
00001000
,  // measure 27
00010000
00000000
00000100
00001000
00000100
00000000
00001000
00000001
,  // measure 28
00000100
00000000
00000010
00001000
00000010
00000000
00001000
00000100
,  // measure 29
00010000
00000000
00001000
00010000
00002000
00000000
02003000
00000000
,  // measure 30
03200000
00000000
10300000
01000000
00200000
00000000
00310000
01000000
,  // measure 31
00200000
00000000
10300000
01000000
00200000
00000000
00302000
00000000
,  // measure 32
00013000
00000000
00000100
00000000
00010000
00000000
00010000
00000000
00000100
00000000
00001000
00000000
,  // measure 33
00001000
00000000
00000010
00000000
00000100
00000000
00000220
00000000
00000000
00000330
00000000
00000000
,  // measure 34
00000001
00000100
00001000
00000100
,  // measure 35
00000001
00001000
00000100
00010000
,  // measure 36
00001000
01000000
00100000
01000000
,  // measure 37
00001000
00010000
00100000
00000000
,  // measure 38
00010000
00100000
00010000
01000000
00010000
00000000
10000000
00000000
,  // measure 39
00100000
01000000
00100000
10000000
00100000
00000000
01000000
00000000
,  // measure 40
00100000
10000000
01000000
00100000
,  // measure 41
00001000
00010000
00011000
00000000
,  // measure 42
00002200
00003300
00000022
00000033
,  // measure 43
00000001
00000100
00000010
00000100
00000001
00000000
00000100
00000000
,  // measure 44
00000010
00001000
00000100
00010000
,  // measure 45
00001000
00000000
01000000
00010000
00000000
10010000
00000000
00000000
,  // measure 46
00200000
00000000
02300000
00000000
,  // measure 47
03010000
00100000
00010000
01000000
00010000
00000000
00100000
00000000
,  // measure 48
10000000
01000000
10000000
00100000
10000000
00000000
00100000
00000000
,  // measure 49
01000000
00000000
00010000
00010000
00000000
10010000
00000000
00000000
,  // measure 50
20000000
30000000
00020000
00030000
,  // measure 51
00100000
00001000
00010000
00000000
,  // measure 52
00000010
00001000
00000100
00000000
,  // measure 53
00000001
00001000
00000100
00000000
,  // measure 54
00002200
00003300
00220000
00330000
,  // measure 55
00010000
10000000
00010000
10000000
00010000
00000000
00000000
00000000
,  // measure 56
00100000
01000000
10000000
00010000
,  // measure 57
20020000
00000000
00000000
00000000
30030000
00000000
10000000
00010000
,  // measure 58
10000000
00000000
00100000
00000000
01000000
00000000
00001000
00010000
,  // measure 59
00001000
00000000
00010000
00000000
00000010
00000000
00001000
00000001
,  // measure 60
00001000
00000000
00000010
00000000
00010000
00000000
00001000
00010000
,  // measure 61
00001000
00100000
01010000
10100000
,  // measure 62
00100000
01000000
00100000
00000000
11000000
00000000
00110000
00000000
,  // measure 63
00100000
00001000
00100000
00000000
00011000
00000000
00001100
00000000
,  // measure 64
00000010
00001000
00000100
00000000
00001010
00000000
00000101
00000000
,  // measure 65
00000001
00000000
00000000
00001000
00000000
00000000
00000100
00000000
00000200
00000000
00000000
00000000
00000300
00000000
00000000
00000000
,  // measure 66
00000001
00001000
00000100
00000000
00001100
00000000
00011000
00000000
,  // measure 67
00001000
00100000
00010000
00000000
00110000
00000000
01100000
00000000
,  // measure 68
00100000
00010000
01000000
00000000
10010000
00000000
01100000
00000000
,  // measure 69
22000000
33000000
00110000
00011000
,  // measure 70
00000100
00001000
00000010
00000000
00001000
00000001
00000100
00000000
,  // measure 71
00000010
00001000
00000100
00000000
00010000
00001000
00100000
00000000
,  // measure 72
00220000
00330000
22000000
33000000
,  // measure 73
00100000
00000000
00000000
01000000
00000000
00000000
00020000
00000000
20000000
00000000
00000000
00000000
30030000
00000000
00000000
00000000
,  // measure 74
10000000
00010000
00210000
00301000
,  // measure 75
00021000
00030010
00002002
00003003
,  // measure 76
00002010
00003100
00010200
00001000
,  // measure 77
00020000
00030300
00020000
00032000
,  // measure 78
02003000
00010000
03200000
10000000
,  // measure 79
02300000
00001000
03020000
10000000
,  // measure 80
10030000
00000000
00100000
00000000
10000000
00000000
00010000
00000000
00100000
00000000
00010000
00000000
,  // measure 81
02000000
00000000
00000000
03000000
,  // measure 82
10000000
00010000
10000000
00000000
10010000
00000000
01010000
00000000
,  // measure 83
00100000
00001000
00100000
00000000
00011000
00000000
00010010
00000000
,  // measure 84
00000010
00001000
00000010
00000000
00001001
00000000
00000100
00000000
,  // measure 85
00000010
00000000
00000001
00000100
00000010
00000000
00001010
00000000
,  // measure 86
00000010
00001000
00000010
00001000
00000010
00000000
00001000
00000000
,  // measure 87
00000100
00010000
00000100
00010000
00000100
00000000
00010000
00000000
,  // measure 88
00001000
01000000
00010000
10000000
,  // measure 89
00100000
00000000
00000000
00100000
00000000
00000000
10000000
00000000
00010000
00000000
00000000
00000000
10010000
00000000
00000000
00000000
,  // measure 90
10000000
00100000
10000000
00000000
00010000
00000000
00100000
00000000
,  // measure 91
00001000
00010000
00001000
00000000
00000010
00000000
00001000
00000000
,  // measure 92
00000001
00000100
00000010
00000000
00001000
00000000
00000100
00000000
,  // measure 93
00010000
00000000
00001000
00100000
00001000
00000000
00100000
00000000
,  // measure 94
00010000
01000000
10100000
10100000
,  // measure 95
01000000
00001000
00011000
00011000
,  // measure 96
00010100
00000000
00000000
00001000
00000000
00000000
00000010
00000000
,  // measure 97
00000100
00000001
00000010
00000000
00000202
00000000
00000303
00000000
,  // measure 98
00001001
00000000
00000010
00001000
00000000
00000010
00001000
00000000
,  // measure 99
00000010
00010000
00001000
00100000
,  // measure 100
00010000
00000000
01000000
00100000
01000000
00100000
01000000
00000000
,  // measure 101
00100000
10000000
01000000
00100000
,  // measure 102
00010000
00100000
00100000
00100000
,  // measure 103
00001000
00010000
00001000
00000000
00010000
00001000
00010000
00000000
,  // measure 104
00000100
00000000
00000100
00000000
00000100
00000000
00010000
00000000
00001000
00000000
00010000
00000000
,  // measure 105
00001000
00000000
01000000
00000000
01000000
00000000
01000000
00000000
00000000
00000000
00000000
00000000
,  // measure 106
00020000
00000000
00000000
00000000
00030000
00000000
10000000
00010000
,  // measure 107
20000000
30000000
02000000
03000000
,  // measure 108
00002000
00000000
00003000
00000100
,  // measure 109
00000001
00000100
00002000
00003000
,  // measure 110
00000200
00000000
00000300
00010000
,  // measure 111
00022000
00033000
00220000
00330000
,  // measure 112
22000000
33000000
00202000
00303000
,  // measure 113
00020020
00030030
00022000
00000000
,  // measure 114
00000000
00000000
00033000
00000000
;

//---------------dance-double - ----------------
#NOTES:
     dance-double:
     :
     Easy:
     8:
     0.376,0.520,0.268,0.345,0.000: // measure 1
00000000
00000000
00000000
00000000
,  // measure 2
00000000
00000000
00000000
00000000
,  // measure 3
00000000
00000000
00000000
00000000
,  // measure 4
00000000
00000000
00000000
00000000
,  // measure 5
00000000
00000000
00000000
00000000
,  // measure 6
00000000
00000000
00000000
00000000
,  // measure 7
00000000
00000000
00000000
00000000
,  // measure 8
00000000
00000000
00000000
00000000
,  // measure 9
00000000
00000000
00000000
00000000
,  // measure 10
00100000
10000000
00010000
00000000
,  // measure 11
00100000
00001000
00010000
00000000
,  // measure 12
00000100
00001000
00000010
00000000
,  // measure 13
00000001
00000100
00001000
00000000
,  // measure 14
00000010
00001000
00000100
00000000
,  // measure 15
00010000
00001000
01000000
00000000
,  // measure 16
10010000
00000000
00011000
00000000
,  // measure 17
00001001
00000000
00000000
00000000
,  // measure 18
00000010
00001000
00000100
00000000
,  // measure 19
00010000
00001000
01000000
00000000
,  // measure 20
00010000
10000000
01000000
00000000
,  // measure 21
00100000
00001000
00010000
00000000
,  // measure 22
00000100
00001000
00000001
00000000
,  // measure 23
00000001
00000100
00001000
00000000
,  // measure 24
00010000
01000000
10000000
00000000
,  // measure 25
00100000
10000000
10010000
00000000
,  // measure 26
10000000
00000000
00010000
00000000
,  // measure 27
01000000
00000000
00001000
00000000
,  // measure 28
00010000
00000100
00001000
00000000
,  // measure 29
00000010
00001000
00000100
00000000
,  // measure 30
00000001
00001000
00000100
00000000
,  // measure 31
00010000
00001000
01000000
00000000
,  // measure 32
01100000
00000000
10010000
00000000
,  // measure 33
01100000
00000000
00000000
00000000
,  // measure 34
10000000
00100000
01000000
00000000
,  // measure 35
00001000
00010000
00000100
00000000
,  // measure 36
00001000
00000001
00000100
00000000
,  // measure 37
00001000
00000100
00001000
00000000
,  // measure 38
00000100
00010000
00001000
00000000
,  // measure 39
01000000
00010000
10000000
00000000
,  // measure 40
00010000
00000000
00100000
00000000
,  // measure 41
00001000
00001000
00001000
00000000
,  // measure 42
00020000
00000000
00032000
00000000
,  // measure 43
01003000
00000000
10010000
00000000
,  // measure 44
10000000
00100000
01000000
00000000
,  // measure 45
00001000
00010000
00000100
00000000
,  // measure 46
00000002
00000000
00002003
00000000
,  // measure 47
00003010
00000100
00001000
00000000
,  // measure 48
00000010
00010000
00001000
00000000
,  // measure 49
00100000
00010000
01000000
00000000
,  // measure 50
00200000
00000000
00302000
00000000
,  // measure 51
00013000
00000010
00000100
00000000
,  // measure 52
00000001
00000100
00001000
00000000
,  // measure 53
00010000
01000000
10000000
00000000
,  // measure 54
00200000
00000000
00320000
00000000
,  // measure 55
10030000
01000000
00010000
00000000
,  // measure 56
00001000
00000010
00000001
00000000
,  // measure 57
00002002
00000000
00003003
00000000
,  // measure 58
00000010
00000000
00001001
00000000
,  // measure 59
00000100
00000000
00011000
00000000
,  // measure 60
00100000
00000000
10010000
00000000
,  // measure 61
01100000
00000000
10010000
10010000
,  // measure 62
10000000
00100000
01000000
00001000
,  // measure 63
00010000
00000010
00001000
00000100
,  // measure 64
00000010
00000001
00000100
00000010
,  // measure 65
00001100
00000000
00011000
00000000
,  // measure 66
00100000
00010000
02000000
03000000
,  // measure 67
00100000
10000000
02000000
03000000
,  // measure 68
10000000
00010000
00100000
00000000
,  // measure 69
00010000
00001000
00000010
00000000
,  // measure 70
00001000
00000100
00000010
00000001
,  // measure 71
00001000
00000100
00010000
00001000
,  // measure 72
01000000
00000000
01010000
00000000
,  // measure 73
00100000
10000000
20020000
30030000
,  // measure 74
00100000
00100000
02200000
03300000
,  // measure 75
00001000
00010000
00022000
00033000
,  // measure 76
00000010
00000010
00000100
00000100
,  // measure 77
00002002
00000000
00003003
00000000
,  // measure 78
00000010
00001000
00000100
00010000
,  // measure 79
00001000
01000000
00010000
00100000
,  // measure 80
00010000
01000000
10000000
00000000
,  // measure 81
20020000
00000000
30030000
00000000
,  // measure 82
00100000
00100000
00002000
00003000
,  // measure 83
00010000
00010000
00000020
00000030
,  // measure 84
00010000
00000010
00010000
00001000
,  // measure 85
00100000
00001000
00022000
00033000
,  // measure 86
00010000
00001000
01000000
00000000
,  // measure 87
00010000
00001000
01000000
00000000
,  // measure 88
00010000
10000000
00100000
01000000
,  // measure 89
00002000
00003000
00020000
00030000
,  // measure 90
00000100
00001000
00000002
00000003
,  // measure 91
00001000
00000100
00020000
00030000
,  // measure 92
00001000
01000000
00020000
00030000
,  // measure 93
10010000
00000000
00011000
00000000
,  // measure 94
00000100
00010000
00000100
00001000
,  // measure 95
00000010
00001000
00000100
00010000
,  // measure 96
00002000
00003000
00200000
00300000
,  // measure 97
00010000
01000000
20020000
30030000
,  // measure 98
01100000
00000000
10010000
00000000
,  // measure 99
10000000
00100000
01000000
00001000
,  // measure 100
00020000
00030000
00000200
00000300
,  // measure 101
00001000
00000010
00000100
00000000
,  // measure 102
00001001
00000000
00011000
00000000
,  // measure 103
00100000
00010000
01000000
00100000
,  // measure 104
01100000
00000000
10010000
00000000
,  // measure 105
00011000
00000000
00001001
00000000
,  // measure 106
00000020
00000000
00000030
00001000
,  // measure 107
00000002
00000003
00002000
00000000
,  // measure 108
00023000
00000000
00030000
00100000
,  // measure 109
00010000
01000000
20020000
30030000
,  // measure 110
02200000
00000000
03300000
10000000
,  // measure 111
00020000
00030000
00002000
00003000
,  // measure 112
00000001
00000000
00001000
00000000
,  // measure 113
00010000
00000000
00022000
00000000
,  // measure 114
00000000
00000000
00033000
00000000
;
