#TITLE:INSIDE YOUR MIND;
#SUBTITLE:;
#ARTIST:Limahl;
#TITLETRANSLIT:;
#SUBTITLETRANSLIT:;
#ARTISTTRANSLIT:;
#GENRE:;
#CREDIT:;
#MENUCOLOR:;
#METERTYPE:DDR X;
#BANNER:INSIDE YOUR MIND-jacket.png;
#BACKGROUND:INSIDE YOUR MIND-bg.png;
#LYRICSPATH:;
#CDTITLE:;
#MUSIC:INSIDE YOUR MIND.ogg;
#OFFSET:0.180;
#SAMPLESTART:15.860;
#SAMPLELENGTH:12.000;
#SELECTABLE:YES;
#LISTSORT:;
#BPMS:0.000=135.000;
#STOPS:;
#BGCHANGES:;
#ATTACKS:;

//---------------dance-single - ----------------
#NOTES:
     dance-single:
     :
     Hard:
     11:
     0.461,0.476,0.180,0.114,0.285:
0000
0000
0000
0000
,
0000
0000
0000
0000
,
0000
0000
0000
0000
,
0000
0000
0000
0000
,
0000
0000
0000
0000
,
0002
0000
0000
0000
0013
0000
0000
0000
0100
0000
0010
0100
0000
0000
0000
0000
,
2000
0000
0000
0000
3100
0000
0000
0000
0010
0000
0100
0010
0000
0000
0000
0000
,
0002
0000
0000
0000
0103
0000
0000
0000
0010
0000
0100
0010
0000
0000
0000
0000
,
2000
0000
0000
0000
3010
0000
0000
0000
0100
0000
0010
0100
0000
0000
0000
0000
,
1000
0100
0010
0000
0010
1000
0010
0000
,
0010
0000
0010
0001
1000
0100
0001
0000
,
0001
0100
0010
0000
0010
0001
0010
0000
,
0010
0000
0010
1000
0001
0100
1000
0000
,
1000
0010
0100
0000
0100
1000
0100
0000
,
0100
0000
0100
0001
1000
0010
0001
0000
,
0001
0010
0100
0000
0100
0001
0100
0000
,
0100
0000
0100
1000
0001
0000
1001
0000
,
1000
0000
0000
0100
0000
0000
1000
0000
0010
0000
0000
1000
0000
0000
0010
0000
,
0100
1000
0100
0010
0001
0010
0110
0000
,
0001
0000
0000
0100
0000
0000
0001
0000
0010
0000
0000
0001
0000
0000
0010
0000
,
0100
0001
0100
0010
1000
0010
0110
0000
,
1000
0000
0000
0010
0000
0000
1000
0000
0100
0000
0000
1000
0000
0000
0100
0000
,
0010
1000
0010
0100
0001
0100
0110
0000
,
1000
0000
0000
0001
0010
0000
0000
0000
0001
0000
0000
1000
0100
0000
0000
0000
,
0010
0000
0000
1000
0001
0000
0000
0000
0100
0000
0000
0001
1000
0000
0000
0000
,
1000
0000
0010
0000
0001
0000
0000
0000
0001
0010
0000
0000
0010
0100
0000
0000
,
0100
0000
0010
0000
1000
0010
1010
0000
,
0001
0000
0010
0000
1000
0000
0000
0000
1000
0010
0000
0000
0010
0100
0000
0000
,
0100
0000
0010
0000
0001
0010
0011
0000
,
1000
0000
0100
0000
0001
0000
0000
0000
0001
0100
0000
0000
0100
0010
0000
0000
,
0010
0000
0000
0000
0100
0000
0000
0000
1000
0000
0100
0000
1100
0000
0000
1000
,
0010
0000
0000
0010
0100
0000
0000
0100
1000
0000
0000
1000
0100
0000
0000
0000
,
0001
0100
0001
0010
0100
1000
1001
0000
,
1100
0000
0000
0001
0010
0000
0000
0010
0100
0000
0000
0100
1000
0000
0000
0000
,
1000
0000
0000
0000
0100
0000
1000
0001
0000
0000
0000
0000
0101
0000
0000
0000
,
0011
0000
0000
1000
0100
0000
0000
0100
0010
0000
0000
0010
0001
0000
0000
0000
,
0001
0000
0000
0000
0010
0000
0001
1000
0000
0000
0000
0000
0010
0000
0000
0000
,
1000
0000
0000
0001
0100
0000
0000
0100
0010
0000
0000
0010
1000
0000
0000
0000
,
1000
0000
0000
0000
0010
0000
1000
0001
0000
0000
0000
0000
0011
0000
0000
0001
,
0100
0000
0000
0100
0010
0000
0000
0010
0001
0000
0000
0001
0010
0000
0000
0000
,
1000
0010
1000
0100
0010
0001
1001
0000
,
0001
0000
0000
1000
0100
0000
0000
0000
0100
0000
0000
0000
0100
0000
0000
0000
,
1000
0001
0000
1000
0001
0000
0000
0000
0100
0000
0000
0000
0001
0000
0000
0000
,
1000
0000
0000
0001
0100
0000
0000
0000
0100
0000
0000
0000
0100
0000
0000
0000
,
0001
1000
0000
0001
1000
0000
0000
0000
0100
0000
0000
0000
1000
0000
0000
0000
,
0001
0000
0000
1000
0010
0000
0000
0000
0100
0000
1000
0000
0010
0000
0000
0000
,
1000
0001
0000
1000
0001
0000
0000
0000
0100
0000
1000
0000
0001
0000
0000
0000
,
2000
3100
0002
0013
,
2100
0000
0000
0000
0100
3000
0000
0000
0012
0000
0000
0000
0013
0000
0000
0000
,
1000
0000
0000
1000
0100
0000
0000
0000
0100
0000
0000
0100
0010
0000
0000
0000
,
0010
0001
0010
1000
0010
0000
1010
0000
,
0001
0000
0000
0001
0100
0000
0000
0000
0100
0000
0000
0100
0010
0000
0000
0000
,
0010
1000
0010
0001
0010
0000
0011
0000
,
1000
0000
0000
1000
0000
0000
1000
0100
0010
0000
0000
0010
0000
0000
0010
0001
,
0100
0000
0000
0100
0000
0000
0100
0010
1000
0000
0000
1000
0000
0000
1000
0000
,
1100
0000
0100
0010
0100
0000
0020
2000
,
0000
0000
0000
3030
,
2002
0000
0000
0000
,
0000
0000
0000
0000
,
3003
0000
0000
0000
;

//---------------dance-single - ----------------
#NOTES:
     dance-single:
     :
     Medium:
     8:
     0.335,0.364,0.123,0.171,0.000:
0000
0000
0000
0000
,
0000
0000
0000
0000
,
0000
0000
0000
0000
,
0000
0000
0000
0000
,
0000
0000
0000
0000
,
0010
0000
0010
0000
1000
0001
1000
0000
,
0100
0000
0100
0000
0001
1000
0001
0000
,
0010
0000
0010
0000
1000
0001
1000
0000
,
0200
0000
0000
0300
,
0001
0100
0001
0100
,
1000
0100
1001
0110
,
0001
0010
0001
1000
,
0010
1000
0110
1001
,
0001
0100
0001
0000
0001
0000
0001
0000
,
1000
0100
1000
0000
1000
0000
1000
0000
,
0010
0010
0010
0000
1000
0000
0100
0000
,
0010
0010
0010
0000
0001
0000
0100
0000
,
1000
0100
1000
0000
0001
0000
0001
0000
,
0100
0001
0100
0000
0010
0000
0010
0000
,
0001
0100
0001
0000
0100
0000
0100
0000
,
1000
0100
1000
0000
0010
0000
0010
0000
,
1000
1000
1000
0000
0001
0000
0101
0000
,
0001
0001
0001
0000
1000
0000
1100
0000
,
0010
0100
0001
0000
0100
0010
1000
0000
,
0001
0100
0001
1000
0001
0000
1100
0000
,
0001
0001
2000
3000
,
1000
1000
0002
0003
,
0010
0010
2000
3000
,
0100
0100
0002
0003
,
1000
0000
0100
0010
0200
0000
0300
0000
,
0001
0000
0100
0010
0200
0000
0300
0000
,
1000
0000
0010
0100
0020
0000
0000
0000
,
0030
0000
0000
1000
0001
0000
0110
0000
,
1002
0100
0000
0100
,
1003
0100
0010
0100
,
2001
0100
0000
3100
,
0001
0000
0100
0000
0010
1000
0100
0000
,
1002
0100
0000
0103
,
0010
1000
0100
0000
1000
0000
0001
0000
,
0100
0001
0010
0000
1000
0000
0100
0000
,
2000
0000
0000
3001
,
0010
0000
1000
0100
0000
1000
0000
0000
,
0010
0000
0001
0100
0000
0001
0000
0000
,
1000
0000
0001
0001
0000
0001
0000
0000
,
0100
0000
1000
1000
0000
1000
0000
0000
,
0010
0000
1000
0100
1000
0000
0010
0000
,
0001
0000
0100
0010
0100
0000
0001
0000
,
1000
0000
0100
1000
0100
0000
1000
0000
,
0220
0000
0000
0330
,
1000
0000
0001
0000
,
0100
0010
0100
0010
0100
0000
0000
0000
,
0001
0000
1000
0000
,
0100
0010
0100
0010
0100
0000
0000
0000
,
1000
0100
1000
0000
0001
0100
0001
0000
,
1000
0010
1000
0000
0001
0010
0001
0000
,
1000
0100
0000
0010
0001
0000
0200
0020
,
0000
0000
0000
0330
,
2002
0000
0000
0000
,
0000
0000
0000
0000
,
3003
0000
0000
0000
;

//---------------dance-single - ----------------
#NOTES:
     dance-single:
     :
     Beginner:
     3:
     0.144,0.196,0.019,0.095,0.000:
0000
0000
0000
0000
,
0000
0000
0000
0000
,
0000
0000
0000
0000
,
0000
0000
0000
0000
,
0000
0000
0000
0000
,
1000
0000
1000
0000
,
0001
0000
0001
0000
,
1000
0000
1000
0000
,
0001
0000
0000
0000
,
0100
0000
0100
0000
,
0100
0000
0000
0000
,
0010
0000
0010
0000
,
0010
0000
0000
0000
,
1000
0000
1000
0000
,
1000
0000
0000
0000
,
0001
0000
0001
0000
,
0001
0000
0000
0000
,
1000
0000
1000
1000
,
1000
0000
0000
0000
,
0001
0000
0001
0001
,
0001
0000
0000
0000
,
0100
0000
0100
0100
,
0100
0000
0000
0000
,
0010
0000
0010
0000
,
0020
0000
0030
0000
,
1000
1000
1000
0000
,
0001
0001
0001
0000
,
0100
0100
0100
0000
,
0010
0010
0010
0000
,
1000
0000
1000
0000
,
0001
0000
0001
0000
,
0100
0100
0200
0000
,
0000
0000
0300
0000
,
0010
0000
0010
0000
,
1000
0000
1000
0000
,
0100
0000
0100
0000
,
0001
0000
0001
0000
,
0010
0000
1000
0000
,
0100
0000
0001
0000
,
0010
0010
0020
0000
,
0000
0000
0030
0000
,
0000
1000
0000
0000
,
0000
0001
0000
0000
,
0000
1000
0000
0000
,
0000
0001
0000
0000
,
0000
0100
0000
0100
,
0000
0010
0000
0010
,
0000
0100
0000
0100
,
0200
0000
0300
0000
,
0010
0000
1000
0000
,
0200
0300
0000
0000
,
0010
0000
0001
0000
,
0200
0300
0000
0000
,
1000
0000
1000
0000
,
0001
0000
0001
0000
,
0100
0100
0100
0000
,
2002
0000
3003
0000
,
2002
0000
0000
0000
,
0000
0000
0000
0000
,
3003
0000
0000
0000
;

//---------------dance-single - ----------------
#NOTES:
     dance-single:
     :
     Easy:
     5:
     0.241,0.252,0.085,0.123,0.000:
0000
0000
0000
0000
,
0000
0000
0000
0000
,
0000
0000
0000
0000
,
0000
0000
0000
0000
,
0000
0000
0000
0000
,
0100
0100
0001
0001
,
0010
0010
1000
1000
,
0100
0100
0001
0001
,
0020
0000
0000
0030
,
1000
0010
1000
0010
,
0001
0010
0100
0000
,
1000
0100
1000
0100
,
0001
0010
0100
0000
,
1000
0010
1000
0010
,
0001
0010
0100
0000
,
0001
0100
0001
0100
,
0010
0100
1000
0000
,
0001
0001
1000
1000
,
0010
0010
0110
0000
,
1000
1000
0001
0001
,
0100
0100
0110
0000
,
0001
0001
1000
1000
,
0100
0100
0110
0000
,
0010
0010
0010
0000
,
0100
0100
0100
0000
,
1000
1000
0002
0003
,
0001
0001
2000
3000
,
0100
0100
0020
0030
,
0010
0010
0200
0300
,
0001
0010
0001
0000
,
1000
0010
1000
0000
,
0001
0100
0010
0000
,
1000
0010
0100
0000
,
1000
0001
0100
0000
,
0001
1000
0100
0000
,
1000
0010
0001
0000
,
0001
0010
1000
0000
,
0100
0010
1000
0000
,
0100
0010
0001
0000
,
0010
0010
0010
0000
,
2002
0000
0000
3003
,
0001
0001
0000
0001
,
0000
1000
0000
1000
,
0000
0010
0000
0010
,
0000
0100
0000
0100
,
1000
0001
1001
0000
,
0001
1000
1001
0000
,
0001
0010
0100
0000
,
2002
0000
0000
3003
,
0001
0000
1000
0000
,
0010
0100
0010
0000
,
1000
0000
0001
0000
,
0100
0010
0100
0000
,
0001
0010
1000
0010
,
0001
0100
1000
0100
,
0001
0010
0100
0000
,
2002
0000
3003
0000
,
2002
0000
0000
0000
,
0000
0000
0000
0000
,
3003
0000
0000
0000
;

//---------------dance-double - ----------------
#NOTES:
     dance-double:
     :
     Hard:
     11:
     0.375,0.392,0.066,0.190,0.194:
00000000
00000000
00000000
00000000
,
00000000
00000000
00000000
00000000
,
00000000
00000000
00000000
00000000
,
00000000
00000000
00000000
00000000
,
00000000
00000000
00000000
00000000
,
00000010
00000000
00000000
00000000
00000001
00000000
00000000
00000000
00000100
00000000
00000000
00000100
00001000
00000000
00000000
00000000
,
00010000
00000000
00000000
00000000
00100000
00000000
00000000
00000000
10000000
00000000
00000000
10000000
01000000
00000000
00000000
00000000
,
00100000
00000000
00000000
00000000
00010000
00000000
00000000
00000000
00001000
00000000
00000000
00001000
00000100
00000000
00000000
00000000
,
00000010
00000001
00002000
00003000
,
00000010
00000000
00000000
00000010
00000000
00000000
00000000
00000000
00001000
00000000
00000000
00001000
00000000
00000000
00000000
00000000
,
00010000
00000000
00000000
01000000
00000000
00000000
00010000
00000000
10000000
00000000
00000000
00000000
00000000
00000000
00000000
00000000
,
10000000
00000000
00000000
10000000
00000000
00000000
00000000
00000000
00100000
00000000
00000000
00100000
00000000
00000000
00000000
00000000
,
00010000
00000000
00000000
00000100
00000000
00000000
00010000
00000000
00001000
00000000
00000000
00000000
00000000
00000000
00000000
00000000
,
00000010
00000000
00000000
00000010
00000000
00000000
00000000
00000000
00000001
00000000
00000000
00001000
00000000
00000000
00000000
00000000
,
00000100
00000000
00000000
00000100
00000000
00000000
00001000
00000000
00000100
00000000
00000000
00000000
00000000
00000000
00010000
00000000
,
00001000
00000000
00000000
00001000
00000000
00000000
00001000
00000000
01000000
00000000
00000000
01000000
00000000
00000000
00010000
00000000
,
00100000
00000000
00000000
01000000
00000000
00000000
10000000
00000000
00010000
00000000
00000000
00000000
10010000
00000000
00000000
00000000
,
10000000
01000000
00010000
00000000
00001000
00000100
00000001
00000000
,
00000001
00000010
00000100
00001000
00000100
00000000
00001001
00000000
,
00000001
00000010
00001000
00000000
00010000
00100000
10000000
00000000
,
00010000
00100000
01000000
10000000
00010000
00000000
10010000
00000000
,
10000000
00100000
01000000
00000000
00010000
00001000
00000100
00000000
,
00000010
00001000
00000100
00000000
00000001
00000000
00001100
00000000
,
00000010
00001000
00000100
00000000
00010000
00001000
01000000
00000000
,
00010000
00000000
00000000
01000000
00000000
00000000
00100000
00000000
10000000
00000000
00000000
00000000
00010000
00000000
00000000
00000000
,
02000000
00000000
00000000
00000000
03100000
00000000
00000000
00010000
00000000
00000000
10000000
00000000
00010000
00000000
00000000
00000000
,
02000000
00000000
00000000
00000000
03100000
00000000
00000000
10000000
00000000
00000000
01000000
00000000
00010000
00000000
00000000
00000000
,
00002000
00000000
00000000
00000000
00003100
00000000
00000000
00000010
00000000
00000000
00001000
00000000
00000001
00000000
00000000
00000000
,
00000010
00000000
00000000
00000000
00001000
00000000
00000000
00000100
00000000
00000000
00010000
00000000
00001000
00000000
00000000
00000000
,
00010000
00000000
00000000
00000000
00010000
00000000
00010000
00100000
00000000
00000000
01000000
00000000
00100000
00000000
00000000
00000000
,
10000000
00000000
00000000
00000000
10000000
00000000
10000000
00100000
00000000
00000000
01000000
00000000
00010000
00000000
00000000
00000000
,
00001000
00000000
00000000
00010000
00000000
00000000
00001000
00000000
00020000
00000000
00000000
00000000
00000000
00000000
00000000
00000000
,
00000200
00000000
00030300
00000100
00001000
00000000
00000110
00000000
,
00001001
00000000
00000000
00000000
00000010
00000000
00001000
00000100
00000000
00000000
00001000
00000000
00000010
00000000
00000000
00000000
,
00010000
00000000
00000000
00000000
00000100
00000000
00010000
00001000
00000000
00000000
00010000
00000000
00001000
00000000
00000000
00000000
,
01000000
00000000
00000000
00000000
00010000
00000000
01000000
00100000
00000000
00000000
01000000
00000000
00010000
00000000
00000000
00000000
,
10000000
00000000
00000000
00000000
01000000
00000000
10000000
01000000
00000000
00000000
10000000
00000000
00100000
00000000
00000000
00000000
,
00020000
00000000
00000000
00000000
00001000
00000000
00000000
00001000
00000000
00000000
00000000
00000000
00030100
00000000
00000000
00000000
,
00000200
00000000
00000000
00000000
00001000
00000000
00000000
00001000
00000000
00000000
00000000
00000000
00001300
00000000
00000000
00000000
,
00000010
00000000
00000000
00000100
00000000
00000000
00000002
00000000
00002000
00000000
00000000
00000000
00000000
00000000
00003003
00000000
,
00000010
00000000
00000100
00000000
00000010
00001000
00000010
00001000
00000000
00000000
00000001
00000000
00001000
00000000
00000000
00000000
,
00000200
00000000
00010000
00010000
00000000
00002000
00000000
00000300
,
00000000
00000000
00000010
00000010
00000000
00020000
00000000
00000000
,
00003000
00000000
00000100
00000100
00000000
02000000
00000000
00000000
,
00030000
00000000
00100000
00100000
00000000
10000000
00000000
00000000
,
03100000
00000000
10000000
01000000
00000000
00100000
00010000
00000000
,
00100000
00000000
00001000
00010000
00000000
00000100
00010000
00000000
,
00000100
00000000
00001000
00000010
00000000
00001000
00000001
00000000
,
00000200
00000000
00000020
00000330
,
00000001
00000000
00000000
00000001
00000000
00000000
00000010
00000000
00000100
00000000
00000000
00000100
00000000
00000000
00000000
00000000
,
00001000
00000000
00000000
00001000
00000000
00000000
00010000
00000000
00100000
00000000
00000000
00000000
01000000
00000000
00000000
00000000
,
10000000
00000000
00000000
10000000
00000000
00000000
01000000
00000000
00100000
00000000
00000000
00000000
00010000
00000000
00000000
00000000
,
00001000
00000000
00000000
00001000
00000000
00000000
00000100
00000000
00000010
00000000
00000000
00000000
00000001
00000000
00000000
00000000
,
00000100
00000000
00000000
00000100
00000000
00000000
00000000
00000000
00001000
00000000
00000000
00010000
00000000
00000000
00000000
00000000
,
01000000
00000000
00000000
01000000
00000000
00000000
00000000
00000000
00010000
00000000
00000000
00000000
00001000
00000000
00000000
00000000
,
00000010
00000000
00000000
00000010
00000000
00000000
00001000
00000000
00000100
00000000
00000000
00000000
00010000
00000000
00002000
00000000
,
00020000
00000000
00000000
00033000
,
00220000
00000000
00000000
00000000
,
00000000
00000000
00000000
00000000
,
00330000
00000000
00000000
00000000
;

//---------------dance-double - ----------------
#NOTES:
     dance-double:
     :
     Medium:
     8:
     0.328,0.392,0.209,0.133,0.000: // measure 1
00000000
00000000
00000000
00000000
,  // measure 2
00000000
00000000
00000000
00000000
,  // measure 3
00000000
00000000
00000000
00000000
,  // measure 4
00000000
00000000
00000000
00000000
,  // measure 5
00000000
00000000
00000000
00000000
,  // measure 6
00100000
00000000
00100000
00000000
01000000
00100000
01000000
00000000
,  // measure 7
00001000
00000000
00001000
00000000
00010000
00001000
00010000
00000000
,  // measure 8
00000010
00000000
00000010
00000000
00000100
00000010
00000100
00000000
,  // measure 9
00010000
00000000
00010000
00000000
00001000
00010000
00001000
00000000
,  // measure 10
01000000
01000000
10000000
00100000
,  // measure 11
00010000
00000000
01000000
00100000
00010000
00000000
00001000
00000000
,  // measure 12
00000010
00000010
00001000
00000100
,  // measure 13
00000001
00000000
00000010
00000100
00001000
00000000
00010000
00000000
,  // measure 14
01000000
00000000
01000000
00000000
10000000
01000000
00100000
00000000
,  // measure 15
00001000
00000000
00001000
00000000
00010000
00001000
00010000
00000000
,  // measure 16
00000010
00000000
00000010
00000000
00000001
00000100
00001000
00000000
,  // measure 17
00000100
00000000
00000100
00000000
00001000
00000100
00001000
00000000
,  // measure 18
00010000
00001000
00010000
00000000
01000000
00010000
01000000
00000000
,  // measure 19
10000000
01000000
10000000
00000000
00100000
00000000
00001000
00000000
,  // measure 20
00010000
00001000
00010000
00000000
00000100
00001000
00000100
00000000
,  // measure 21
00000001
00000100
00000001
00000000
00000010
00000000
00001000
00000000
,  // measure 22
00010000
00000000
00100000
00000000
01000000
00100000
01000000
00000000
,  // measure 23
00010000
00000000
00001000
00000000
00000010
00000100
00000010
00000000
,  // measure 24
00001000
00000100
00001000
00000000
00010000
00100000
00010000
00000000
,  // measure 25
20000000
00000000
00000000
30010000
,  // measure 26
00100000
00011000
00000100
00000000
,  // measure 27
00000010
00001100
00010000
00000000
,  // measure 28
00100000
11000000
00010000
00000000
,  // measure 29
00000010
00001100
00000001
00000000
,  // measure 30
00000100
00001000
00010000
00001000
00000100
00000000
00000000
00000000
,  // measure 31
00010000
00001000
00100000
00001000
00010000
00000000
00000000
00000000
,  // measure 32
01000000
00100000
00010000
00100000
02000000
00000000
00000000
00000000
,  // measure 33
00020000
00000000
03030000
00100000
00010000
00000000
11000000
00000000
,  // measure 34
00110000
00001000
00011000
00010000
,  // measure 35
00001100
00000110
00001001
00000000
,  // measure 36
00000011
00001000
00000100
00010000
,  // measure 37
00001000
00000000
00001000
00000000
00100000
00010000
01000000
00000000
,  // measure 38
00100000
10000000
01000000
00000000
00100000
00010000
00010000
00000000
,  // measure 39
00001000
00010000
00010000
00000000
00000100
00001000
00000010
00000000
,  // measure 40
00000100
00000001
00001000
00000020
00000200
00000000
00000000
00000330
,  // measure 41
00000000
00001000
00000000
00000001
00000100
00000000
00001100
00000000
,  // measure 42
00000200
00000000
00000000
00000300
,  // measure 43
00020000
00000000
00000000
00030000
,  // measure 44
00002000
00000000
00100000
00000000
00000000
00100000
00000000
00000000
,  // measure 45
02003000
00000000
00010000
00000000
00000000
00010000
00000000
00000000
,  // measure 46
03100000
00000000
00010000
10000000
00000000
00010000
00000000
00000000
,  // measure 47
00000000
00000000
00001000
00010000
00000000
00001000
00000000
00000000
,  // measure 48
00000000
00000000
00000001
00001000
00000000
00000001
00000000
00000000
,  // measure 49
00002000
00000000
00000000
00003000
,  // measure 50
10010000
00000000
00011000
00000000
,  // measure 51
00001001
00000100
00001000
00100000
,  // measure 52
10010000
00000000
01100000
00000000
,  // measure 53
00010000
00001000
00010000
00000000
,  // measure 54
00000110
00000000
00011000
00000000
,  // measure 55
01100000
00000000
10010000
00000000
,  // measure 56
01000000
00000000
00000000
00010000
00001000
00000000
00020000
00002000
,  // measure 57
00000000
00000000
00000000
00033000
,  // measure 58
00000220
00000000
00000000
00000000
,  // measure 59
00000000
00000000
00000000
00000000
,  // measure 60
00000330
00000000
00000000
00000000
;

//---------------dance-double - ----------------
#NOTES:
     dance-double:
     :
     Easy:
     5:
     0.241,0.252,0.095,0.133,0.000: // measure 1
00000000
00000000
00000000
00000000
,  // measure 2
00000000
00000000
00000000
00000000
,  // measure 3
00000000
00000000
00000000
00000000
,  // measure 4
00000000
00000000
00000000
00000000
,  // measure 5
00000000
00000000
00000000
00000000
,  // measure 6
00100000
00100000
00100000
00000000
,  // measure 7
00001000
00010000
00001000
00000000
,  // measure 8
00000010
00000010
00000010
00000000
,  // measure 9
00010000
00001000
00010000
00000000
,  // measure 10
01000000
00000000
10000000
01000000
,  // measure 11
00010000
00000000
00011000
00000000
,  // measure 12
00000100
00000000
00000001
00000100
,  // measure 13
00001000
00000000
00011000
00000000
,  // measure 14
00100000
00000000
10000000
00100000
,  // measure 15
00010000
00000000
00011000
00000000
,  // measure 16
00000010
00000000
00000001
00000010
,  // measure 17
00001000
00000000
00011000
00000000
,  // measure 18
00010000
01000000
00010000
01000000
,  // measure 19
10000000
01000000
00010000
00000000
,  // measure 20
00000100
00000001
00000100
00000001
,  // measure 21
00000100
00001000
00000100
00000000
,  // measure 22
00010000
00001000
00001000
00000000
,  // measure 23
01000000
00100000
00100000
00000000
,  // measure 24
00001000
00010000
00010000
00000000
,  // measure 25
00000010
00000100
00000100
00000000
,  // measure 26
00000001
00002000
00003100
00000000
,  // measure 27
00010000
00002000
01003000
00000000
,  // measure 28
10000000
00020000
01030000
00000000
,  // measure 29
00001000
00020000
00030100
00000000
,  // measure 30
00000010
00002000
00003100
00000000
,  // measure 31
00001000
00200000
00310000
00000000
,  // measure 32
01000000
20000000
30200000
00000000
,  // measure 33
00000000
00300000
00010000
00001000
,  // measure 34
00000010
00000010
00001001
00000000
,  // measure 35
00000100
00000100
00001100
00000000
,  // measure 36
00100000
00100000
10010000
00000000
,  // measure 37
01000000
01000000
01010000
00000000
,  // measure 38
00000010
00001000
00000100
00000000
,  // measure 39
00100000
00010000
01000000
00000000
,  // measure 40
00001000
00020000
00002000
00000000
,  // measure 41
00033000
00000000
00000000
00000000
,  // measure 42
01000000
00010000
00000000
00010000
,  // measure 43
00000000
00001000
00000000
00001000
,  // measure 44
00000000
00010000
00000000
00010000
,  // measure 45
00000000
00001000
00000000
00001000
,  // measure 46
00010000
00000100
00001000
00000010
,  // measure 47
00000001
00000010
00001000
00000100
,  // measure 48
00010000
00001000
01000000
00010000
,  // measure 49
01000000
10000000
01000000
00010000
,  // measure 50
00100000
00100000
01000000
01000000
,  // measure 51
00010000
00001000
00000010
00000010
,  // measure 52
00000100
00000100
00010000
00001000
,  // measure 53
01000000
00100000
10010000
00000000
,  // measure 54
10000000
01000000
00010000
00000000
,  // measure 55
00001000
00000100
00000001
00000000
,  // measure 56
00000001
00000010
00001000
00020000
,  // measure 57
00002000
00000000
00033000
00000000
,  // measure 58
02200000
00000000
00000000
00000000
,  // measure 59
00000000
00000000
00000000
00000000
,  // measure 60
03300000
00000000
00000000
00000000
;
