#TITLE:I Love You;
#SUBTITLE:;
#ARTIST:O/iviA;
#TITLETRANSLIT:;
#SUBTITLETRANSLIT:;
#ARTISTTRANSLIT:;
#GENRE:;
#CREDIT:;
#BANNER:I Love You.png;
#BACKGROUND:I Love You-bg.png;
#LYRICSPATH:;
#CDTITLE:;
#MUSIC:I Love You.ogg;
#OFFSET:-3.860000;
#SAMPLESTART:54.154121;
#SAMPLELENGTH:12.705879;
#SELECTABLE:YES;
#BPMS:0.000000=170.000000
;
#STOPS:
;
#BGCHANGES:;
#KEYSOUNDS:;
#ATTACKS:;

//---------------dance-single - ----------------
#NOTES:
     dance-single:
     :
     Hard:
     13:
     0.595568,0.666305,0.084610,0.399975,0.246139,542.000000,531.000000,11.000000,52.000000,0.000000,0.000000,0.595568,0.666305,0.084610,0.399975,0.246139,542.000000,531.000000,11.000000,52.000000,0.000000,0.000000:
0000
0000
0000
0000
,
0000
0000
0000
0000
,
0000
0000
0000
0000
,
0000
0000
0000
0000
,
1000
0001
0100
0001
1000
0010
0100
0001
,
0010
0001
0000
0010
0001
0000
0100
0001
0000
0100
0001
0000
1000
0000
0010
0000
,
0100
0000
0010
0000
1000
0000
0010
0100
0000
0010
0100
0000
0001
0000
1000
0000
,
0010
0100
0001
2000
0000
3010
0100
0001
,
0010
0000
0001
0100
0001
0000
0100
0000
0010
0000
0100
0000
0001
0000
0010
0000
,
0200
0000
0000
0000
1300
0001
1000
0000
0010
0000
0100
0000
0001
0000
1000
0000
,
0001
0000
0010
0001
0010
0000
0001
0000
0100
0000
0010
0000
1000
0000
0010
0000
,
0100
0001
1000
0001
1000
0010
0100
0001
,
1000
0000
0001
0100
0001
0000
1000
0000
0001
0000
0010
0000
0100
0000
1000
0000
,
0010
1000
0000
0010
1000
0000
0010
0100
0000
0010
0100
0000
0001
0000
0010
0000
,
0100
0000
1000
0000
0001
0000
1000
0001
0000
1000
0001
0000
1000
0000
0100
0000
,
0010
0001
0010
0200
0000
1300
0010
0100
,
0002
0000
0000
0000
,
0000
0000
0003
0000
0000
1000
0000
0001
,
2002
0000
0000
0000
3000
0100
0000
0103
,
0020
0000
0000
0000
0000
1000
0000
1030
,
0002
0000
0000
0103
0010
0100
0001
1000
,
0000
0001
0000
1100
0000
0002
0000
0203
,
0020
0000
0000
0300
0000
1000
0000
1030
,
0002
0000
0000
0000
0000
0100
0000
0103
,
0020
0000
0000
0000
0000
1000
0000
1030
,
0002
0000
0000
1003
0100
0010
0001
0100
,
0000
0001
1000
0000
0100
1000
0010
0100
,
0001
0100
0000
0100
0000
0002
0000
1003
,
0010
0200
0000
0001
0000
0310
0000
0001
,
1000
0200
0000
1300
0001
1000
0001
1000
,
0000
0010
0100
0000
0001
0100
1000
0100
,
0000
0001
1000
0000
1000
0100
0001
0100
,
1000
0000
0001
0100
0000
0001
0010
0100
,
0000
1000
0010
0100
0001
0010
0100
1000
,
0020
0000
0130
0002
0000
1003
0100
0002
,
0000
0000
0000
0000
0003
1000
0000
0001
,
1000
0100
0010
0001
0200
0010
0000
0310
,
1000
0001
0100
0010
2000
0100
0000
3100
,
0010
0001
0100
0010
0100
0001
0010
0200
,
0000
1300
0010
0100
0001
0200
0000
0310
,
1000
0100
1000
0010
0100
0002
0000
0013
,
0001
0100
0001
0010
0001
2000
0000
3100
,
1000
0010
0100
0001
0010
0200
0000
0310
,
0002
0000
0000
0103
0010
1000
0100
0001
,
0100
1000
0001
1000
0100
0020
0000
0031
,
0100
0010
0100
0010
1000
0002
0000
0103
,
0010
1000
0100
0010
0001
0200
0000
0310
,
2000
0000
3002
0000
0103
0010
1000
0100
,
0000
1000
0002
0000
0103
0010
0100
0002
,
0000
1003
0200
0000
0300
0000
1100
0000
,
0101
0000
0010
0001
0000
0100
0001
1000
,
0000
0001
1000
0100
0010
0100
1000
0001
,
0200
0000
0301
2000
0000
3100
0010
0002
,
0000
0000
0000
0003
0000
2002
0000
3003
,
0010
0000
0100
0000
0001
0000
1000
0001
0000
1000
0001
0000
1000
0000
0100
0000
,
0010
0000
0001
0000
0100
0000
0001
0100
0000
0001
0100
0000
0001
0000
1000
0000
,
0100
0000
1000
0000
0010
0000
0100
0001
0000
0100
0001
0000
0100
0000
0010
0000
,
1000
0000
0100
0000
0010
0000
0001
0010
0000
0001
0010
0000
0001
0000
0100
0000
,
1000
0000
0100
0000
0010
0000
1000
0010
0000
1000
0010
0000
1000
0000
0100
0000
,
0001
0000
0100
0000
0010
0000
0100
0010
0000
0100
0010
0000
0001
0000
0100
0000
,
1000
0100
0001
1000
0001
1000
0010
0100
,
0010
1000
0001
0010
0100
1000
0100
0010
,
0001
0100
0000
0001
0100
0000
0001
0100
0000
0001
0100
0000
0010
0000
1000
0000
,
0010
0100
0000
0010
0100
0000
0010
0100
0000
0010
0100
0000
0001
0000
0100
0000
,
0010
1000
0000
0010
0100
0000
0010
1000
0000
0010
0100
0000
0010
0000
1000
0000
,
0100
1000
0000
0010
1000
0000
0100
1000
0000
0010
1000
0000
0100
0000
1000
0000
,
0001
0100
0000
0001
0100
0000
0001
0100
0000
0010
0100
0000
0001
0000
1000
0000
,
0100
1000
0000
0100
1000
0000
0010
1000
0000
0010
0100
0000
0001
0000
0100
0000
,
0020
0000
1000
0000
0130
0000
1000
0100
,
0020
0000
0001
0000
0130
0000
0001
1000
,
0200
1000
0010
1300
,
0000
0000
0000
0200
,
0301
0000
1000
0001
1000
0000
0001
0000
1000
0001
1000
0000
0010
0000
0100
0000
,
0002
0000
0013
0001
0100
0010
1000
0100
,
0010
0001
0010
0000
0001
0000
0100
0010
0100
0000
0010
0000
1000
0000
0100
0000
,
0010
0001
0010
0100
1000
0010
0100
0001
,
1000
0000
0001
0100
0001
0000
1000
0000
0010
0100
0010
0000
1000
0000
0100
0000
,
0010
0001
0000
0100
0001
0000
0010
0001
0000
0100
0001
0000
0100
0000
0010
0000
,
1000
0000
0100
0000
0010
0000
0001
0100
0000
0001
0100
0000
0010
0000
1000
0000
,
0010
0100
0001
2002
3003
0010
1000
0100
,
1000
0010
0100
0220
0330
0010
1000
0100
,
0000
0000
0101
0000
1100
0101
0000
2002
,
0000
0000
3003
0000
;

//---------------dance-double - ----------------
#NOTES:
     dance-double:
     :
     Hard:
     13:
     0.539527,0.666305,0.099994,0.376900,0.196142,491.000000,478.000000,13.000000,49.000000,0.000000,0.000000,0.539527,0.666305,0.099994,0.376900,0.196142,491.000000,478.000000,13.000000,49.000000,0.000000,0.000000:
// measure 0
00000000
00000000
00000000
00000000
,  // measure 1
00000000
00000000
00000000
00000000
,  // measure 2
00000000
00000000
00000000
00000000
,  // measure 3
00000000
00000000
00000000
00000000
,  // measure 4
10000000
01000000
00100000
00001000
00010000
00000010
00001000
00000001
,  // measure 5
00000100
00000010
00000000
00000000
00000100
00000000
00000000
00000100
00000000
00000000
00000100
00000000
00000001
00000000
00000010
00000000
,  // measure 6
00000100
00000000
00010000
00000000
00001000
00000000
00000000
00001000
00000000
00000000
00001000
00000000
01000000
00000000
00010000
00000000
,  // measure 7
10000000
01000000
00100000
00020000
00000000
01030000
00100000
10000000
,  // measure 8
01000000
10000000
00100000
01000000
00010000
00100000
00001000
00010000
,  // measure 9
00000020
00000000
00001030
00000100
00000010
00000001
00001000
00000100
,  // measure 10
00010000
00001000
01000000
00010000
10000000
01000000
00100000
00010000
,  // measure 11
02000000
00000000
03001000
00010000
00000010
00001000
00000100
00000010
,  // measure 12
00000001
00000100
00000010
00010000
00001000
00100000
00010000
01000000
,  // measure 13
00100000
01000000
00000000
00100000
01000000
00000000
00100000
01000000
00000000
00100000
01000000
00000000
00100000
00000000
10000000
00000000
,  // measure 14
01000000
00000000
00100000
00000000
00010000
00000000
00100000
00010000
00000000
00100000
00010000
00000000
00100000
00000000
00010000
00000000
,  // measure 15
01000000
00100000
10000000
02000000
00000000
03100000
00001000
00010000
,  // measure 16
00000200
00000000
00000000
00000000
,  // measure 17
00000000
00000000
00000300
00000000
00000000
00000001
00000000
00001000
,  // measure 18
00000200
00000000
00000000
00000000
00000300
00010000
00000000
00001000
,  // measure 19
02000000
00000000
00000000
00000000
03000000
00100000
00000000
10000000
,  // measure 20
02000000
00000000
00000000
13000000
00100000
01000000
00010000
00200000
,  // measure 21
00000000
00302000
00000000
00000000
00000000
00013000
00000000
00000100
,  // measure 22
00002000
00000000
00000000
00000000
00003000
00000010
00000000
00000100
,  // measure 23
00000002
00000000
00000000
00000000
00000003
00001000
00000000
00000100
,  // measure 24
00020000
00000000
00000000
00000000
00030000
01000000
00000000
10000000
,  // measure 25
00200000
00000000
00300000
10000000
01000000
00100000
00010000
01000000
,  // measure 26
00000000
00200000
00000000
10000000
00000000
01300000
00000000
10000000
,  // measure 27
00100000
02000000
00000000
00010000
00000000
03100000
00000000
00010000
,  // measure 28
00100000
00002000
00000000
00010000
00000000
00003100
00000000
00001000
,  // measure 29
00000100
00000001
00000000
00000001
00000010
00000100
00001000
00000010
,  // measure 30
00000000
00000100
00000000
00001000
00000100
00000000
00010000
00001000
,  // measure 31
00000000
01000000
00000000
00010000
00100000
00000000
01000000
10000000
,  // measure 32
00100000
00000000
01000000
00001000
00000000
00010000
00000100
00001000
,  // measure 33
00000000
00000000
00000010
00001000
00000100
00000010
00000001
00000100
,  // measure 34
00000010
00000000
00001000
00000100
00000000
00010000
00001000
02000000
,  // measure 35
00000000
00000000
03000000
00000000
00000000
10010000
00000000
10000000
,  // measure 36
02000000
00000000
03100000
10000000
01000000
20000000
00000000
30010000
,  // measure 37
00200000
00000000
00301000
00010000
00000010
00002000
00000000
00003001
,  // measure 38
00000200
00000000
00000310
00001000
00000100
00000010
00000001
00000100
,  // measure 39
00000000
00001010
00000000
00000100
00000000
00010000
00000000
00001000
,  // measure 40
00200000
00000000
00310000
01000000
00100000
20000000
00000000
30100000
,  // measure 41
02000000
00000000
03010000
00100000
01000000
20000000
00000000
30010000
,  // measure 42
00200000
00000000
00301000
00010000
00000100
00002000
00000000
00003010
,  // measure 43
00000100
00000000
00000001
00000010
00000100
00001000
00000100
00020000
,  // measure 44
00000000
00031000
00020000
00000000
00031000
00200000
00000000
00310000
,  // measure 45
02000000
00000000
03100000
10000000
01000000
00200000
00000000
00301000
,  // measure 46
00020000
00000000
00030100
00001000
00000010
00000200
00000000
00000301
,  // measure 47
00002000
00000000
00003100
00000000
00010000
00001000
00100000
00010000
,  // measure 48
00000000
01010000
00000000
10000000
01000000
00000000
00100000
00010000
,  // measure 49
00000000
00110000
00000000
00100000
00001000
00000000
00010000
00000000
,  // measure 50
00000010
00000000
00001000
00000100
00000000
00000010
00000001
00000100
,  // measure 51
00000000
00000000
00000010
00001000
00000100
00001000
00000001
00001000
,  // measure 52
00000100
00000000
00010000
00001000
00000000
00100000
00010000
02000000
,  // measure 53
00000000
00000000
00000000
00000000
03000000
00200000
00000000
00300000
,  // measure 54
10000000
01000000
00000000
00000000
10010000
00000000
00000000
00100000
00000000
00000000
00001000
00000000
00010000
00000000
00000100
00000000
,  // measure 55
00001000
00000100
00000000
00000000
00001001
00000000
00000000
00000010
00000000
00000000
00001000
00000000
00000100
00000000
00010000
00000000
,  // measure 56
00001000
00100000
00000000
00000000
00110000
00000000
00000000
00010000
00000000
00000000
01000000
00000000
00100000
00000000
10000000
00000000
,  // measure 57
01000000
00100000
00000000
00000000
00001000
00000000
00000000
00010000
00000000
00000000
00000100
00000000
00001000
00000000
00000010
00000000
,  // measure 58
00000100
00000001
00000000
00000000
00001001
00000000
00000000
00000010
00000000
00000000
00001000
00000000
00000100
00000000
00010000
00000000
,  // measure 59
00001000
01000000
00000000
00000000
01010000
00000000
00000000
01000000
00000000
00000000
00100000
00000000
10000000
00000000
01000000
00000000
,  // measure 60
00100000
00010000
00000000
00000000
00110000
00000000
00000000
00100000
00000000
00000000
00001000
00000000
00010000
00000000
00000100
00000000
,  // measure 61
00001000
00000010
00000000
00000000
00001010
00000000
00000000
00001000
00000000
00000000
00000100
00000000
00000010
00000000
00000001
00000000
,  // measure 62
00000100
00000010
00000000
00000100
00000010
00000000
00000100
00000010
00000000
00000000
00001000
00000000
00000100
00000000
00010000
00000000
,  // measure 63
00001000
00100000
00000000
00001000
00100000
00000000
00001000
00100000
00000000
00000000
00010000
00000000
10000000
00000000
01000000
00000000
,  // measure 64
00100000
00010000
00000000
00100000
00010000
00000000
00100000
00010000
00000000
00000000
00100000
00000000
00001000
00000000
00000100
00000000
,  // measure 65
00000001
00000100
00000000
00000001
00000100
00000000
00000001
00000100
00000000
00000000
00000010
00000000
00001000
00000000
00010000
00000000
,  // measure 66
00100000
00010000
00000000
00100000
00010000
00000000
10000000
00010000
00000000
00000000
10000000
00000000
01000000
00000000
00100000
00000000
,  // measure 67
00001000
00010000
00000000
00001000
00010000
00000000
00001000
00010000
00000000
00000000
00010000
00000000
00000100
00000000
00001000
00000000
,  // measure 68
00000020
00000000
00000100
00000000
00000031
00000000
00000100
00000010
,  // measure 69
00002000
00000000
00000100
00000000
00013000
00000000
00000100
00010000
,  // measure 70
00002000
00010000
00020000
00000000
,  // measure 71
00033000
00000000
00000000
00200000
,  // measure 72
00310000
01000000
10000000
01000000
00010000
00100000
00001000
00010000
,  // measure 73
00000200
00000000
00001300
00000010
00000100
00000001
00000010
00001000
,  // measure 74
00000010
00000001
00000100
00001000
00000100
00000010
00001000
00000100
,  // measure 75
00010000
00001000
01000000
00010000
10000000
01000000
00100000
00010000
,  // measure 76
10000000
00000000
00100000
01000000
00100000
00000000
10000000
00000000
00010000
01000000
00010000
00000000
10000000
00000000
00100000
00000000
,  // measure 77
01000000
00010000
00000000
00100000
00010000
00000000
01000000
00010000
00000000
00100000
00010000
00000000
00100000
00000000
00001000
00000000
,  // measure 78
00010000
00000000
00000010
00000000
00001000
00000000
00000100
00000010
00000000
00000100
00000010
00000000
00001000
00000000
00000100
00000000
,  // measure 79
00000010
00000001
00000100
00020000
00000000
01030000
00010000
10000000
,  // measure 80
00100000
01000000
00001000
00020000
00000000
00030010
00000100
00000001
,  // measure 81
00000000
00000000
00001001
00000000
00001000
00000100
00000000
00022000
,  // measure 82
00000000
00000000
00033000
00000000
;

//---------------dance-double - ----------------
#NOTES:
     dance-double:
     :
     Medium:
     8:
     0.296685,0.349017,0.046151,0.307673,0.000000,270.000000,264.000000,6.000000,40.000000,0.000000,0.000000,0.296685,0.349017,0.046151,0.307673,0.000000,270.000000,264.000000,6.000000,40.000000,0.000000,0.000000:
00000000
00000000
00000000
00000000
,
00000000
00000000
00000000
00000000
,
00000000
00000000
00000000
00000000
,
00000000
00000000
00000000
00000000
,
10000000
00000000
00100000
00000000
01000000
00010000
01000000
00000000
,
00020000
00030000
00002000
00003000
,
00000010
00000000
00000100
00000000
00000001
00001000
00000001
00000000
,
00000200
00000300
00020000
00030000
,
00001000
00100000
00010000
01000000
,
00100000
10000000
01000000
00100000
,
00001000
00010000
00000010
00001000
,
00000100
00000001
00001000
00000100
,
00010000
00001000
01000000
00010000
,
10000000
01000000
00010000
00100000
,
00010000
00000100
00001000
00000010
,
00002002
00003003
00002200
00003300
,
00022000
00000000
00000000
00000000
,
00000000
00000000
00033000
00000000
00000000
00001000
00000000
00100000
,
00020000
00000000
00030000
00000000
00000000
10000000
00000000
01000000
,
00200000
00000000
00300000
00000000
00000000
00001000
00000000
00010000
,
00000200
00000300
00002000
00003000
,
00000020
00000000
00000030
00000000
00000000
00000001
00000000
00000100
,
00000020
00000000
00000030
00000000
00000000
00001000
00000000
00000100
,
00020000
00000000
00030000
00000000
00000000
00001000
00000000
01000000
,
00020000
00000000
00030000
00000000
00000000
10000000
00000000
00100000
,
02000000
03000000
00020000
00030000
,
00200000
00000000
00300000
00000000
00000000
00001000
00000000
00010000
,
00002000
00000000
00003000
00000000
00000000
00010000
00000000
00000100
,
00002000
00000000
00003000
00000000
00000000
00000010
00000000
00001000
,
00000200
00000000
00000300
00000000
00000001
00000000
00001000
00000100
,
00000000
00000000
00000000
00000000
00010000
00000000
00001000
00100000
,
00000000
00000000
00000000
00010000
,
10000000
00000000
00000000
00010000
00000000
00000000
01000000
00000000
,
00000000
00100000
00001000
00010000
,
00000010
00000000
00000000
00001000
00000000
00000000
00000202
00000000
,
00000000
00000000
00000303
00000000
00000000
00000010
00000000
00001000
,
00000100
00010000
00001000
01000000
,
00100000
00000000
10000000
00000000
01000000
10000000
00000000
00100000
,
10000000
01000000
00100000
00001000
,
00010000
00000000
00000010
00000000
00001000
00000100
00000000
00001000
,
00000001
00000000
00001000
00000000
00000100
00001000
00000000
00000010
,
00001000
00000100
00010000
00001000
,
00100000
00000000
00010000
00000000
01000000
00100000
00000000
01000000
,
00100000
00000000
10000000
00010000
,
01000000
00000000
00001000
00000000
00010000
00000100
00000000
00010000
,
00000100
00000000
00001000
00000000
00000010
00000100
00000000
00000010
,
00000100
00000001
00001000
00000100
,
00010000
00000000
00001000
00000000
01000000
00000000
00100000
10000000
,
00000000
01000000
00000000
00000000
10000000
00000000
00100000
01000000
,
00000000
00100000
00000000
00000000
00000000
00000000
10000000
00000000
,
01000000
00000000
00000000
00010000
00000000
00000000
00001000
00000000
,
00000000
00000010
00001000
00000100
,
00000001
00000000
00000000
00000010
00000000
00000000
00002000
00000000
,
00000000
00000000
00003000
00000000
,
00010000
00000000
00001000
00000000
01000000
00010000
01000000
00000000
,
00100000
00000000
10000000
00000000
00100000
01000000
00100000
00000000
,
10000000
01000000
00010000
00001000
,
00000100
00000001
00000010
00001000
,
00000020
00000000
00000030
00010000
00000000
00001000
00000000
00000000
,
00200000
00000000
00300000
00010000
00000000
10000000
00000000
00000000
,
00100000
10000000
01000000
00010000
,
00200000
00300000
00002000
00003000
,
00020000
00000010
00000000
00030010
,
00000200
00010000
00000000
00010300
,
00002000
00100000
00000000
00103000
,
00010000
01000000
00100000
10000000
,
01000000
00100000
10000000
00010000
,
00100000
00001000
00000100
00000010
,
00000002
00000000
00000000
00001003
,
00000200
00000000
00000000
00010300
,
00002000
00000000
00000000
00000000
,
00013000
00000000
00000000
00000000
,
00100000
00000000
00010000
00000000
01000000
00100000
01000000
00000000
,
00200000
00300000
10000000
01000000
,
00010000
00001000
00000100
00000001
,
00000010
00001000
00000100
00001000
,
00000010
00000001
00000100
00010000
,
00001000
00001000
00100000
00010000
,
01000000
00000000
00100000
00000000
10000000
01000000
10000000
00000000
,
00010000
00000000
01000000
00100000
00000000
00000000
00001000
00000000
,
00010000
00000000
00000010
00000100
00000000
00000000
00001001
00000000
,
00000000
00000000
00000100
00000000
00010000
00001000
00000000
00022000
,
00000000
00000000
00033000
00000000
;

//---------------dance-single - ----------------
#NOTES:
     dance-single:
     :
     Medium:
     8:
     0.345034,0.444203,0.361516,0.453818,0.000000,314.000000,267.000000,47.000000,59.000000,0.000000,0.000000,0.345034,0.444203,0.361516,0.453818,0.000000,314.000000,267.000000,47.000000,59.000000,0.000000,0.000000:
0000
0000
0000
0000
,
0000
0000
0000
0000
,
0000
0000
0000
0000
,
0000
0000
0000
0000
,
0100
1000
0001
1000
,
0100
0010
0001
0100
,
0010
1000
0010
0000
0100
0001
0100
0000
,
0020
0000
0000
0030
,
1000
0000
0100
0000
1000
0001
1000
0000
,
0001
0000
0100
0000
0001
1000
0001
0000
,
0010
0100
0001
1000
,
1100
1100
0101
0101
,
0010
0100
0001
0000
0100
0000
0010
0000
,
1000
0100
1000
0000
0010
0000
0100
0000
,
0002
0003
2000
3000
,
0020
0100
0100
0130
,
2002
0000
0000
0000
,
0000
0000
3003
0000
0000
0010
0000
0000
,
2002
0000
3003
0000
0000
0010
0000
0000
,
2002
0000
3003
0000
0000
0010
0000
0000
,
2002
3003
0200
0300
,
0020
0000
0030
0000
0000
1000
0000
0000
,
2002
0000
3003
0000
0000
0001
0000
0000
,
2002
0000
3003
0000
0000
1000
0000
0000
,
2002
0000
3003
0000
0000
0010
0000
0000
,
0220
0330
0002
0003
,
2000
0100
0000
3100
,
0002
0100
0000
0103
,
2000
0010
0000
3010
,
0002
0010
0020
0033
,
2002
3003
0010
0100
,
2002
3003
0100
0010
,
0001
0000
0000
1000
0000
0000
0001
0000
,
0000
1000
0100
0010
,
0001
0000
0000
0100
0000
0000
2002
0000
,
0000
0000
3003
0000
0000
0010
0000
0100
,
0010
0000
1001
0000
1000
0100
0000
1000
,
0100
0000
1001
0000
0001
0100
0000
0001
,
0100
1001
1000
0010
,
0100
0000
0001
0000
0000
0010
0000
0001
,
0100
0000
0010
0000
1000
0010
0000
1000
,
0100
0000
0010
0000
0001
0100
0000
0001
,
1000
0000
0001
0000
0010
0001
0000
0100
,
0001
0000
1000
1001
,
0001
0000
0101
0000
0000
0010
0000
1000
,
0100
0000
1100
0000
0000
0010
0000
0001
,
0100
0101
0010
1010
,
1000
1100
0010
0011
,
0220
0330
0001
1000
,
2002
3003
0100
0010
,
1000
0000
0000
0001
0000
1000
0001
1000
,
0000
0000
0010
1000
0010
0000
0100
0000
,
0010
0000
0000
0010
0000
0000
2000
0002
,
0000
0000
3003
0000
0000
0010
0000
0000
,
1000
0100
1000
0000
0001
0000
0001
0000
,
1000
0100
1000
0000
0010
0000
0100
0000
,
0001
0010
0001
0000
1000
0000
1000
0000
,
0001
0100
0010
1000
,
0100
0000
0000
1001
0000
1001
0000
0000
,
0010
0000
0000
1001
0000
1001
0000
0000
,
0000
0010
1000
0000
0010
0000
1000
0000
,
0001
0000
0000
1000
0000
0001
0000
0000
,
0200
0010
0310
0001
,
2000
0100
3100
0010
,
0002
0100
0103
0010
,
1000
0100
0010
0001
,
2002
0000
0000
3003
,
0000
0000
0000
0010
0100
0000
0010
0000
,
2002
0000
3003
0100
,
2002
0000
3003
0010
,
2002
0000
0000
0000
,
3003
0000
0000
0000
,
0010
1010
0010
0011
,
2002
0000
3003
0000
0010
0100
0010
0000
,
1000
1100
0001
0101
,
0220
0000
0330
0000
0001
0100
0001
0000
,
1000
0100
1000
0000
0001
0010
0001
0000
,
0200
0310
0002
1003
,
1100
0101
0101
1100
,
0001
0100
0010
1000
0000
0000
0000
0000
,
0001
0100
0010
1000
0000
0000
0000
0000
,
0000
0000
1001
0000
0100
0010
0000
2002
,
0000
0000
3003
0000
;

//---------------dance-single - ----------------
#NOTES:
     dance-single:
     :
     Easy:
     5:
     0.243941,0.317288,0.230755,0.669190,0.000000,222.000000,192.000000,30.000000,87.000000,0.000000,0.000000,0.243941,0.317288,0.230755,0.669190,0.000000,222.000000,192.000000,30.000000,87.000000,0.000000,0.000000:
0000
0000
0000
0000
,
0000
0000
0000
0000
,
0000
0000
0000
0000
,
0000
0000
0000
0000
,
0020
0030
2000
3000
,
0001
0001
1000
1000
,
0020
0030
0002
0003
,
1000
1000
0001
0001
,
0100
0010
0100
0010
,
2002
0000
3003
0000
,
0010
0100
0010
0100
,
2002
3003
0220
0330
,
1000
0100
0010
0001
,
2002
3003
2002
3003
,
0010
0100
1001
0000
,
0100
0010
1001
0000
,
0220
0000
0000
0000
,
0000
0000
0330
0000
,
2002
0000
0003
0000
,
0200
0000
0300
0000
,
0002
0000
0003
0000
,
0020
0000
0030
0000
,
0002
0000
3000
0000
,
0020
0000
0030
0000
,
2000
0000
3000
0000
,
0200
0000
0303
0000
,
0020
0000
1000
0000
,
0100
0000
2030
0000
,
3002
0000
0010
0000
,
1000
0000
0203
0000
,
0010
0000
0001
0000
,
0320
0000
1000
0000
,
0230
0000
0320
0000
,
0030
0001
1000
0001
,
1000
0000
0001
0000
,
2002
0000
3003
0000
,
0010
0010
1000
0100
,
0010
0010
0001
0100
,
0010
0010
1000
0001
,
0010
0010
2002
3003
,
0001
0001
1000
0100
,
0001
0001
1000
0010
,
0001
0001
1000
0100
,
0020
0030
2002
3003
,
0001
0100
0020
0030
,
1000
0100
0020
0030
,
1000
0001
0200
0300
,
0001
1000
0200
0300
,
0010
0010
2002
3003
,
0010
0010
2002
3003
,
0010
0001
0200
0300
,
0010
1000
0200
0300
,
0010
0000
0100
0000
,
2002
0000
3003
0000
,
1000
1000
2002
3003
,
0001
0001
2002
3003
,
0010
0010
0220
0330
,
0100
0100
0220
0330
,
2000
0000
3010
0000
,
0002
0000
0013
0000
,
2000
0000
3100
0000
,
0002
0000
0103
0000
,
1000
0100
2002
3003
,
0001
0100
2002
3003
,
0010
0100
2002
3003
,
0100
0010
2002
3003
,
2000
0000
3100
0000
,
0002
0000
0103
0000
,
0001
0010
0100
1000
,
0001
0010
0100
1000
,
0002
0000
0000
0000
,
1003
0000
0000
0000
,
0010
0000
0010
0000
,
2002
3003
0100
0010
,
0002
0003
2000
3000
,
0002
0003
0100
0010
,
1000
1000
0001
0001
,
2002
3003
0010
0100
,
0001
0001
1000
1000
,
0220
0000
0330
0000
,
2002
0000
3003
0000
,
0000
0110
0000
0000
0110
0000
0000
2002
,
0000
0000
3003
0000
;

//---------------dance-single - ----------------
#NOTES:
     dance-single:
     :
     Beginner:
     3:
     0.149441,0.188931,0.092302,0.107686,0.000000,136.000000,124.000000,12.000000,14.000000,0.000000,0.000000,0.149441,0.188931,0.092302,0.107686,0.000000,136.000000,124.000000,12.000000,14.000000,0.000000,0.000000:
0000
0000
0000
0000
,
0000
0000
0000
0000
,
0000
0000
0000
0000
,
0000
0000
0000
0000
,
0010
0000
1000
0000
,
0001
0000
1000
0000
,
0010
0000
0001
0000
,
1000
0000
0001
0000
,
0100
0000
0100
0000
,
0001
0000
0000
0000
,
0010
0000
0010
0000
,
1000
0000
0000
0000
,
1000
0000
0100
0000
,
0010
0000
0001
0000
,
0010
0000
0100
0000
,
1000
0000
0000
0000
,
0220
0000
0000
0000
,
0000
0330
0000
0000
,
1001
0000
0000
0000
,
0100
0000
0000
0000
,
0001
0000
0000
0000
,
0010
0000
0000
0000
,
0001
0000
0000
0000
,
0010
0000
0000
0000
,
1000
0000
0000
0000
,
0100
0000
0000
0000
,
0010
0000
0000
0000
,
0100
0000
0000
0000
,
0001
0000
0000
0000
,
1000
0000
0000
0000
,
0010
0000
0001
0000
,
0010
0000
1000
0000
,
0100
0000
0001
0000
,
1000
0000
0000
0000
,
1000
0000
0001
0000
,
2000
0000
3000
0000
,
0010
0000
1000
0000
,
0010
0000
0001
0000
,
0010
0000
1000
0000
,
0010
0000
0001
0000
,
0100
0000
1000
0000
,
0100
0000
0001
0000
,
0100
0000
1000
0000
,
0010
0010
0010
0000
,
0001
0000
0010
0000
,
1000
0000
0010
0000
,
1000
0000
0100
0000
,
0001
0000
0100
0000
,
1001
0000
0000
0000
,
1001
0000
0000
0000
,
0010
0000
0010
0000
,
0010
0000
0000
0000
,
0100
0000
0100
0000
,
2002
0000
3003
0000
,
1000
1000
0000
0000
,
0001
0001
0000
0000
,
0010
0010
0000
0000
,
0100
0100
0000
0000
,
1000
0000
0010
0000
,
0001
0000
0010
0000
,
1000
0000
0100
0000
,
0001
0000
0100
0000
,
1000
1000
0000
0000
,
0001
0001
0000
0000
,
0010
0010
0000
0000
,
0100
0100
0000
0000
,
1000
0000
0100
0000
,
0001
0000
0100
0000
,
2002
3003
0000
0000
,
2002
3003
0000
0000
,
2002
0000
3003
0000
,
0000
0000
0000
0000
,
0010
0000
0010
0000
,
1001
0000
0000
0000
,
0001
0000
1000
0000
,
1001
0000
0000
0000
,
0100
0000
0100
0000
,
1001
0000
0000
0000
,
0001
0000
1000
0000
,
0020
0000
0030
0000
,
2002
0000
3003
0000
,
0000
0010
0000
0000
0010
0000
0000
0010
;

//---------------dance-double - ----------------
#NOTES:
     dance-double:
     :
     Easy:
     5:
     0.208778,0.317769,0.123069,0.292290,0.000000,190.000000,174.000000,16.000000,38.000000,0.000000,0.000000,0.208778,0.317769,0.123069,0.292290,0.000000,190.000000,174.000000,16.000000,38.000000,0.000000,0.000000:
00000000
00000000
00000000
00000000
,
00000000
00000000
00000000
00000000
,
00000000
00000000
00000000
00000000
,
00000000
00000000
00000000
00000000
,
10000000
00100000
01000000
00000000
,
00001000
00000000
00000000
00000000
,
00000010
00000100
00000001
00000000
,
00001000
00000000
00000000
00000000
,
00010000
00000000
00010000
00000000
,
10000000
00000000
10000000
00000000
,
00010000
00000000
00010000
00000000
,
00001000
00000000
00001000
00000000
,
00000001
00000000
00000001
00000000
,
00001000
00000000
00000100
00000000
,
00010000
00000000
01000000
00000000
,
20020000
00000000
30030000
00000000
,
02200000
00000000
00000000
00000000
,
00000000
00000000
03300000
00000000
,
00100000
00000000
00000000
00000000
,
00010000
00000000
00000000
00000000
,
00001000
00000000
00000000
00000000
,
00000100
00000000
00000000
00000000
,
00000001
00000000
00000000
00000000
,
00000100
00000000
00000000
00000000
,
00010000
00000000
00000000
00000000
,
01000000
00000000
00010000
00000000
,
00100000
00000000
10000000
00000000
,
01000000
00000000
00001000
00000000
,
00010000
00000000
00000010
00000000
,
00000100
00000000
00001000
00000000
,
00000002
00000003
00000100
00000010
,
00002000
00003000
00020000
00030000
,
01000000
00000000
10010000
00000000
,
00100000
00000000
10010000
00000000
,
00100000
01000000
10000000
00000000
,
20020000
00000000
30030000
00000000
,
02000000
03000000
00010000
10000000
,
00200000
00300000
00001000
00010000
,
00000200
00000300
00001000
00000010
,
00000200
00000300
00000001
00001000
,
00000200
00000300
00010000
00001000
,
02000000
03000000
00010000
01000000
,
20000000
30000000
01000000
00001000
,
00020000
00030000
00000100
00001000
,
00000001
00000010
00000100
00001000
,
00000010
00010000
00001000
00100000
,
00010000
01000000
00100000
10000000
,
00200000
00300000
00001000
00000000
,
00020000
00000000
00030000
00000000
,
00000020
00000000
00000030
00000000
,
00000101
00000000
00001010
00000000
,
00002200
00000000
00003300
00000000
,
00011000
00000000
00110000
00000000
,
02200000
00000000
03300000
00000000
,
10000000
00010000
02000000
03000000
,
00010000
00001000
00000200
00000300
,
00000001
00001000
00000200
00000300
,
00010000
00001000
02000000
03000000
,
00100000
10000000
01000000
00100000
,
00010000
00001000
00000100
00000010
,
00000002
00000003
00002000
00003000
,
00020000
00030000
20000000
30000000
,
00100000
00100000
10010000
00000000
,
00100000
00100000
00011000
00000000
,
00000010
00000010
00001001
00000000
,
00000010
00000010
00011000
00000000
,
00100000
00010000
01000000
00000000
,
00010000
00000000
00000100
00000000
,
00000002
00000000
00000000
00000003
,
00000200
00000000
00000000
00000300
,
00002000
00000000
00000000
00000000
,
00013000
00000000
00000000
00000000
,
00100000
00010000
01000000
00000000
,
00200000
00300000
10000000
01000000
,
00010000
00001000
00000100
00000001
,
00000010
00000000
00000001
00000000
,
00001000
00000001
00000100
00000000
,
00010000
00000000
00001000
00000000
,
01000000
00100000
10000000
00000000
,
00010000
01000000
00100000
00000000
,
00010000
00000010
00000100
00000000
,
00000000
00010000
00000000
00000000
00001000
00000000
00000000
00022000
,
00000000
00000000
00000000
00000000
00000000
00033000
00000000
00000000
;

//---------------dance-single - ----------------
#NOTES:
     dance-single:
     :
     Challenge:
     16:
     0.779073,0.824949,0.092302,0.169220,0.746108,709.000000,697.000000,12.000000,22.000000,0.000000,0.000000,0.779073,0.824949,0.092302,0.169220,0.746108,709.000000,697.000000,12.000000,22.000000,0.000000,0.000000:
0000
0000
0000
0000
,
0000
0000
0000
0000
,
0000
0000
0000
0000
,
0000
0000
0000
0000
,
1000
0000
0010
1000
0010
0000
1000
0000
0001
0100
0001
0000
0100
0010
0100
0000
,
1000
0010
0000
1000
0010
0000
0100
0001
0000
0100
0001
0000
1000
0010
0100
0000
,
0010
0000
0100
0001
0100
0000
0010
0100
0000
0010
0100
0000
0001
0100
0001
0100
,
0010
0100
0010
1000
0000
0001
1000
0100
,
1000
0000
0010
1000
0010
0000
1000
0000
0001
0100
0001
0000
1000
0010
1000
0010
,
2000
0000
0000
0000
3001
0100
0001
0000
1000
0010
1000
0000
0001
0010
0001
0000
,
1000
0000
0100
1000
0100
0000
1000
0000
0010
0100
0010
0000
1000
0000
0001
0100
,
0001
0000
0100
0010
0100
0000
0001
0000
1000
0000
0001
1000
0001
0000
1000
0000
,
0010
0000
0100
0001
0100
0000
0010
0000
1000
0100
1000
0000
0010
0100
0010
0000
,
1000
0010
0000
1000
0010
0000
0100
0001
0000
0100
0001
0000
1000
0100
0010
0100
,
1000
0000
0001
0100
0010
0000
0100
0010
0000
0100
0010
0000
1000
0010
1000
0000
,
0001
0000
0100
0000
0010
0000
1000
0000
0000
0000
0001
0000
0100
0010
0100
0010
,
0200
0000
0000
0000
,
0000
0000
0000
0000
0300
0001
0000
1000
,
1002
0000
0100
0000
0103
0001
0000
0001
,
2000
0000
0010
0000
3010
1000
0000
0010
,
0200
0000
0010
0000
0310
0100
0000
0001
,
0000
1000
0001
0000
0001
2000
0000
3010
,
0200
0000
0001
0000
0301
0100
0000
0010
,
2000
0000
0010
0000
3010
1000
0000
0010
,
0200
0000
0010
0000
0310
0200
0000
0301
,
2000
0000
0000
3001
1000
0010
1000
0001
,
0100
0001
0000
0001
0000
0001
1000
0010
,
0100
0001
0000
0001
0000
0001
1000
0100
,
0010
0001
0000
0001
0000
1000
0010
0100
,
0001
1000
0000
1000
0010
0100
0010
1000
,
0000
1001
0000
0001
0100
0010
0100
0001
,
0000
1001
0000
0100
0000
0010
0100
0000
,
1010
0000
0100
0100
0000
0001
0100
1000
,
0000
0001
0100
1000
0100
0001
0100
0010
,
0100
0000
0001
0100
0000
0010
2000
0100
,
0000
0100
0000
3100
0000
1001
0000
0001
,
1000
0000
0001
0100
0001
0000
0100
0001
0100
0000
0010
0000
0100
0000
0010
0000
,
1000
0000
0001
1000
0001
0000
1000
0001
1000
0000
0010
0000
0100
0000
0010
0000
,
0100
0000
0001
0100
0001
0000
1000
0010
1000
0000
0001
0000
0100
0000
0010
0000
,
1000
0100
0010
0001
0100
0010
1000
0001
,
1000
0000
0100
1000
0100
0000
1000
0100
1000
0000
0010
0000
0100
0000
0001
0000
,
1000
0000
0001
1000
0001
0000
1000
0001
1000
0000
0010
0000
0100
0000
0001
0000
,
1000
0000
0100
1000
0100
0000
1000
0001
1000
0000
0001
0000
0100
0000
0010
0000
,
2000
0000
3001
1000
0100
0010
0001
0100
,
0001
0000
0100
0010
0100
0000
0010
0100
0010
0000
2000
0000
0000
0000
3001
0000
,
0100
0000
0010
0100
0010
0000
0100
0010
0100
0000
0002
0000
0000
0000
1003
0000
,
0010
0000
0100
0001
0100
0000
0010
1000
0010
0000
0200
0000
0000
0000
0301
0000
,
1000
0000
0001
1000
0100
0000
1000
0001
0100
0000
0010
0000
1000
0000
0100
0000
,
0010
0000
0001
0100
0010
0000
1000
0001
0100
0000
0010
0000
1000
0000
0001
0000
,
1000
0000
0010
1000
0100
0000
1000
0001
0100
0000
0001
1000
0100
0000
1000
0000
,
0001
0000
1000
0100
1000
0000
0001
0000
1000
0100
1000
0000
0010
0000
0110
0000
,
0000
0001
0100
1000
0100
0001
0100
0010
,
0110
0000
0100
0101
0000
0001
1000
2001
,
0000
0010
0000
0010
0000
0002
0000
3003
,
0100
0010
0000
0100
0010
0000
0100
0010
0000
0100
0010
0000
1000
0100
0010
0001
,
0100
0010
0000
0100
0010
0000
0100
0010
0000
0100
0010
0000
1000
0001
1000
0010
,
0100
0001
0000
0100
0001
0000
1000
0010
0000
1000
0010
0000
1000
0001
0010
0001
,
0100
0010
0000
0100
0010
0000
1000
0001
0000
1000
0001
0000
0100
0010
1000
0100
,
0010
0001
0000
0010
0001
0000
0100
0001
0000
0100
0001
0000
1000
0001
1000
0001
,
1000
0100
0000
1000
0100
0000
1000
0100
0000
1000
0100
0000
1000
0010
0100
0001
,
0100
0010
0000
0100
0010
0000
0100
0010
0000
0100
0001
0000
0100
0010
1000
0010
,
0100
0010
0000
0100
0010
0000
0100
0010
1000
0010
1000
0000
0001
0100
0001
0000
,
1000
0100
0000
1000
0100
0000
0010
0001
0000
0010
0001
0000
0100
0001
1000
0001
,
1000
0010
0000
1000
0010
0000
0100
0001
0000
0100
0001
0000
1000
0100
1000
0010
,
1000
0001
0000
1000
0001
0000
0100
0010
0000
0100
0010
0000
1000
0010
1000
0001
,
1000
0100
0000
1000
0100
0000
1000
0001
0000
1000
0001
0000
1000
0010
0100
0000
,
0010
0100
0000
0001
0100
0000
0001
0100
0000
0001
1000
0000
0001
1000
0010
0000
,
1000
0001
0000
1000
0001
0000
0100
0001
0000
0100
0001
0000
0100
0001
0010
0001
,
0100
0000
0010
0000
1000
0010
1000
0010
1000
0000
0010
0000
0100
0001
0100
0001
,
0100
0000
0010
0000
1000
0001
1000
0001
1000
0000
0010
0000
1000
0100
1000
0100
,
1000
0010
0000
1000
0010
0000
1000
0010
0000
1000
0010
0000
1000
0100
0010
0001
,
0200
0000
0000
0000
0000
0000
0000
0000
0301
0100
0001
0100
0001
0000
0000
0000
,
1000
0000
0010
1000
0010
0000
1000
0000
0001
0100
0001
0000
1000
0010
1000
0010
,
2000
0000
0000
0000
3001
0100
0001
0000
1000
0010
1000
0000
0001
0010
0001
0000
,
1000
0000
0100
1000
0100
0000
1000
0000
0010
0100
0010
0000
1000
0000
0001
0100
,
0001
0000
0100
0010
0100
0000
0001
0000
1000
0000
0001
1000
0001
0000
1000
0000
,
0010
0000
0100
0001
0100
0000
0010
0000
1000
0100
1000
0000
0010
0100
0010
0000
,
1000
0010
0000
1000
0010
0000
0100
0001
0000
0100
0001
0000
1000
0100
0010
0100
,
1000
0000
0001
0100
0010
0000
0100
0010
0000
0100
0010
0000
1000
0010
1000
0000
,
0001
0000
0100
0000
0010
0000
1000
0000
0000
0000
0001
0000
1000
0100
0010
0001
,
1000
0000
0010
0000
0100
0000
0001
0000
0000
0000
1000
0000
0001
0100
0010
1000
,
0000
0000
0001
0100
0001
0000
0000
0000
1001
0000
1001
0000
0000
0000
0220
0000
,
0000
0000
0330
0000
;

//---------------dance-double - ----------------
#NOTES:
     dance-double:
     :
     Challenge:
     16:
     0.707649,0.761492,0.099994,0.207680,0.515353,644.000000,631.000000,13.000000,27.000000,0.000000,0.000000,0.707649,0.761492,0.099994,0.207680,0.515353,644.000000,631.000000,13.000000,27.000000,0.000000,0.000000:
// measure 0
00000000
00000000
00000000
00000000
,  // measure 1
00000000
00000000
00000000
00000000
,  // measure 2
00000000
00000000
00000000
00000000
,  // measure 3
00000000
00000000
00000000
00000000
,  // measure 4
10000000
00000000
00010000
01000000
00010000
00000000
10000000
00000000
00010000
01000000
00010000
00000000
01000000
00100000
01000000
00000000
,  // measure 5
00010000
01000000
00000000
00010000
01000000
00000000
00010000
00100000
00000000
00010000
00100000
00000000
00001000
00000000
00010000
00000000
,  // measure 6
00000100
00001000
00000100
00001000
00000010
00000000
00000100
00000001
00000000
00000100
00000001
00000000
00001000
00000100
00001000
00000000
,  // measure 7
00000010
00000000
00010000
00000000
00001000
00000000
00100000
00000000
00010000
00000000
01000000
00000000
00100000
10000000
00100000
00000000
,  // measure 8
10000000
00000000
01000000
10000000
01000000
00000000
10000000
00000000
00010000
01000000
00010000
00000000
01000000
00000000
00001000
00000000
,  // measure 9
00020000
00000000
00000000
00000000
00030100
00001000
00000100
00000000
00001000
00000001
00001000
00000000
00000100
00001000
00000010
00000000
,  // measure 10
00001000
00000000
00000100
00010000
00000100
00000000
00010000
00000000
00001000
01000000
00001000
00000000
01000000
00000000
00010000
01000000
,  // measure 11
00100000
00000000
01000000
00000000
00010000
00000000
10000000
00000000
00010000
00000000
01000000
00100000
01000000
00000000
00100000
00000000
,  // measure 12
10000000
00000000
01000000
10000000
01000000
00000000
10000000
00000000
00010000
01000000
00010000
00000000
01000000
00000000
00100000
00000000
,  // measure 13
10000000
01000000
00000000
10000000
01000000
00000000
10000000
00100000
00000000
10000000
00100000
00000000
10000000
00100000
01000000
00100000
,  // measure 14
10000000
00000000
00010000
01000000
00010000
00000000
00100000
00010000
00000000
00100000
00010000
00000000
00100000
00001000
00010000
00000000
,  // measure 15
00000100
00000000
00001000
00000000
00000001
00000000
00001000
00000000
00000100
00000000
00000010
00000000
00000001
00000100
00000010
00001000
,  // measure 16
00000200
00000000
00000000
00000000
,  // measure 17
00000000
00000000
00000000
00000000
00000300
00001000
00000000
00000001
,  // measure 18
00000201
00000000
00000010
00000000
00000310
00001000
00000000
00001000
,  // measure 19
00000200
00000000
00010000
00000000
00010300
00001000
00000000
00001000
,  // measure 20
02000000
00000000
00010000
00000000
03010000
00100000
00000000
00100000
,  // measure 21
00002000
00000000
00010000
00000000
00013000
00000010
00001000
00000010
,  // measure 22
00000200
00000000
00000001
00000000
00000301
00000100
00000000
00000100
,  // measure 23
00000020
00000000
00001000
00000000
00001030
00000100
00000000
00000100
,  // measure 24
00020000
00000000
00001000
00000000
00031000
00100000
00000000
00100000
,  // measure 25
00020000
00000000
10000000
00000000
01030000
10000000
00100000
01000000
,  // measure 26
00020000
00100000
00000000
00130000
00000000
00101000
00000000
00100000
,  // measure 27
00002000
00010000
00000000
00010000
00000000
00023000
00000000
00030100
,  // measure 28
00001000
00000020
00000000
00000100
00000000
00000100
00000000
00000130
,  // measure 29
00000001
00000010
00000000
00000001
00000100
00000010
00001000
00000100
,  // measure 30
00000000
00001100
00000000
00000100
00010000
00001000
01000000
00010000
,  // measure 31
00000000
01010000
00000000
00010000
10000000
00100000
01000000
00100000
,  // measure 32
10000000
00000000
10000000
00010000
00000000
01000000
00001000
00010000
,  // measure 33
00000000
00010000
00000100
00001000
00000100
00001000
00000010
00000100
,  // measure 34
00000001
00000000
00000001
00001000
00000000
00001000
00000020
00000100
,  // measure 35
00000000
00000100
00000000
00000130
00000000
00001001
00000000
00000001
,  // measure 36
00000100
00000000
00000001
00000100
00000001
00000000
00001000
00000010
00001000
00000000
00000100
00000000
00010000
00000000
00001000
00000000
,  // measure 37
01000000
00000000
00010000
01000000
00010000
00000000
10000000
00100000
10000000
00000000
00010000
00000000
01000000
00000000
00001000
00000000
,  // measure 38
00010000
00000000
00000100
00001000
00000100
00000000
00001000
00000010
00001000
00000000
00000001
00000000
00001000
00000000
00000100
00000000
,  // measure 39
00010000
00000000
00001000
00100000
00001000
00000000
00100000
00010000
00100000
00000000
00010000
00000000
01000000
00000000
00100000
00000000
,  // measure 40
10000000
00000000
00100000
10000000
00100000
00000000
01000000
00010000
01000000
00000000
00100000
00000000
10000000
00000000
01000000
00000000
,  // measure 41
00100000
00000000
00001000
00100000
00001000
00000000
00010000
00001000
00010000
00000000
00000100
00000000
00001000
00000000
00000010
00000000
,  // measure 42
00000100
00000000
00000001
00001000
00000001
00000000
00001000
00000010
00001000
00000000
00000010
00000000
00001000
00000000
00000100
00000000
,  // measure 43
00010000
00000000
00001000
00100000
00001000
00000000
00100000
00000000
00010000
00000000
01000000
00000000
00100000
00000000
10000000
00000000
,  // measure 44
01000000
00000000
10000000
00100000
10000000
00000000
00100000
01000000
00010000
00000000
01000000
00000000
00001000
00000000
00010000
00000000
,  // measure 45
00000100
00000000
00001000
00000010
00001000
00000000
00000010
00001000
00000100
00000000
00001000
00000000
00000001
00000000
00001000
00000000
,  // measure 46
00000100
00000000
00010000
00001000
00010000
00000000
00000100
00010000
00001000
00000000
00100000
00000000
00010000
00000000
10000000
00000000
,  // measure 47
00100000
00000000
10000000
01000000
10000000
00000000
00010000
01000000
00010000
00000000
00100000
00000000
00001000
00000000
00010000
00000000
,  // measure 48
00000010
00001000
00000100
00000000
00000001
00010000
00000100
00010000
,  // measure 49
00001000
01000000
00010000
00000000
10000000
00100000
01000000
00010000
,  // measure 50
10010000
00000000
10000000
11000000
00000000
00100000
00001000
00010000
,  // measure 51
00000000
00010000
00000010
00001000
00000010
00000100
00000010
00001000
,  // measure 52
00000020
00000000
00010030
00002000
00000000
00100000
00013000
02000000
,  // measure 53
00000000
00100000
00000000
00100000
00000000
00200000
00000000
03300000
,  // measure 54
10000000
01000000
00000000
10000000
01000000
00000000
10000000
00100000
00000000
10000000
00100000
00000000
01000000
00000000
00001000
00000000
,  // measure 55
00010000
00001000
00000000
00010000
00001000
00000000
00010000
00000100
00000000
00010000
00000100
00000000
00001000
00000000
00000001
00000000
,  // measure 56
00000100
00000010
00000000
00001000
00000010
00000000
00000100
00000010
00000000
00001000
00000010
00000000
00001000
00000000
00000100
00000000
,  // measure 57
00010000
00001000
00000000
00010000
00001000
00000000
00100000
00001000
00000000
00100000
00001000
00000000
00100000
00000000
00010000
00000000
,  // measure 58
01000000
00100000
00000000
10000000
00100000
00000000
01000000
00100000
00000000
10000000
00100000
00000000
01000000
00000000
00001000
00000000
,  // measure 59
00010000
00000100
00000000
00010000
00000100
00000000
00010000
00001000
00000000
00010000
00000100
00000000
00001000
00000000
00000001
00000000
,  // measure 60
00000100
00000010
00000000
00001000
00000010
00000000
00000100
00000010
00000000
00001000
00000010
00000000
00001000
00000000
00000100
00000000
,  // measure 61
00010000
00001000
00000000
00010000
00001000
00000000
01000000
00001000
00000000
01000000
00001000
00000000
01000000
00100000
01000000
00000000
,  // measure 62
00010000
00100000
00000000
00010000
00100000
00000000
01000000
10000000
00000000
01000000
10000000
00000000
00100000
00000000
01000000
00000000
,  // measure 63
00001000
00010000
00000000
00001000
00010000
00000000
00000100
00001000
00000000
00000100
00001000
00000000
00000010
00000000
00000100
00000000
,  // measure 64
00000001
00001000
00000000
00000001
00001000
00000000
00000010
00000100
00000000
00000010
00000100
00000000
00000001
00000000
00001000
00000000
,  // measure 65
00000100
00010000
00000000
00000100
00010000
00000000
00001000
01000000
00000000
00001000
01000000
00000000
00100000
00000000
10000000
00000000
,  // measure 66
01000000
00100000
00010000
00000000
00001000
00000010
00000100
00000000
,  // measure 67
00000001
00000100
00000010
00001000
00000100
00010000
00001000
01000000
,  // measure 68
00200000
00000000
10000000
00000000
01300000
00000000
10000000
00010000
,  // measure 69
00200000
00000000
00001000
00000000
00010000
00000000
00301000
00010000
,  // measure 70
00000200
00001000
00000010
00001300
,  // measure 71
00022000
00000000
00033000
10010000
,  // measure 72
10000000
00000000
01000000
10000000
01000000
00000000
10000000
00000000
00010000
01000000
00010000
00000000
01000000
00000000
00001000
00000000
,  // measure 73
00020000
00000000
00000000
00000000
00030100
00001000
00000100
00000000
00001000
00000001
00001000
00000000
00000100
00001000
00000010
00000000
,  // measure 74
00001000
00000000
00000100
00010000
00000100
00000000
00010000
00000000
00001000
01000000
00001000
00000000
01000000
00000000
00010000
01000000
,  // measure 75
00100000
00000000
01000000
00000000
00010000
00000000
10000000
00000000
00010000
00000000
01000000
00100000
01000000
00000000
00100000
00000000
,  // measure 76
10000000
00000000
01000000
10000000
01000000
00000000
10000000
00000000
00010000
01000000
00010000
00000000
01000000
00000000
00100000
00000000
,  // measure 77
10000000
01000000
00000000
10000000
01000000
00000000
10000000
00100000
00000000
10000000
00100000
00000000
10000000
00100000
01000000
00100000
,  // measure 78
10000000
00000000
00010000
01000000
00010000
00000000
00100000
00010000
00000000
00100000
00010000
00000000
00100000
00001000
00010000
00000000
,  // measure 79
00000100
00000000
00001000
00000000
00000001
00000000
00001000
00000000
00000100
00000000
00000010
00000000
00000001
00000010
00000100
00001000
,  // measure 80
00000010
00000000
00001000
00000100
00001000
00000000
00000100
00000000
00010000
00000000
00001000
00000000
01000000
00010000
10000000
00100000
,  // measure 81
00000000
00000000
10100000
00000000
01001000
01001000
00000000
00022000
,  // measure 82
00000000
00000000
00033000
00000000
;
