#TITLE:I Burn;
#SUBTITLE:;
#ARTIST:Jeff Williams and Casey Lee Williams;
#TITLETRANSLIT:;
#SUBTITLETRANSLIT:;
#ARTISTTRANSLIT:;
#GENRE:;
#CREDIT:;
#MENUCOLOR:;
#METERTYPE:DDR;
#BANNER:I Burn.png;
#BACKGROUND:I Burn-bg.png;
#LYRICSPATH:;
#CDTITLE:;
#MUSIC:I Burn.ogg;
#OFFSET:0.022;
#SAMPLESTART:86.702;
#SAMPLELENGTH:13.180;
#SELECTABLE:YES;
#LISTSORT:;
#BPMS:0.000=146.000;
#STOPS:;
#BGCHANGES:0.000=I Burn.avi=1.000=0=0=0,
99999=-nosongbg-=1.000=0=0=0 // don't automatically add -songbackground-
;
#ATTACKS:;

//---------------dance-single - ----------------
#NOTES:
     dance-single:
     :
     Beginner:
     2:
     0.123,0.146,0.042,0.068,0.000:
0000
0000
0000
0000
,
0000
0000
0000
0000
,
0000
0000
0000
0000
,
0000
0000
0000
0000
,
1000
0000
0000
0000
,
1000
0000
0000
0000
,
0001
0000
0000
0000
,
0001
0000
0000
0000
,
1000
0000
0000
0000
,
0001
0000
0000
0000
,
1000
0000
0000
0000
,
0001
0000
0000
0000
,
1000
0000
1000
0000
,
1000
0000
0000
0000
,
0001
0000
0001
0000
,
0001
0000
0000
0000
,
0001
0000
0000
0000
,
0100
0000
0000
0000
,
1000
0000
0001
0000
,
0010
0000
0010
0000
,
0100
0000
0000
0000
,
1001
0000
0000
0000
,
2000
0000
3000
0000
,
0002
0000
0003
0000
,
2000
0000
3000
0000
,
0002
0000
0003
0000
,
2000
0000
3000
0000
,
0002
0000
0003
0000
,
1000
0000
0001
0000
,
1000
0000
0000
0000
,
0010
0000
0000
0000
,
0100
0000
0000
0000
,
0001
0000
1000
0000
,
0001
0000
0000
0000
,
1000
0000
0000
0000
,
1001
0000
0000
0000
,
0001
0000
0010
0000
,
1000
0000
0000
0000
,
0010
0000
0000
0000
,
0001
0000
0000
0000
,
1000
0000
0100
0000
,
0010
0000
0000
0000
,
0001
0000
0000
0000
,
1000
0000
0001
0000
,
1000
0000
0001
0000
,
1000
0000
1000
0000
,
0100
0000
0100
0000
,
1000
0000
0000
0000
,
0001
0000
0100
0000
,
0001
0000
0010
0000
,
0001
0000
0000
0000
,
0110
0000
0000
0000
,
1001
0000
0000
0000
,
0001
0000
0000
0000
,
0100
0000
0100
0000
,
0100
0000
0000
0000
,
0010
0000
0010
0000
,
0010
0000
0000
0000
,
1000
0000
1000
0000
,
1000
0000
0000
0000
,
0001
0000
0001
0000
,
0001
0000
0000
0000
,
0100
0000
0010
0000
,
0200
0000
0300
0000
,
0010
0000
0100
0000
,
0020
0000
0030
0000
,
1000
0000
1000
0000
,
0001
0000
0001
0000
,
0100
0000
0010
0000
,
1001
0000
0000
0000
;

//---------------dance-single - ----------------
#NOTES:
     dance-single:
     :
     Easy:
     4:
     0.284,0.355,0.101,0.439,0.000:
0000
0000
0000
0000
,
0000
0000
0000
0000
,
0000
0000
0000
0000
,
0000
0000
0000
0000
,
0000
1000
0001
1000
,
0000
0001
1000
0001
,
0000
0100
0100
0001
,
2000
3000
0002
0003
,
0000
0010
0010
0100
,
0000
0010
0010
1001
,
0000
0010
0010
0100
,
0002
0003
2000
3000
,
0001
0100
0001
0100
,
1000
0100
1000
0100
,
0001
0010
1000
0010
,
0001
0100
1001
0000
,
0010
1000
0010
1000
,
0010
0001
0010
0001
,
0100
1000
0100
0001
,
0010
0100
2002
0000
,
3003
0000
0000
0010
,
0220
0330
0002
0003
,
2000
3000
0020
0030
,
0200
0000
0300
0001
,
2000
3000
0002
0103
,
0220
0330
0002
0003
,
2000
3000
0020
0030
,
0200
0000
0300
0001
,
2000
3000
0002
0003
,
2002
3003
0010
1000
,
0100
1000
0020
0000
,
0030
0000
0100
0001
,
0010
0001
0200
0000
,
0300
0000
0001
1000
,
0010
0000
0200
0300
,
0001
0000
1000
0000
,
0001
0000
0100
0000
,
1001
0000
0001
0000
,
0100
0000
1000
0000
,
0100
0000
0001
0000
,
1000
0001
1000
0000
,
0001
0000
0100
0000
,
1000
0100
1000
0000
,
0100
0001
0100
0000
,
1000
0001
1000
0000
,
0010
0000
0001
0000
,
0100
1000
0100
0000
,
0010
0000
1000
0000
,
0100
0001
0100
0000
,
0010
0001
0100
0000
,
0010
1000
0100
0000
,
0001
0100
0001
0000
,
1000
0000
0000
0010
,
0220
0330
0002
0003
,
0020
0030
0200
0300
,
2000
0000
0000
3001
,
0200
0000
0310
1000
,
2002
3003
0020
0030
,
0200
0300
0002
0003
,
2000
0000
0000
3001
,
0200
0000
0310
1000
,
2002
3003
0001
0100
,
0001
0000
1000
0100
,
1000
0000
0010
0000
,
0002
0000
0103
0010
,
2002
3003
0010
1000
,
0200
0300
1000
0001
,
0020
0030
0002
0003
,
0200
0300
1000
0001
,
2002
0000
0000
0000
,
3003
0000
0000
0000
;

//---------------dance-single - ----------------
#NOTES:
     dance-single:
     :
     Medium:
     7:
     0.389,0.444,0.313,0.431,0.000:
0000
0000
0000
0000
,
0000
0000
0000
0000
,
0000
0000
0000
0000
,
0000
0000
0000
0000
,
1001
0100
0002
1003
,
1001
0100
2000
3001
,
1001
0010
0100
0001
,
2000
0000
3001
1000
0002
0000
0003
0000
,
1001
0010
0010
0100
,
1001
0100
0100
0010
,
1001
0010
1000
0100
,
0002
0000
1003
0001
2000
0000
3001
0000
,
0100
0000
0100
0000
0001
0100
0001
0000
,
1000
0000
1000
0000
0001
1000
0001
0000
,
1000
0100
0010
0001
,
0100
0010
1001
0000
,
0010
0000
1000
0000
0010
1000
0010
0000
,
0100
0000
0001
0000
0100
0001
0100
0000
,
0010
1000
0100
0001
,
0100
1000
0020
0100
,
0130
0000
0000
0010
,
0220
0000
0330
0000
0001
0000
1000
0001
,
2000
0000
3000
0000
0010
0000
0001
1000
,
0002
0003
1000
0001
,
0100
0110
0001
1000
,
2002
0000
3003
0000
0020
0000
1030
0001
,
2000
0000
3000
0000
0200
0000
1300
0001
,
2000
0000
3000
0000
0001
0000
0100
0010
,
0100
1001
0010
1001
,
1001
0000
0000
0000
0010
0100
0010
0000
,
1000
0001
2002
0000
,
3003
0000
0000
0000
1000
0001
1000
0000
,
0010
0100
0220
0000
,
0330
0000
0001
0100
,
1000
0010
0220
0330
,
0001
0100
1000
0100
,
0001
0010
0100
1000
,
1001
0000
0001
1000
,
0010
0000
1000
0001
,
0010
0000
0001
0010
,
1000
0001
1000
0001
,
1000
0000
0100
0001
,
1000
0000
0100
1000
,
0001
0000
0100
0010
,
1000
0001
1000
0001
,
0010
0000
1001
0010
,
0100
0000
1001
0100
,
0010
0000
1000
0100
,
0001
0100
1000
0010
,
1001
0000
0100
0001
,
1001
0000
0100
1000
,
1001
0000
0010
1000
,
1001
0000
0100
0010
,
0220
0330
0001
0100
,
2002
3003
1000
0100
,
2002
3003
0010
0001
,
0220
0330
1000
0100
,
0220
0000
0330
0000
0001
0000
0100
0001
,
0200
0000
0300
0000
0001
0000
1000
0100
,
2000
0000
3000
0000
0001
0000
0100
0010
,
0200
0302
0013
1000
,
2002
0000
3003
0000
0110
0000
0001
0100
,
0002
0000
0003
0000
0110
0000
1000
0100
,
2000
3000
0110
0001
,
2002
3003
0100
0010
,
0220
0330
0001
1000
,
2200
3300
1000
0001
,
0202
0303
0010
1000
,
0100
0001
0010
0100
,
2002
0000
0000
0000
,
3003
0000
0000
0000
;

//---------------dance-single - ----------------
#NOTES:
     dance-single:
     :
     Hard:
     10:
     0.505,0.473,0.431,0.211,0.068: // measure 1
0000
0000
0000
0000
,  // measure 2
0000
0000
0000
0000
,  // measure 3
0000
0000
0000
0000
,  // measure 4
0000
0000
0000
0000
,  // measure 5
0110
0000
0001
0100
0001
0000
1001
0000
,  // measure 6
0110
0000
1000
0100
1000
0000
0110
0000
,  // measure 7
1001
0000
0110
0000
0001
1000
0100
0000
,  // measure 8
1000
0001
1000
0001
1000
0000
0010
0000
,  // measure 9
1001
0000
1000
0010
1000
0000
0110
0000
,  // measure 10
1001
0000
0001
0010
0001
0000
1001
0000
,  // measure 11
0110
0000
1001
0000
0001
1000
0100
0000
,  // measure 12
0001
1000
0001
1000
0001
0000
0100
0000
,  // measure 13
0010
0000
0000
1000
0100
0000
0000
0000
1000
0000
0001
0000
0100
0000
0000
0000
,  // measure 14
0010
0000
0000
0001
0100
0000
0000
0000
0001
0000
1000
0000
0100
0000
0000
0000
,  // measure 15
0010
1000
0010
1000
0010
0000
0100
0001
,  // measure 16
0010
0101
1100
0101
,  // measure 17
0010
0000
0000
1000
0010
0000
0000
0000
0100
0000
0001
0000
1000
0000
0000
0000
,  // measure 18
0010
0000
0000
0100
0001
0000
0000
0000
1000
0000
0001
0000
1000
0000
0000
0000
,  // measure 19
0001
0100
0010
0000
1001
0000
0110
0000
,  // measure 20
1000
0010
0100
0000
1001
0000
0110
0000
,  // measure 21
2002
0000
3003
0010
,  // measure 22
0220
0000
0330
0000
0001
0100
0010
0000
,  // measure 23
1000
0001
0100
0000
0001
1000
0100
0000
,  // measure 24
0010
0000
0000
0010
0000
0000
0010
0000
1000
0000
0001
0000
1000
0000
0000
0000
,  // measure 25
0001
0100
0010
0000
1000
0000
0010
0000
,  // measure 26
0220
0000
0330
0000
1000
0010
0100
0000
,  // measure 27
0001
1000
0010
0000
1000
0001
0010
0000
,  // measure 28
0100
0000
0000
0100
0000
0000
0100
0000
0001
0000
1000
0000
0010
0000
0000
0000
,  // measure 29
1000
0001
1000
0001
0000
0010
0100
0010
,  // measure 30
0200
0000
0301
0000
1000
0010
0100
0000
,  // measure 31
1001
1100
0202
0303
,  // measure 32
1000
0001
1000
0000
0001
1000
0001
0000
,  // measure 33
0101
1100
0220
0330
,  // measure 34
0001
0100
0010
0000
1000
0001
1000
0000
,  // measure 35
0010
0000
0110
0000
1001
0000
0000
1000
,  // measure 36
0001
0000
0000
0001
0000
0000
0001
0000
1000
0000
0000
1000
0000
0000
1000
0000
,  // measure 37
0010
0000
0000
0010
0000
0000
0010
0000
0100
0000
0000
0100
0000
0000
0200
0000
,  // measure 38
0020
0000
0330
0000
0001
1000
0010
0000
,  // measure 39
1000
0000
1001
0000
1000
0001
0010
0000
,  // measure 40
0001
0000
0110
0000
1000
0010
0100
0000
,  // measure 41
1000
0000
0110
0000
0001
0100
0010
0000
,  // measure 42
1000
0001
1000
0000
0010
0010
0010
0000
,  // measure 43
0001
1000
0001
0000
0100
0100
0100
0000
,  // measure 44
0001
0100
0010
0000
1000
1000
0001
0000
,  // measure 45
1000
0010
0100
0000
0001
0001
1000
0000
,  // measure 46
0101
0000
1100
0000
0001
0100
0010
0000
,  // measure 47
1100
0000
0101
0000
1000
0100
0010
0000
,  // measure 48
0110
0000
1001
0000
0010
0100
0001
0000
,  // measure 49
1001
0000
0110
0000
1000
0010
0100
0000
,  // measure 50
0001
0100
0010
0000
1000
1000
0001
0000
,  // measure 51
1000
0010
0100
0000
0001
0001
1000
0000
,  // measure 52
0001
0100
0010
1000
0001
1000
0001
0000
,  // measure 53
2002
0000
3003
0100
,  // measure 54
0220
0000
0330
0000
0100
0001
1000
0000
,  // measure 55
0010
0010
0010
0000
1000
0001
0100
0000
,  // measure 56
0010
0000
0000
0010
0000
0000
1000
0000
0001
0000
0001
0000
0100
0000
0000
0000
,  // measure 57
0010
0000
0000
0010
0000
0000
0001
0000
1000
0000
1000
0000
0100
0000
0000
0000
,  // measure 58
0220
0000
0330
0000
0001
0010
0100
0000
,  // measure 59
1000
0001
0100
0001
1000
0001
1000
0000
,  // measure 60
0100
0000
0000
0100
0000
0000
0001
0000
1000
0000
0001
0000
0100
0000
0000
0000
,  // measure 61
0010
0000
0000
0010
0000
0000
1000
0000
0001
0000
1000
0000
0100
0000
0000
0000
,  // measure 62
2200
0000
3300
0000
0001
0100
0010
0000
,  // measure 63
0101
0000
1100
0000
0100
0010
1000
0000
,  // measure 64
0001
0000
0000
0001
0000
0000
1000
0000
0010
0000
0100
0000
0001
0000
0000
0000
,  // measure 65
1000
0000
0000
1000
0000
0000
0001
0000
0100
0000
0010
0000
1000
0000
0000
0000
,  // measure 66
2002
0000
3003
0000
0010
0100
0010
0000
,  // measure 67
1100
0000
0101
0000
0010
0001
0100
0000
,  // measure 68
0010
0010
0010
0000
1000
0001
0100
0000
,  // measure 69
0010
1000
0100
0001
,  // measure 70
2002
0000
0000
0000
,  // measure 71
3003
0000
0000
0000
;
