#TITLE:Hands Up Feat. Kradness;
#SUBTITLE:;
#ARTIST:The 4th (kors k vs. Ryu☆);
#TITLETRANSLIT:;
#SUBTITLETRANSLIT:;
#ARTISTTRANSLIT:The 4th (kors k vs. Ryu);
#GENRE:;
#CREDIT:;
#MENUCOLOR:;
#METERTYPE:DDR;
#BANNER:Hands Up Feat. Kradness.png;
#BACKGROUND:Hands Up Feat. Kradness-bg.png;
#LYRICSPATH:;
#CDTITLE:;
#MUSIC:Hands Up Feat. Kradness.ogg;
#OFFSET:0.000;
#SAMPLESTART:55.001;
#SAMPLELENGTH:24.000;
#SELECTABLE:YES;
#LISTSORT:;
#BPMS:0.000=170.000;
#STOPS:;
#BGCHANGES:;
#ATTACKS:;

//---------------dance-double - ----------------
#NOTES:
     dance-double:
     :
     Hard:
     12:
     0.610,0.707,0.925,0.450,0.104:
00000000
00000000
00000000
00000000
,
00000000
00000000
00000000
00000000
,
00000000
00000000
00000000
00000000
,
00000000
00000000
00000000
00000000
,
00000000
00000000
00000000
00000000
,
00000000
00000000
00000000
00000000
,
00000000
00000000
00000000
00000000
,
00000000
00000000
10010000
01100000
,
20020000
00000000
30030000
00000000
00011000
00000000
00000000
00002002
,
00000000
00003003
00000001
00001000
,
00000010
00000000
00000000
00000000
00001000
00000000
00000000
00000000
00000100
00000000
00000000
00010000
00000000
00000000
00022000
00000000
,
00000000
00033000
00110000
11000000
,
00110000
00000000
00000000
00000000
01100000
00000000
00000000
00022000
,
00000000
00033000
00010100
00000000
00001100
00000000
00001001
00000000
,
00000110
00000000
00000000
00000000
00001010
00000000
00000000
00000000
00001000
00000000
00000000
00000100
00000000
00000000
00020000
00000000
,
00000000
00000000
00000000
00000000
00030000
00000000
00001000
00100000
,
00020000
00000000
00000000
00000000
01030000
00000000
00000000
00000000
00100000
00000000
00000000
00100000
00000000
00000000
00100000
00000000
,
00000000
10000000
01000000
00000000
10010000
00000000
01010000
00000000
,
10010000
00000000
00000000
00000000
01100000
00000000
00000000
00000000
10010000
00000000
00000000
00010000
00000000
00000000
00010000
00000000
,
00000000
01000000
00000000
00001000
00010000
00001000
00010000
00000000
,
00000200
00000000
00000000
00000000
00000300
00000000
00000000
00000000
00001000
00000000
00000000
00001000
00000000
00000000
00001000
00000000
,
00000000
00001000
00000010
00000000
00000110
00000000
00001001
00000000
,
00001100
00000000
00000011
00000000
00001100
00000000
00000100
00020000
,
00000000
00000000
00000000
00031000
,
00110000
00000000
10010000
00000000
02000000
00000000
03100000
20000000
,
00000000
00000000
30010000
00000000
00200000
00000000
00301000
00020000
,
00000000
00000000
00030100
00000000
00002000
00000000
00003010
00000200
,
00000000
00000001
00001300
00000110
,
00001001
00000000
00000010
00000000
00002000
00000000
00003001
00000200
,
00000000
00000000
00000310
00000000
00001000
00000000
00000100
00020000
,
00000000
00000000
00031000
00000000
00110000
00000000
00010000
02000000
,
00000000
00100000
00100000
03100000
,
11000000
00000000
00100000
00000000
20020000
30030000
00100000
01000000
,
01010000
00000000
00100000
00000000
00220000
00330000
00100000
00001000
,
00011000
00000000
00010000
00000000
00020200
00030300
00001000
00000020
,
00000200
00000300
00000100
00000000
00000100
00000000
00000130
00000000
,
00001001
00000000
00001100
00000000
00000101
00000000
00001000
00000100
,
00001100
00000000
00000100
00000000
00010100
00000000
00010000
00001000
,
00011000
00001000
00110000
00010000
,
11000000
11000000
11000000
01100000
,
10010000
00000000
00000000
00000000
01100000
00000000
00000000
00000000
10000000
00000000
00000000
00010000
10000000
00000000
00010000
00000000
,
01000000
00000000
00000000
00000000
01010000
00000000
00000000
00000000
00100000
00000000
00000000
00001000
00000000
00000000
00010000
00000000
,
00011000
00000000
00000000
00000000
00010100
00000000
00000000
00000000
00001000
00000000
00000000
00000100
00001000
00000000
00000100
00000000
,
00001000
00000000
00000010
00000000
00000001
00000100
00000001
00001000
,
00000001
00000000
00000000
00000000
00000110
00000000
00000000
00000000
00001001
00000000
00000000
00000001
00001000
00000000
00000100
00000000
,
00000000
00000000
00001000
00000000
00001001
00000000
00000000
00000000
00001100
00000000
00000000
00000100
00000000
00000000
00010000
00000000
,
00000100
00000000
00000000
00000000
00011000
00000000
00000000
00000000
00001000
00000000
00000000
01000000
00001000
00000000
01000000
00000000
,
00000000
00010000
00100000
00000000
11000000
00000000
00110000
00000000
,
10000000
00000000
00100000
00000000
00010000
00000000
00000000
00000000
10000000
00000000
00100000
01000000
00100000
00000000
10000000
00000000
,
00000000
00000000
00010000
00000000
00100000
00000000
00001000
00000000
00010000
00000000
00000000
00010000
00000000
00000000
00010000
00000000
,
00000010
00000000
00000000
00000000
00001100
00000000
00000000
00000000
00000001
00000000
00000100
00000001
00000100
00000000
00000010
00000000
,
00000000
00001000
00000100
00000000
00001100
00000000
00011000
00000000
,
00110000
00000000
00000000
00000000
10010000
00000000
00000000
00000000
01000000
00000000
00100000
01000000
00100000
00000000
01000000
00000000
,
00000000
00000000
00010000
00000000
10010000
00000000
00000000
00000000
01100000
00000000
00000000
01000000
00000000
00000000
01000000
00000000
,
00020000
00000000
00000000
00000000
00030000
00000000
00000000
00000000
00110000
00000000
00000000
00001000
00000000
00000000
00010000
00000000
,
00002000
00010000
00010000
00013000
,
00011000
00000000
00000010
00000000
00000220
00000330
00000001
00000100
,
00001000
00000000
00000100
00000000
00000220
00000330
00001000
00000100
,
00010000
00000000
00011000
00000000
01010000
00000000
00100000
20020000
,
30000000
00000000
00000000
00000000
01000000
00000000
00000000
00000000
10000000
00000000
00000000
10000000
00000000
00000000
10030000
00000000
,
10010000
00000000
11000000
00000000
02200000
03300000
10000000
01000000
,
00010000
00000000
00100000
00000000
02200000
03300000
00100000
00001000
,
00010000
00000000
00011000
00000000
00001010
00000000
00000001
00002001
,
00000000
00000010
00000100
00000100
,
00003001
00000000
00000110
00000000
00001010
00000000
00000100
00010000
,
00001000
00000000
00011000
00000000
00110000
00000000
00010000
01000000
,
00100000
00000000
10100000
00000000
01010000
00000000
10000000
00100000
,
01000000
10010000
01100000
10010000
,
01100000
00000000
10100000
00000000
01010000
00000000
01000000
00001000
,
00010000
00000000
00011000
00000000
00001100
00000000
00001000
00000010
,
00000100
00000000
00001001
00000000
00000110
00000000
00000001
00002000
,
00000100
00000100
00000100
00003100
,
00001001
00000000
00000010
00000000
00000200
00000000
00001300
00002000
,
00000000
00000000
00003100
00000000
00020000
00000000
00031000
00002000
,
00000000
00000000
00203000
00000000
00310000
00000000
01000000
00100000
,
00200000
10000000
01000000
00310000
,
10010000
00000000
01100000
00000000
10010000
00000000
10000000
01000000
,
00010000
00000000
00110000
00000000
00011000
00000000
00010000
00000100
,
00001000
00001100
00000011
00001001
,
00000001
00000100
00000001
00000100
00000001
00000100
00000001
00001000
00000001
00001000
00000000
00000000
,
00002002
00000000
00000000
00000000
,
00000000
00000000
00000000
00003003
;

//---------------dance-single - ----------------
#NOTES:
     dance-single:
     :
     Hard:
     12:
     0.613,0.707,0.977,0.467,0.104: // measure 1
0000
0000
0000
0000
,  // measure 2
0000
0000
0000
0000
,  // measure 3
0000
0000
0000
0000
,  // measure 4
0000
0000
0000
0000
,  // measure 5
0000
0000
0000
0000
,  // measure 6
0000
0000
0000
0000
,  // measure 7
0000
0000
0000
0000
,  // measure 8
0000
0000
1001
0110
,  // measure 9
2002
0000
3003
0000
0110
0000
0000
2002
,  // measure 10
0000
3003
0010
0100
,  // measure 11
1001
0000
0000
0000
0110
0000
0000
0000
0001
0000
0000
0001
0000
0000
2002
0000
,  // measure 12
0000
3003
0011
1100
,  // measure 13
0011
0000
0000
0000
0110
0000
0000
2002
,  // measure 14
0000
3003
0110
0000
1100
0000
0011
0000
,  // measure 15
1001
0000
0000
0000
0110
0000
0000
0000
1000
0000
0000
0010
0000
0000
0200
0000
,  // measure 16
0000
0000
0000
0000
0300
0000
0100
0010
,  // measure 17
2000
0000
0000
0000
3001
0000
0000
0000
0010
0000
0000
0010
0000
0000
0010
0000
,  // measure 18
0000
0001
1000
0000
1001
0000
0101
0000
,  // measure 19
1001
0000
0000
0000
0110
0000
0000
0000
1001
0000
0000
0001
0000
0000
0001
0000
,  // measure 20
0000
0100
0000
0001
1000
0001
1000
0000
,  // measure 21
0200
0000
0000
0000
0300
0000
0000
0000
1000
0000
0000
1000
0000
0000
1000
0000
,  // measure 22
0000
1000
0010
0000
0110
0000
1001
0000
,  // measure 23
1100
0000
0011
0000
1100
0000
0001
0200
,  // measure 24
0000
0000
0300
1001
,  // measure 25
0110
0000
1001
0000
0200
0000
0310
2000
,  // measure 26
0000
0000
3001
0000
0200
0000
0310
0020
,  // measure 27
0000
0030
1001
0000
0200
0000
0310
0020
,  // measure 28
0000
1030
1001
0110
,  // measure 29
1001
0000
0010
0000
0002
0000
0103
0200
,  // measure 30
0000
0000
0310
0000
0002
0000
0103
0200
,  // measure 31
0000
0000
0310
0000
1001
0000
0001
0200
,  // measure 32
0000
0010
0010
0310
,  // measure 33
1100
0000
0010
0000
2002
3003
0010
0100
,  // measure 34
0101
0000
0010
0000
2002
3003
0010
1000
,  // measure 35
1001
0000
0100
0000
0220
0330
1000
0020
,  // measure 36
0100
0100
0100
0130
,  // measure 37
1001
1100
0101
1100
,  // measure 38
1001
0011
1010
0011
,  // measure 39
0110
1001
0110
1001
,  // measure 40
1100
1100
1100
1001
,  // measure 41
0110
0000
0000
0000
1001
0000
0000
0000
1000
0000
0000
0001
1000
0000
0001
0000
,  // measure 42
0100
0000
0000
0000
0101
0000
0000
0000
0010
0000
0000
0001
0000
0000
1000
0000
,  // measure 43
1000
0000
0000
0000
0100
0000
0000
0000
1000
0000
0000
0100
1000
0000
0100
0000
,  // measure 44
1000
0000
0010
0000
0001
0100
0001
1000
,  // measure 45
0001
0000
0000
0000
0110
0000
0000
0000
1001
0000
0000
0001
1000
0000
0100
0000
,  // measure 46
0000
0000
1000
0000
1001
0000
0000
0000
1100
0000
0000
0100
0000
0000
1000
0000
,  // measure 47
0001
0000
0000
0000
1001
0000
0000
0000
0100
0000
0000
0100
0000
0000
0100
0000
,  // measure 48
0000
0001
0010
0000
1100
0000
0011
0000
,  // measure 49
1000
0000
0010
0000
0001
0000
0000
0000
1000
0000
0010
0100
0010
0000
1000
0000
,  // measure 50
0000
0000
0001
0000
0010
0000
0000
0000
0001
0000
0000
0001
0000
0000
0001
0000
,  // measure 51
1000
0000
0000
0000
1100
0000
0000
0000
0001
0000
0100
0001
0100
0000
0010
0000
,  // measure 52
0000
1000
0100
0000
1100
0000
1001
0000
,  // measure 53
0011
0000
0000
0000
1001
0000
0000
0000
0100
0000
0010
0100
0010
0000
0100
0000
,  // measure 54
0000
0000
0001
0000
1001
0000
0000
0000
0110
0000
0000
0100
0000
0000
0100
0000
,  // measure 55
0002
0000
0000
0000
0003
0000
0000
0000
0011
0000
0000
0001
0000
0000
0001
0000
,  // measure 56
2000
0001
0001
3001
,  // measure 57
1001
0000
0110
0000
2200
3300
0001
0010
,  // measure 58
0100
0000
1001
0000
0110
0000
1000
0100
,  // measure 59
0001
0000
1001
0000
0101
0000
0010
2002
,  // measure 60
3000
0000
0000
0000
0100
0000
0000
0000
1000
0000
0000
1000
0000
0000
1003
0000
,  // measure 61
1001
0000
1100
0000
0220
0330
1000
0100
,  // measure 62
0001
0000
0010
0000
0220
0330
0010
0100
,  // measure 63
0001
0000
1001
0000
1001
0000
1000
2001
,  // measure 64
0000
0010
0100
3100
,  // measure 65
0001
0000
0110
0000
1010
0000
0100
0002
,  // measure 66
0000
1003
0001
0000
0011
0000
0001
0200
,  // measure 67
0000
0310
1000
0000
0101
0000
1000
0010
,  // measure 68
0100
1001
0110
1001
,  // measure 69
0110
0000
1010
0000
0101
0000
0100
2000
,  // measure 70
0000
0000
3001
0000
0110
0000
0001
2000
,  // measure 71
0000
0000
3001
0000
0110
0000
0001
2000
,  // measure 72
0100
0100
0100
3100
,  // measure 73
1001
0000
0010
0000
0200
0000
1300
2000
,  // measure 74
0000
0000
3001
0000
0002
0000
0103
0200
,  // measure 75
0000
0000
0320
0000
0031
0000
0100
0010
,  // measure 76
0020
1000
0100
0031
,  // measure 77
1001
0000
0110
0000
1001
0000
1000
0100
,  // measure 78
0001
0000
0011
0000
1001
0000
0001
0100
,  // measure 79
0001
0110
1001
0110
,  // measure 80
1000
0001
1000
0001
1000
0001
1000
0010
1000
0010
0000
0000
,  // measure 81
2002
0000
0000
0000
,  // measure 82
0000
0000
0000
3003
;

//---------------dance-single - ----------------
#NOTES:
     dance-single:
     :
     Beginner:
     4:
     0.228,0.283,0.147,0.156,0.000:
0000
0000
0000
0000
,
0000
0000
0000
0000
,
0000
0000
0000
0000
,
0000
0000
0000
0000
,
0000
0000
0000
0000
,
0000
0000
0000
0000
,
0000
0000
0000
0000
,
0000
0000
0000
0000
,
0001
0000
0001
0000
,
0002
0000
0003
0000
,
1000
0000
1000
0000
,
2000
0000
3000
0000
,
0010
0000
0010
0000
,
0020
0000
0030
0000
,
0100
0000
0100
0000
,
0200
0000
0300
0000
,
0001
0000
1000
0000
,
0002
0000
0003
0000
,
1000
0000
0001
0000
,
2000
0000
3000
0000
,
0010
0000
0010
0000
,
0020
0000
0030
0000
,
0100
0000
0100
0000
,
0200
0000
0300
0000
,
0000
0001
0001
0000
,
0000
1000
1000
0000
,
0000
0001
0001
0000
,
0200
0000
0300
0000
,
0000
1000
1000
0000
,
0000
0001
0001
0000
,
0000
0100
0100
0000
,
0020
0000
0030
0000
,
1001
0000
0000
0000
,
0110
0000
0000
0000
,
1001
0000
0000
0000
,
0110
0000
0000
0000
,
1000
0000
1000
0000
,
0001
0000
0001
0000
,
0100
0000
0100
0000
,
0020
0000
0030
0000
,
1000
0000
1000
1000
,
1000
0000
0100
0100
,
0100
0000
0001
0001
,
0001
0000
1001
0000
,
0001
0000
0001
0001
,
0001
0000
0010
0010
,
0010
0000
1000
1000
,
1000
0000
1001
0000
,
0010
0000
0100
0100
,
0100
0000
0001
0001
,
0001
0000
1000
1000
,
1000
0000
0110
0000
,
1001
0000
1000
1000
,
1000
0000
0001
0001
,
0001
0000
0010
0010
,
0010
0000
1001
0000
,
0010
0000
0100
0100
,
0100
0000
0001
0001
,
0001
0000
1000
1000
,
1000
0000
1001
0000
,
1001
0000
0001
0001
,
0001
0000
1000
1000
,
1000
0000
0010
0010
,
0010
0000
1001
0000
,
0100
0000
0010
0010
,
0010
0000
1000
1000
,
1000
0000
0100
0100
,
0100
0000
1001
0000
,
1001
0000
0001
0001
,
0001
0000
0010
0010
,
0010
0000
0100
0000
,
2002
0000
3003
0000
,
0000
0010
0010
0000
,
0000
1000
1000
0000
,
0000
0100
0100
0000
,
0002
0000
0000
0003
,
0000
0010
0010
0000
,
0000
1000
1000
0000
,
0000
0100
0100
0000
,
2002
0000
3003
0000
,
2002
0000
0000
0000
,
0000
0000
0000
3003
;

//---------------dance-double - ----------------
#NOTES:
     dance-double:
     :
     Medium:
     8:
     0.457,0.636,0.484,0.484,0.000:
00000000
00000000
00000000
00000000
,
00000000
00000000
00000000
00000000
,
00000000
00000000
00000000
00000000
,
00000000
00000000
00000000
00000000
,
00000000
00000000
00000000
00000000
,
00000000
00000000
00000000
00000000
,
00000000
00000000
00000000
00000000
,
00000000
00000000
00100000
00010000
,
00011000
00000000
00000000
00000000
00000110
00000000
00000000
00001001
,
00000000
00000000
00000001
00000010
,
00000100
00000000
00001000
00000000
00010000
00000000
00001000
00010000
,
00000000
00000000
00110000
01100000
,
10010000
00000000
00000000
00000000
11000000
00000000
00000000
00110000
,
00000000
00011000
00011000
00010000
,
00000100
00000000
00001000
00000000
00000010
00000000
00000100
00000020
,
00000000
00000000
00000030
00001001
,
00002200
00000000
00003300
00000000
00000110
00000000
00000000
00002002
,
00000000
00003003
00000010
00000100
,
00010000
00000000
00001000
00000000
01000000
00000000
00010000
20000000
,
00000000
30000000
01100000
10010000
,
02200000
00000000
03300000
00000000
20020000
00000000
30030000
10010000
,
00000000
01000000
00001000
00010000
,
00000100
00000000
00001000
00000000
00000010
00000000
00001000
00000200
,
00000000
00000000
00000000
00000300
,
00000000
00000000
00001000
00000000
00000100
00000000
00000000
00010000
,
00000000
00000000
00001000
00000000
00010000
00000000
00000000
00100000
,
00000000
00000000
00010000
00000000
01000000
00000000
00010000
02000000
,
00000000
00010000
00000000
03010000
,
00000000
00000000
00100000
00000000
00001000
00000000
00000000
00010000
,
00000000
00000000
00000100
00000000
00001000
00000000
00000000
00000010
,
00000000
00000000
00000001
00000000
00000100
00000000
00001000
00000200
,
00000000
00000000
00010000
00010300
,
00022000
00000000
00033000
00000000
00100000
00000000
00010000
01000000
,
02020000
00000000
03030000
00000000
10000000
00000000
00100000
01000000
,
02200000
00000000
03300000
00000000
00010000
00000000
00100000
00010000
,
00220000
00330000
00022000
00033000
,
00002200
00003300
00000202
00000303
,
00002200
00003300
00022000
00033000
,
00220000
00330000
22000000
33000000
,
01100000
00000000
00000000
00000000
20020000
00000000
00000000
30030000
,
10000000
00000000
10000000
00000000
00010000
00000000
00010000
00100000
,
00010000
00100000
00001000
00010000
,
00000010
00000000
00000010
00000000
00001000
00000000
00000010
00001000
,
00000010
00000010
00000001
00000101
,
00000100
00000000
00000100
00000000
00001000
00000000
00000010
00001000
,
00000010
00000010
00001100
00001000
,
00011000
00000000
00010000
00000000
00110000
00000000
00100000
00010000
,
01000000
00000000
01100000
10010000
,
10000000
00000000
01000000
00000000
00010000
01000000
00010000
00000000
,
00100000
00100000
00100000
00000000
00001000
00000000
00011000
00000000
,
00010000
00000000
00010100
00000000
00000100
00000100
00000100
00000000
,
00001000
00000010
00001000
00000000
00000101
00000000
00001001
00000000
,
00000101
00000000
00000010
00000000
00001000
00000100
00001000
00000000
,
00000100
00000100
00000100
00000000
00001100
00000000
00011000
00000000
,
00101000
00000000
00100000
00000000
00010000
00100000
00010000
00000000
,
02020000
00000000
00000000
03030000
,
00100000
00000000
10000000
00000000
10010000
00000000
01000000
00100000
,
01000000
00000000
00100000
00000000
00110000
00000000
00100000
00001000
,
00100000
00000000
00010000
00000000
00011000
00000000
00010000
00000100
,
00010000
00010000
00000010
00000010
,
00000100
00000000
00000100
00000000
00001001
00000000
00000001
00000100
,
00000001
00000000
00000100
00000000
00000101
00000000
00000001
00000100
,
00000001
00000000
00001000
00000000
00000100
00000000
00001000
00000100
,
00020000
00001000
00001000
00031000
,
00002000
00103000
00020000
01030000
,
00200000
10300000
02000000
03100000
,
02000000
03010000
02000000
03001000
,
00010000
00010100
00010000
00010100
,
00002000
00003010
00000200
00000301
,
00002000
00003100
00000200
00010300
,
00010000
00001000
00100000
00010000
,
02020000
00000000
00000000
03030000
,
00000000
00000000
00100000
00000000
10000000
00000000
01000000
00010000
,
00000000
00000000
00100000
00000000
00010000
00000000
01000000
10000000
,
00000000
00000000
00100000
00000000
00010000
00000000
00001000
00020000
,
00000000
00000000
00000000
00030000
,
00000000
00000000
00000010
00000000
00001000
00000000
00000100
00000001
,
00000000
00000000
00000010
00000000
00000001
00000000
00000100
00001000
,
00000000
00000010
00000100
00001000
,
00020000
00000000
00000000
00030000
,
00022000
00000000
00000000
00000000
,
00000000
00000000
00000000
00033000
;

//---------------dance-double - ----------------
#NOTES:
     dance-double:
     :
     Easy:
     5:
     0.345,0.353,0.320,0.424,0.000:
00000000
00000000
00000000
00000000
,
00000000
00000000
00000000
00000000
,
00000000
00000000
00000000
00000000
,
00000000
00000000
00000000
00000000
,
00000000
00000000
00000000
00000000
,
00000000
00000000
00000000
00000000
,
00000000
00000000
00000000
00000000
,
00000000
00000000
00100000
00100000
,
20020000
00000000
00000000
30030000
,
02000000
00000000
00000000
03000000
,
00020000
00030000
00000200
00000300
,
00020000
00030000
00002000
00003000
,
00000020
00000000
00000030
00000000
,
00000200
00000000
00000300
00000000
,
00000002
00000003
00002000
00003000
,
00000200
00000000
00000000
00000300
,
00002000
00003000
00020000
00030000
,
02000000
03000000
20000000
30000000
,
02000000
03000000
00020000
00030000
,
00002000
00003000
00000200
00000300
,
00000002
00000003
00000020
00000030
,
00001000
00000100
00001001
00000000
,
00000010
00000100
00001000
00010000
,
00022000
00000000
00000000
00033000
,
00000000
00100000
00010000
10010000
,
00000000
00100000
10000000
10010000
,
00000000
00100000
01000000
10000000
,
20020000
00000000
00000000
30030000
,
00000000
00100000
00001000
00010000
,
00000000
00001000
00010000
00000010
,
00000000
00000010
00000100
00001000
,
00002002
00000000
00000000
00003003
,
00000010
00000000
00001000
00000100
,
00001100
00000000
00010000
00001000
,
00011000
00000000
00100000
00010000
,
01010000
00000000
10010000
00000000
,
11000000
00000000
00110000
00000000
,
00001100
00000000
00000011
00000000
,
00001100
00000000
00011000
00000000
,
00100000
00100000
00200000
00300000
,
10000000
01000000
10000000
01000000
,
00010000
01000000
00010000
00001000
,
00000100
00001000
00000100
00001000
,
00000001
00000100
00000001
00000100
,
00001000
00000010
00001000
00000010
,
00010000
00000010
00010000
00001000
,
00100000
00001000
00100000
00010000
,
00100000
00100000
00100000
10010000
,
01000000
10000000
01000000
10000000
,
00010000
01000000
00010000
01000000
,
00010000
00001000
00010000
00001000
,
00000010
00000001
00000010
00000001
,
00000100
00001000
00000100
00000001
,
00000100
00001000
00010000
00100000
,
10000000
00100000
00010000
00100000
,
20020000
00000000
00000000
30030000
,
00000000
10000000
00010000
10010000
,
00000000
00010000
00001000
00011000
,
00000000
00001000
00000001
00001001
,
00002002
00000000
00000000
00003003
,
00000000
00000010
00000100
00000110
,
00000000
00001000
00010000
00011000
,
00000000
01000000
00100000
01100000
,
20020000
00000000
00000000
30030000
,
00000000
00100000
00100000
10010000
,
00000000
00010000
00010000
00011000
,
00000000
00000100
00000100
00001001
,
00000220
00000000
00000000
00000330
,
00000000
00000001
00000001
00001001
,
00000000
00001000
00001000
00011000
,
00000000
00010000
00010000
10010000
,
02200000
00000000
00000000
03300000
,
00000000
10000000
01000000
00020000
,
00030000
00001000
00000100
00000002
,
00000003
00000010
00001000
00020000
,
00002000
00000000
00000000
00033000
,
00000000
00010000
00100000
20000000
,
30000000
00100000
00010000
00002000
,
00003000
00000010
00001000
00000001
,
00002002
00000000
00000000
00003003
,
00022000
00000000
00000000
00000000
,
00000000
00000000
00000000
00033000
;

//---------------dance-single - ----------------
#NOTES:
     dance-single:
     :
     Easy:
     5:
     0.341,0.353,0.294,0.424,0.000:
0000
0000
0000
0000
,
0000
0000
0000
0000
,
0000
0000
0000
0000
,
0000
0000
0000
0000
,
0000
0000
0000
0000
,
0000
0000
0000
0000
,
0000
0000
0000
0000
,
0000
0000
0010
0010
,
2002
0000
0000
3003
,
0200
0000
0000
0300
,
0002
0003
2000
3000
,
0002
0003
2000
3000
,
0020
0000
0030
0000
,
0200
0000
0300
0000
,
0002
0003
2000
3000
,
0200
0000
0000
0300
,
2000
3000
0002
0003
,
0200
0300
2000
3000
,
0200
0300
0002
0003
,
2000
3000
0200
0300
,
0002
0003
0020
0030
,
0100
0010
1001
0000
,
0010
0100
1000
0001
,
2002
0000
0000
3003
,
0000
1000
0001
1001
,
0000
0001
1000
1001
,
0000
0010
0100
1000
,
2002
0000
0000
3003
,
0000
0010
1000
0001
,
0000
0001
1000
0010
,
0000
0010
0100
0001
,
2002
0000
0000
3003
,
0010
0000
1000
0001
,
1001
0000
0001
1000
,
1001
0000
0010
0100
,
0110
0000
1001
0000
,
0110
0000
1001
0000
,
0110
0000
1001
0000
,
0110
0000
1001
0000
,
0010
0010
0020
0030
,
1000
0100
1000
0100
,
0001
0100
0001
1000
,
0100
1000
0100
1000
,
0001
0100
0001
0100
,
1000
0010
1000
0010
,
0001
0010
0001
1000
,
0010
1000
0010
0001
,
0010
0010
0010
1001
,
0100
1000
0100
1000
,
0001
0100
0001
0100
,
0001
1000
0001
1000
,
0010
0001
0010
0001
,
0100
1000
0100
0001
,
0100
1000
0001
0010
,
1000
0010
0001
0010
,
2002
0000
0000
3003
,
0000
1000
0001
1001
,
0000
0001
1000
1001
,
0000
1000
0001
1001
,
2002
0000
0000
3003
,
0000
0010
0100
0110
,
0000
0100
0010
0110
,
0000
0010
0010
0010
,
2002
0000
0000
3003
,
0000
0010
0010
1001
,
0000
0100
0100
1001
,
0000
0010
0010
1001
,
0220
0000
0000
0330
,
0000
0010
0100
1001
,
0000
0100
0010
1001
,
0000
0100
0001
0010
,
2002
0000
0000
3003
,
0000
1000
0100
0002
,
0003
0001
0100
2000
,
3000
0010
1000
0002
,
2000
0000
0000
3003
,
0000
0001
0010
2000
,
3000
1000
0010
0002
,
0003
0010
0001
2000
,
0002
0000
0000
3003
,
2002
0000
0000
0000
,
0000
0000
0000
3003
;

//---------------dance-single - ----------------
#NOTES:
     dance-single:
     :
     Medium:
     8:
     0.454,0.636,0.467,0.475,0.000:
0000
0000
0000
0000
,
0000
0000
0000
0000
,
0000
0000
0000
0000
,
0000
0000
0000
0000
,
0000
0000
0000
0000
,
0000
0000
0000
0000
,
0000
0000
0000
0000
,
0000
0000
1000
0001
,
1001
0000
0000
0000
0110
0000
0000
1001
,
0000
0000
0001
0010
,
0100
0000
1000
0000
0001
0000
1000
0001
,
0000
0000
0011
0110
,
1001
0000
0000
0000
1100
0000
0000
0011
,
0000
1001
1001
0001
,
0100
0000
1000
0000
0010
0000
1000
0020
,
0000
0000
0030
1001
,
2200
0000
3300
0000
0110
0000
0000
2002
,
0000
3003
0010
0100
,
0001
0000
1000
0000
0100
0000
0001
2000
,
0000
3000
0110
1001
,
0220
0000
0330
0000
2002
0000
3003
1001
,
0000
0100
1000
0001
,
0100
0000
1000
0000
0010
0000
1000
0200
,
0000
0000
0000
0300
,
0000
0000
1000
0000
0100
0000
0000
0001
,
0000
0000
1000
0000
0001
0000
0000
0010
,
0000
0000
0001
0000
0100
0000
0001
0200
,
0000
0001
0000
0301
,
1000
0000
0010
0000
1000
0000
0000
0001
,
0000
0000
0100
0000
1000
0000
0000
0010
,
0000
0000
0001
0000
0100
0000
0001
0200
,
0000
0000
0001
0301
,
2002
0000
3003
0000
0010
0000
0001
1000
,
2002
0000
3003
0000
1000
0000
0010
0200
,
0002
0000
0303
0000
0001
0000
0010
0001
,
0020
0030
2002
3003
,
2200
3300
0202
0303
,
2200
3300
2002
3003
,
0022
0033
2200
3300
,
0110
0000
0000
0000
2002
0000
0000
3003
,
1000
0000
1000
0000
0001
0000
0001
0010
,
0001
0010
1000
0001
,
0010
0000
0010
0000
1000
0000
0010
1000
,
0010
0010
0001
0101
,
0100
0000
0100
0000
1000
0000
0010
1000
,
0010
0010
1100
1000
,
1001
0000
0001
0000
0011
0000
0010
0001
,
0100
0000
0110
1001
,
1000
0000
0100
0000
0001
0100
0001
0000
,
0010
0010
0010
0000
1000
0000
1001
0000
,
0001
0000
0101
0000
0100
0100
0100
0000
,
1000
0010
1000
0000
0101
0000
1001
0000
,
0101
0000
0010
0000
1000
0100
1000
0000
,
0100
0100
0100
0000
1100
0000
1001
0000
,
1010
0000
0010
0000
0001
0010
0001
0000
,
0202
0000
0000
0303
,
0010
0000
1000
0000
1001
0000
0100
0001
,
0100
0000
0010
0000
0011
0000
1000
0001
,
1000
0000
0001
0000
1001
0000
0001
0100
,
0001
0001
0010
0010
,
0100
0000
0100
0000
1001
0000
0001
0100
,
0001
0000
0100
0000
0101
0000
0001
0100
,
0001
0000
1000
0000
0100
0000
1000
0001
,
2000
0001
0001
3001
,
2000
3010
0002
0103
,
0002
1003
0200
0310
,
0020
0031
0200
1300
,
0001
0101
0001
0101
,
2000
3010
0200
0301
,
2000
3100
0020
0031
,
0001
1000
0010
0001
,
0202
0000
0000
0303
,
0000
0000
0010
0000
1000
0000
0100
0001
,
0000
0000
0010
0000
0001
0000
0100
1000
,
0000
0000
0010
0000
0001
0000
1000
0002
,
0000
0000
0000
0003
,
0000
0000
0010
0000
1000
0000
0100
0001
,
0000
0000
0010
0000
0001
0000
0100
1000
,
0000
0010
0100
1000
,
0002
0000
0000
0003
,
2002
0000
0000
0000
,
0000
0000
0000
3003
;
