#TITLE:Hallucination;
#SUBTITLE:;
#ARTIST:NARVIA x FOIV;
#TITLETRANSLIT:;
#SUBTITLETRANSLIT:;
#ARTISTTRANSLIT:;
#GENRE:;
#CREDIT:;
#BANNER:Hallucination.png;
#BACKGROUND:Hallucination-bg.png;
#LYRICSPATH:;
#CDTITLE:;
#MUSIC:Hallucination.ogg;
#OFFSET:-0.016000;
#SAMPLESTART:86.668533;
#SAMPLELENGTH:19.849625;
#SELECTABLE:YES;
#BPMS:0.000000=133.000000
;
#STOPS:
;
#BGCHANGES:;
#KEYSOUNDS:;
#ATTACKS:;

//---------------dance-single - ----------------
#NOTES:
     dance-single:
     :
     Hard:
     12:
     0.463419,0.508456,0.097905,0.091378,0.218656,497.000000,482.000000,15.000000,14.000000,0.000000,0.000000,0.463419,0.508456,0.097905,0.091378,0.218656,497.000000,482.000000,15.000000,14.000000,0.000000,0.000000:
0000
0000
0000
0000
,
0000
0000
0000
0000
,
0000
0000
0000
0000
,
0000
0000
0000
0000
,
1000
0001
1000
0001
,
0100
0010
0100
0010
,
1000
0001
1000
0001
,
0010
0010
0010
0010
,
1001
0000
0000
0000
0000
0000
0000
1000
0000
0000
1000
0000
0000
0000
0000
0000
,
0010
0000
0000
0000
0000
0000
0000
0001
0000
0000
0001
0000
0000
0000
0000
0000
,
0100
0000
0000
0000
0000
0000
0000
1000
0000
0000
1000
0000
0000
0000
0000
0000
,
0100
0000
0000
0000
0000
0000
0000
0001
0000
0000
0001
0000
0000
0000
0000
0000
,
0020
0000
0000
0000
0000
0000
0000
1000
0000
0000
1030
0000
0000
0000
0000
0000
,
0200
0000
0000
0000
0000
0000
0000
1000
0000
0000
1300
0000
0000
0000
0000
0000
,
0020
0000
0000
0000
0000
0000
0000
0001
0000
0000
0031
0000
0000
0000
0000
0000
,
0200
0000
0000
0000
0000
0000
0000
0001
0000
0000
0301
0000
0000
0000
0000
0000
,
1000
0000
0001
1000
0000
0010
0100
0010
,
1000
0000
0001
0000
1000
0100
0010
0001
,
0100
0000
0001
0000
0010
1000
0100
0000
,
0010
0000
0001
0000
0100
1000
0010
0000
,
1000
0000
0001
0100
0000
0100
0001
1000
,
0001
0000
1000
0000
0010
1000
0100
0000
,
0020
0002
0033
0100
,
2000
0020
3030
0100
,
1000
0000
0010
0000
1000
0010
0000
1000
0010
0000
0000
0100
0000
0000
0010
0000
,
0100
0000
0001
0000
0100
0001
0000
0100
0001
0000
0000
0100
0000
0000
0010
0000
,
1000
0000
0001
0000
1000
0001
0000
1000
0001
0000
0000
0100
0000
0000
0010
0000
,
1000
0000
0100
0000
1000
0100
0000
1000
0100
0000
0000
1000
0000
0000
0010
0000
,
0100
0001
0100
0000
0001
0100
0001
0000
,
1000
0001
1000
0000
0001
1000
0001
0000
,
1000
0100
1000
0100
0010
0001
0010
0001
,
1000
0100
0010
0001
0100
0000
1001
0000
,
0010
0000
1000
0000
0010
1000
0000
0010
1000
0000
0010
1000
0000
0000
0010
0000
,
0100
0000
0001
0000
0100
0001
0000
0100
0001
0000
0100
0001
0000
0000
0100
0000
,
0001
0000
1000
0000
0001
1000
0000
0001
1000
0000
0001
1000
0000
0000
0010
0000
,
1000
0000
0001
0000
1000
0001
0000
1000
0001
0000
1000
0001
0000
0000
0100
0000
,
0001
0000
1000
0000
0001
0100
0000
0001
0100
0000
0001
1000
0000
0000
0010
0000
,
1000
0000
0001
0000
1000
0001
0000
1000
0100
0000
1000
0100
0000
0000
1000
0000
,
0001
0000
0100
0000
0001
0010
0000
0001
0010
0000
0001
0100
0000
0000
0010
0000
,
1000
0000
0100
0000
1000
0100
0000
1000
0100
0000
1000
0100
0000
0000
1000
0000
,
0001
0000
0100
0000
0001
0100
0000
0000
0001
0000
0000
0101
0000
0000
1000
0000
,
0001
0000
1000
0000
0001
1000
0000
0000
0010
0000
0000
1010
0000
0000
1000
0000
,
0001
0000
0100
0000
0001
0100
0000
0000
0010
0000
0000
1010
0000
0000
0100
0000
,
0001
0000
1000
0000
0001
1000
0000
0000
0010
0000
0000
1100
0000
0000
0100
0000
,
0010
0000
1000
0000
0001
1000
0000
0001
1000
0000
0000
0010
0000
0000
0100
0000
,
0001
0000
1000
0000
0001
1000
0000
0001
1000
0000
0000
0010
0000
0000
0100
0000
,
0001
0000
1000
0000
0001
1000
0000
0001
0100
0000
0001
0010
0000
0001
0100
0000
,
0001
0010
0100
1000
0020
0000
0130
0000
,
1001
0000
1000
0002
0000
1003
0001
0100
,
0001
0020
0000
0031
0100
0010
1000
0100
,
0010
0002
0000
0100
0000
0013
0001
1000
,
0100
0020
0000
0001
0000
0031
0010
0100
,
1000
0010
0100
0001
0000
0001
0100
0010
,
1000
0100
0001
0100
0000
0001
0100
1000
,
0100
0001
0000
0001
0100
1000
0000
1000
,
0010
0100
0000
0100
0001
0010
0100
0000
,
1000
0001
1000
0001
1000
0010
0100
0000
,
0001
1000
0001
1000
0001
0100
0010
0000
,
0001
0010
0001
0010
1000
0100
0001
0000
,
1000
0100
1000
0100
0001
0010
1000
0000
,
0100
0010
1000
0001
0100
0000
1001
0000
,
0010
0100
0001
1000
0010
0000
1001
0000
,
1000
0100
0010
0000
0001
0100
0010
0000
,
1000
0001
0100
0000
0001
1000
0010
0000
,
1000
0000
0001
0000
1000
0000
0001
0000
1000
0000
0001
1000
0000
1000
0001
0000
,
0100
0010
1000
0000
0010
0100
0001
0000
,
1000
0001
1000
0010
1000
0001
0100
0000
,
0001
1000
0001
0010
0001
0100
0001
0000
,
1000
0000
0001
0000
0100
0000
0001
0000
1000
0000
0001
1000
0000
1000
0001
0000
,
0100
0001
0010
0000
0010
0001
0100
0000
,
0010
1000
0100
1000
0010
0100
0001
0010
,
0001
0100
0001
1000
0010
1000
0100
1000
,
0010
0100
0000
0110
0000
0001
0100
1000
,
0000
0000
0110
0000
0000
0000
1000
0000
0100
0000
0000
0001
0000
0000
1000
0000
,
0001
1000
0000
0110
0000
0001
0010
0100
,
1000
0001
0000
0110
0000
1000
0010
0100
,
0001
1000
0000
1001
0000
0010
0100
0000
,
1000
0001
0000
1001
0000
0100
0010
0000
,
0001
0100
0001
0100
1000
0100
1000
0100
,
0001
0010
0100
1000
0010
1000
0001
0100
,
0020
0000
0000
0000
,
0000
0000
0000
0000
,
0030
0000
0000
0000
;

//---------------dance-double - ----------------
#NOTES:
     dance-double:
     :
     Hard:
     12:
     0.420527,0.481695,0.150122,0.097905,0.117487,451.000000,428.000000,23.000000,15.000000,0.000000,0.000000,0.420527,0.481695,0.150122,0.097905,0.117487,451.000000,428.000000,23.000000,15.000000,0.000000,0.000000:
00000000
00000000
00000000
00000000
,
00000000
00000000
00000000
00000000
,
00000000
00000000
00000000
00000000
,
00000000
00000000
00000000
00000000
,
00001000
00001000
00000100
00000001
,
00000010
00000010
00001000
00000100
,
00010000
00010000
00001000
01000000
,
00200000
00000000
00000000
00300000
,
10000000
00000000
00010000
01000000
00000000
00010000
00100000
00002000
,
00010000
00000000
00000000
00000000
00000000
00000000
00000000
00010000
00000000
00000000
00013000
00000000
00000100
00000000
00001000
00000000
,
00000020
00000000
00000000
00000000
00000000
00000000
00000000
00000100
00000000
00000000
00000130
00000000
00000000
00000000
00000000
00000000
,
00000200
00000000
00000000
00000000
00000000
00000000
00000000
00000001
00000000
00000000
00000301
00000000
00000000
00000000
00000000
00000000
,
00000001
00000000
00001000
00000010
00000000
00001000
00000100
00010000
,
00002000
00000000
00000000
00000000
00000000
00000000
00000000
00100000
00000000
00000000
00103000
00000000
00010000
00000000
01000000
00000000
,
00200000
00000000
00000000
00000000
00000000
00000000
00000000
10000000
00000000
00000000
10000000
00300000
00000000
00000000
01000000
00000000
,
00020000
00000000
00000000
00000000
00000000
00000000
00000000
00100000
00000000
00000000
00130000
00000000
00000000
00000000
00001000
00000000
,
00010000
00000000
00010000
00000100
00000000
00000100
00001000
00000020
,
00000100
00000000
00000000
00000000
00000000
00000000
00000000
00000130
00000000
00000000
00000100
00000000
00000001
00000000
00000010
00000000
,
00002000
00000000
00000000
00000000
00000000
00000000
00000000
00000100
00000000
00000000
00003100
00000000
00010000
00000000
00002000
00000000
,
00010000
00000000
00000000
00000000
00000000
00000000
00000000
00010000
00000000
00000000
00013000
00000000
00000000
00000000
00010000
00000000
,
00002000
00000000
00000000
00000000
00000000
00000000
00000000
00100000
00000000
00000000
00103000
00000000
00010000
00000000
01000000
00000000
,
00200000
00000000
00000000
00000000
00000000
00000000
00000000
10000000
00000000
00000000
10300000
00000000
01000000
00000000
00100000
00000000
,
00020000
00000000
00000000
00000000
00000000
00000000
00000000
00100000
00000000
00000000
00100000
00030000
00000000
00000000
00001000
00000000
,
00020000
00000000
00000000
00030000
,
00000100
00000000
00000010
00001000
00000001
00000000
00000100
00000001
,
00001000
00000000
00000010
00001000
00000100
00000000
00000100
00010000
,
00001000
00000000
00001000
00100000
00010000
00000000
00010000
01000000
,
00100000
00000000
00100000
10000000
01000000
00000000
01000000
10000000
,
10100000
01010000
00110000
00011000
,
00001100
00001010
00000101
00001001
,
00000001
00000010
00000100
00000000
00001000
00000010
00000100
00000000
,
00000100
00010000
00001000
00010000
00001000
00001000
00001000
00001000
,
00010000
00000000
00001000
00000000
00100000
00000000
00000000
00000000
00001000
00000000
00000000
00100000
00000000
00000000
00010000
00000000
,
01000000
00000000
00010000
00000000
01000000
00000000
00000000
00000000
01000000
00000000
00000000
00010000
00000000
00000000
00100000
00000000
,
00001000
00000000
00010000
00000000
00001000
00000000
00000000
00000000
00010000
00000000
00000000
00000100
00000000
00000000
00001000
00000000
,
00000010
00000000
00000100
00000000
00000001
00000000
00000000
00000000
00001000
00000000
00000000
00000010
00000000
00000000
00001000
00000000
,
00000100
00000000
00001000
00000000
00000100
00000000
00000000
00000000
00010000
00000000
00000000
00001000
00000000
00000000
00100000
00000000
,
00010000
00000000
00100000
00000000
01000000
00000000
00000000
00000000
10000000
00000000
00000000
01000000
00000000
00000000
10000000
00000000
,
00100000
00000000
01000000
00000000
00010000
00000000
00000000
00000000
00100000
00000000
00000000
00001000
00000000
00000000
00010000
00000000
,
00000100
00000000
00001000
00000000
00000000
00000010
00000000
00000000
00000001
00000000
00000000
00001001
00000000
00000000
00000010
00000000
,
00000100
00000000
00000001
00000000
00001000
00000001
00000000
00000000
00001000
00000000
00000000
00000010
00000000
00000000
00001000
00000000
,
00000100
00000000
00010000
00000000
00000100
00010000
00000000
00000000
00001000
00000000
00000000
00010000
00000000
00000000
00001000
00000000
,
00100000
00000000
00010000
00000000
01000000
00010000
00000000
00000000
01000000
00000000
00000000
00100000
00000000
00000000
10000000
00000000
,
01000000
00000000
01000000
00000000
10000000
00000000
00000000
00100000
00000000
00000000
00000000
00010000
00000000
00000000
01000000
00000000
,
00001000
00000000
00010000
00000000
00001000
00000000
00000000
00000000
00010000
00000000
00000000
00000100
00000000
00000000
00001000
00000000
,
00000010
00000000
00000100
00000000
00000001
00001000
00000000
00000000
00000010
00000000
00000000
00000100
00000000
00000000
00001000
00000000
,
00000010
00000000
00001000
00000000
00000000
00000100
00000000
00000000
00010000
00000000
00000000
00001000
00000000
00000000
00010000
00000000
,
00001000
00000000
00100000
00000000
00001000
00000000
00000000
00100000
00000000
00010000
00000000
00000000
01000000
00000000
00000000
00000000
,
10000000
01000000
10000000
01000000
10000000
01000000
10000000
00000000
,
00010000
01000000
00010000
01000000
00010000
01000000
00010000
00000000
,
00100000
00010000
00100000
00000000
00001000
00010000
00001000
00000000
,
00010000
00000100
00010000
00000000
00000010
00001000
00000010
00000000
,
00000001
00000100
00000001
00000100
00000001
00000100
00000001
00000000
,
00001000
00000010
00001000
00000010
00001000
00000010
00001000
00000000
,
00000100
00001000
00000100
00000000
00010000
00001000
00010000
00000000
,
00001000
00100000
00001000
00000000
00100000
00010000
00100000
00000000
,
00010000
10000000
00010000
01000000
00010000
00100000
00010000
00000000
,
10000000
00010000
10000000
00100000
10000000
01000000
10000000
00000000
,
00010000
01000000
00010000
00000000
00100000
00001000
00100000
00000000
,
00010000
00000100
00010000
00000000
00001000
00000010
00001000
00000000
,
00000001
00000010
00000001
00000100
00000001
00001000
00000001
00000000
,
00001000
00000001
00001000
00000010
00001000
00000100
00001000
00000000
,
00000100
00010000
00001000
00010000
00000000
00001000
00100000
00001000
,
00000000
00100000
00010000
01000000
00000000
00100000
10010000
00000000
,
10000000
01000000
10000000
00100000
00000000
01010000
00000000
00100000
,
00001000
00010000
00000100
00010000
00000000
00001100
00000000
00001000
,
00000010
00000100
00000000
00001001
00000000
00000110
00000000
00000001
,
00001000
00000010
00000000
00001100
00000000
00010100
00000000
00010000
,
00001000
00100000
00010000
01000000
00000000
10010000
00000000
00100000
,
10000000
01000000
00000000
10010000
00000000
01100000
00000000
00100000
,
00001000
00010000
00000100
00010000
00000000
00001000
00000100
00000010
,
00000000
00000001
00001000
00000010
00000000
00001010
00000000
00000100
,
00001000
00010000
00000000
00001000
00010000
01000000
00000000
01000000
,
00010000
00100000
00000000
00100000
10000000
01000000
00000000
10000000
,
00100000
01000000
00010000
00100000
00000000
00011000
00000000
00010000
,
00000100
00001000
00000010
00000100
00000000
00001001
00000000
00000001
,
00001000
00000010
00001000
00000100
00000000
00001100
00000000
00000100
,
00010000
00001000
00100000
00001000
00000000
00100000
00000000
00100000
,
00010000
01000000
00000000
00100000
10000000
01000000
00000000
00001000
,
01000000
00001000
00000000
00010000
00000010
00001000
00000010
00000000
,
00000200
00000000
00000000
00000000
,
00000000
00000000
00000000
00000000
,
00000300
00000000
00000000
00000000
;

//---------------dance-double - ----------------
#NOTES:
     dance-double:
     :
     Medium:
     8:
     0.355257,0.454934,0.378568,0.078324,0.000000,381.000000,323.000000,58.000000,12.000000,0.000000,0.000000,0.355257,0.454934,0.378568,0.078324,0.000000,381.000000,323.000000,58.000000,12.000000,0.000000,0.000000:
00000000
00000000
00000000
00000000
,
00000000
00000000
00000000
00000000
,
00000000
00000000
00000000
00000000
,
00000000
00000000
00000000
00000000
,
00010000
00010000
00100000
00100000
,
00010000
00010000
00001000
00001000
,
00010000
00010000
00000010
00000010
,
00001000
00001000
00000010
00000010
,
00020000
00000000
00000000
00030000
,
00000200
00000000
00000000
00000300
,
00000002
00000000
00000000
00000003
,
00000020
00000000
00000000
00000030
,
00020000
00000000
00000000
00030000
,
00002000
00000000
00000000
00003000
,
02000000
00000000
00000000
03000000
,
20000000
00000000
00000000
30000000
,
00100000
00010000
10000000
00010000
,
00100000
00001000
00010000
00001000
,
00010000
00000100
00001000
00000001
,
00001000
00000100
00001000
00000100
,
00010000
00001000
00010000
00001000
,
01000000
00010000
01000000
00010000
,
10000000
01000000
00100000
00010000
,
00002000
00000000
00000000
00003000
,
00001001
00000000
00001001
00000000
,
00000110
00000000
00000110
00000000
,
00011000
00000000
00011000
00000000
,
01010000
00000000
01010000
00000000
,
11000000
11000000
01010000
01010000
,
00011000
00011000
00001100
00001100
,
00000001
00000100
00000001
00000000
00001000
00000100
00001000
00000000
,
00000100
00010000
00000100
00000000
00020000
00000000
00031000
00000000
,
00001000
00100000
00010000
01000000
,
00100000
10000000
00100000
00000000
01000000
00010000
01000000
00000000
,
00100000
00001000
00010000
00000100
,
00001000
00000010
00001000
00000000
00000001
00000100
00000001
00000000
,
00001000
00000010
00000100
00000000
00000001
00000000
00001001
00000000
,
00000001
00000100
00000010
00000000
00001001
00000000
00001001
00000000
,
00001000
00000100
00001000
00000000
00000100
00010000
00000100
00000000
,
00010000
00001000
00010000
00000000
00011000
00000000
00101000
00000000
,
00100000
00010000
01000000
00000000
10100000
00000000
01010000
00000000
,
10000000
01000000
00100000
00000000
00110000
00000000
01010000
00000000
,
00100000
00001000
00010000
00000000
00011000
00000000
00000100
00000000
,
00001000
00000010
00000100
00000000
00000001
00000100
00000010
00000000
,
00000001
00001000
00000100
00000000
00001001
00000000
00001100
00000000
,
00000100
00001000
00000100
00000000
00010100
00000000
00011000
00000000
,
00001000
00100000
00010000
00000000
00110000
00000000
01100000
00000000
,
00010000
10000000
00100000
00000000
01000000
00100000
10010000
00000000
,
10000000
00000000
01000000
10000000
00000000
00100000
00010000
00100000
,
00000000
00001000
00000000
00010000
00000100
00000000
00001000
00000010
,
00000000
00000100
00000000
00000001
00000000
00001000
00000001
00001000
,
00000000
00000100
00000000
00010000
00000000
00001000
00010000
00000000
,
00001000
00000000
00100000
00001000
00000000
00100000
00010000
01000000
,
00000000
00100000
00000000
00100000
00000000
10000000
01000000
00010000
,
00000000
00100000
00000000
00100000
00000000
00001000
00000000
00010000
,
00000000
00000100
00000000
00000100
00000000
00001000
00000010
00000000
,
00000001
00000100
00000001
00000100
00000000
00001000
00000000
00000010
,
00000000
00001000
00000000
00000100
00000000
00010000
00001000
00010000
,
00000000
00001000
00000000
00100000
00000000
00010000
01000000
10000000
,
00000000
00100000
10000000
01000000
00000000
00100000
00000000
00010000
,
01000000
00000000
00100000
00000000
10000000
00100000
10000000
00000000
,
00010000
00000000
00100000
00000000
00001000
00010000
00001000
00010000
,
00001000
00000000
00010000
00000000
00000000
00000010
00001000
00000010
,
00000000
00000100
00000001
00000100
00000000
00000010
00000010
00000000
,
00001001
00000000
00000100
00000000
00000001
00000100
00001000
00000000
,
00001001
00000000
00000100
00000000
00001000
00000010
00000100
00000000
,
00011000
00000000
00010000
00000000
00001000
00100000
00010000
00000000
,
10010000
00000000
10000000
00000000
00100000
10000000
01000000
00000000
,
10010000
00000000
01100000
00000000
10000000
00100000
10000000
00000000
,
10010000
00000000
00110000
00000000
00100000
00001000
00010000
00000000
,
00011000
00000000
00011000
00000000
00010000
00000100
00001000
00000000
,
00001010
00000000
00001010
00000000
00000001
00000100
00000001
00000000
,
00000010
00001000
00000010
00001000
00000000
00000100
00001000
00000100
,
00000000
00011000
00011000
00101000
,
00100000
00010000
01000000
00000000
00100000
10000000
01000000
00000000
,
10000000
00010000
01000000
00000000
00010000
10000000
01000000
00000000
,
10010000
01100000
10000000
00110000
,
00100000
00011000
00010000
00001100
,
00000010
00001001
00000100
00001100
,
00010000
00110000
01000000
01010000
,
00022000
00000000
00000000
00000000
,
00000000
00000000
00000000
00000000
,
00033000
00000000
00000000
00000000
;

//---------------dance-single - ----------------
#NOTES:
     dance-single:
     :
     Medium:
     8:
     0.372041,0.481695,0.607014,0.097905,0.006527,399.000000,306.000000,93.000000,15.000000,0.000000,0.000000,0.372041,0.481695,0.607014,0.097905,0.006527,399.000000,306.000000,93.000000,15.000000,0.000000,0.000000:
0000
0000
0000
0000
,
0000
0000
0000
0000
,
0000
0000
0000
0000
,
0000
0000
0000
0000
,
0001
0001
0010
0010
,
0001
0001
1000
1000
,
0010
0010
0001
0001
,
0010
0010
1000
0001
,
2002
0000
0000
3003
,
0200
0000
0000
0300
,
0020
0000
0000
0030
,
0002
0000
0000
0003
,
0020
0000
0000
0030
,
2000
0000
0000
3000
,
0200
0000
0000
0300
,
0002
0000
0000
0003
,
0010
0001
0010
0001
,
0010
1000
0010
1000
,
0010
0001
0100
1000
,
0010
1000
0100
0001
,
0010
1000
0001
0100
,
1000
0001
0010
1001
,
1000
0100
0010
0001
,
2002
0000
0000
3003
,
0110
0000
0110
0000
,
1001
0000
1001
0000
,
0110
0000
0110
0000
,
1001
0000
1001
0000
,
1100
1100
0101
0101
,
0011
0011
1010
1010
,
1100
0101
0011
1010
,
1000
0001
1000
0001
2000
0000
3001
0000
,
0010
0010
1001
0110
,
0010
0010
1001
0110
,
1000
0001
1000
0000
1001
0000
1001
0000
,
0001
1000
0001
0000
1001
0000
1001
0000
,
0100
0100
0110
1001
,
0010
0010
0110
1001
,
0001
0100
0001
0000
1000
0100
1000
0000
,
0001
0100
0001
0000
1001
0000
0110
0000
,
0010
0001
0100
0000
1001
0000
1001
0000
,
0010
1000
0100
0000
1001
0000
1001
0000
,
0010
0001
1000
0000
1001
0000
1001
0000
,
0010
1000
0001
0000
1001
0000
1001
0000
,
0100
0010
0100
0000
1001
0000
0110
0000
,
0010
0100
0010
0000
0110
0000
1001
0000
,
0001
0010
0001
0000
1000
0100
1000
0000
,
0010
0100
0010
0000
0110
0000
1001
0000
,
1000
0000
0100
1000
0000
0010
0001
0010
,
0000
0000
0000
0000
0000
0000
0001
0000
1000
0000
0000
1000
0000
0000
2000
0000
,
0000
0000
0000
3000
0000
0010
0100
0010
,
0000
1000
0100
0001
,
0010
0000
0010
0001
0000
0010
0001
0010
,
0000
0100
0000
0010
0000
1000
0100
0001
,
0000
0000
1000
0000
0001
0100
0001
0000
,
1000
0000
0001
0000
0100
0001
0100
0000
,
0001
0000
0010
0010
0000
1000
0001
1000
,
0000
0000
0000
0000
0000
0000
0100
0000
0010
0000
0000
0010
0000
0000
0010
0000
,
0000
0000
1001
0000
0001
0100
0001
0000
,
0010
1000
0100
0010
,
0001
0000
0010
0000
1000
0001
1000
0000
,
0001
0000
0010
0000
0001
1000
0001
0000
,
0100
0010
1001
0110
,
0010
0100
1001
0110
,
1100
0000
0101
0000
0010
0100
0010
0000
,
0101
0000
1100
0000
0010
0100
0010
0000
,
1001
1001
0110
0110
,
1001
0000
0110
0000
1000
0001
1000
0000
,
1100
0000
0101
0000
1000
0010
1000
0000
,
0101
0000
1100
0000
0001
0010
0001
0000
,
0110
0110
1001
1001
,
0110
0000
1001
0000
0001
0100
0001
0000
,
1000
0100
1000
0000
0010
0000
0100
0000
,
0001
0100
0001
0000
0100
0000
0010
0000
,
0010
0001
0100
0000
0010
1000
0100
0000
,
1000
0001
0100
0000
0001
1000
0100
0000
,
1001
0110
1001
0110
,
1100
1100
0101
0101
,
0011
0011
1010
1010
,
1100
0101
0011
1010
,
2002
0000
0000
0000
,
0000
0000
0000
0000
,
3003
0000
0000
0000
;

//---------------dance-single - ----------------
#NOTES:
     dance-single:
     :
     Beginner:
     3:
     0.147324,0.214087,0.039162,0.039162,0.000000,158.000000,152.000000,6.000000,6.000000,0.000000,0.000000,0.147324,0.214087,0.039162,0.039162,0.000000,158.000000,152.000000,6.000000,6.000000,0.000000,0.000000:
0000
0000
0000
0000
,
0000
0000
0000
0000
,
0000
0000
0000
0000
,
0000
0000
0000
0000
,
0001
0000
0001
0000
,
1000
0000
1000
0000
,
0010
0000
0010
0000
,
0100
0000
0100
0000
,
0001
0000
0000
0000
,
1000
0000
0000
0000
,
0010
0000
0000
0000
,
0100
0000
0000
0000
,
0002
0000
0003
0000
,
2000
0000
3000
0000
,
0020
0000
0030
0000
,
0200
0000
0300
0000
,
0000
0001
0000
0001
,
0000
0001
0000
0001
,
0000
1000
0000
1000
,
0000
1000
0000
1000
,
0000
0010
0000
0010
,
0000
0100
0000
0100
,
0000
0010
0000
0010
,
0000
0100
0000
0000
,
0001
0000
0000
0000
,
0001
0000
0000
0000
,
1000
0000
0000
0000
,
1000
0000
0000
0000
,
0001
0000
0001
0000
,
1000
0000
1000
0000
,
0010
0000
0010
0000
,
0100
0100
0100
0000
,
0001
0000
0100
0000
,
1000
0000
0100
0000
,
0001
0000
0010
0000
,
1000
0000
0010
0000
,
0001
0000
0100
0000
,
0001
0000
0100
0000
,
1000
0000
0100
0000
,
1000
0000
1001
0000
,
0010
0010
0010
0000
,
1000
0000
1001
0000
,
0010
0010
0010
0000
,
0001
0000
1001
0000
,
0100
0100
0100
0000
,
1000
0000
1001
0000
,
0100
0100
0100
0000
,
0001
0000
1001
0000
,
0010
0000
0100
0000
,
0010
0000
0100
0000
,
0001
0000
0100
0000
,
1000
0000
0100
0000
,
0010
0000
0100
0000
,
0010
0000
0100
0000
,
0001
0000
0010
0000
,
1000
0000
0010
0000
,
0001
0000
0001
0000
,
1000
0000
1000
0000
,
0010
0000
0010
0000
,
0100
0000
0100
0000
,
0001
0000
1000
0000
,
0001
0000
1000
0000
,
0010
0000
0010
0000
,
0100
0000
0100
0000
,
0001
0001
0001
0000
,
1000
0000
1000
0000
,
0001
0001
0001
0000
,
1000
0000
1000
0000
,
0100
0100
0100
0000
,
0010
0000
0010
0000
,
0100
0100
0100
0000
,
0010
0000
0010
0000
,
1000
0000
0100
0000
,
0010
0000
0001
0000
,
0100
0000
0010
0000
,
1000
0000
0001
0000
,
0010
0010
0010
0000
,
0100
0100
0100
0000
,
0001
0001
0001
0000
,
1000
1000
0000
0000
,
2002
0000
0000
0000
,
0000
0000
0000
0000
,
3003
0000
0000
0000
;

//---------------dance-single - ----------------
#NOTES:
     dance-single:
     :
     Easy:
     4:
     0.220054,0.267608,0.039162,0.189284,0.000000,236.000000,230.000000,6.000000,29.000000,0.000000,0.000000,0.220054,0.267608,0.039162,0.189284,0.000000,236.000000,230.000000,6.000000,29.000000,0.000000,0.000000:
0000
0000
0000
0000
,
0000
0000
0000
0000
,
0000
0000
0000
0000
,
0000
0000
0000
0000
,
1000
1000
1000
1000
,
0001
0001
0001
0001
,
1000
1000
0001
0001
,
1000
1000
0001
0000
,
0020
0000
0000
0030
,
2000
0000
0000
3000
,
0200
0000
0000
0300
,
0002
0000
0000
0003
,
0020
0000
0130
0000
,
0200
0000
0310
0000
,
2000
0000
3001
0000
,
0002
0000
1003
0000
,
0000
0001
0000
0001
,
0000
1000
0000
1000
,
0000
0010
0000
0010
,
0000
0100
0000
0100
,
0000
0001
0000
0010
,
0000
0100
0000
1000
,
0000
0100
0000
0010
,
0000
0001
0000
0000
,
1001
0000
0010
0000
,
1001
0000
0100
0000
,
1001
0000
0010
0000
,
1001
0000
0100
0000
,
0001
0001
0001
0001
,
1000
1000
1000
1000
,
0010
0010
0100
0100
,
0001
0010
0100
1000
,
0001
0001
0100
0100
,
0001
0100
0001
0100
,
1000
1000
0100
0100
,
1000
0100
1000
0100
,
0001
0010
0100
1000
,
0001
0001
0100
0100
,
1000
0100
0010
0001
,
1000
1000
0100
0100
,
0010
0010
1000
0001
,
0010
0010
0001
1000
,
0100
0100
1000
0010
,
0100
0100
0001
0010
,
1000
1000
0001
0001
,
1000
0100
0010
0001
,
1000
1000
0001
0001
,
0010
0100
1000
1001
,
2000
3000
0002
0003
,
0200
0300
0020
0030
,
0002
0100
0100
0103
,
2000
0100
0100
3100
,
0002
0003
2000
3000
,
0020
0030
0200
0300
,
0020
0100
0100
0130
,
0200
0010
0010
0310
,
0002
0103
0001
0001
,
2000
3100
1000
1000
,
0002
0003
2000
3000
,
0100
0100
0100
0000
,
2000
3000
0001
0010
,
1000
0000
0001
0100
,
2000
3000
0002
0003
,
0100
0100
0100
0000
,
0001
0001
0010
0000
,
1000
1000
0010
0000
,
0001
0001
0100
0000
,
1000
1000
0100
0000
,
0100
0000
0001
0000
,
0010
0000
1000
0000
,
0100
0100
0010
0010
,
0100
0010
0100
0010
,
1000
1000
0001
0000
,
0001
0001
1000
0000
,
0001
0001
1000
1000
,
0001
1000
0001
0000
,
0010
0010
0010
0000
,
0100
0100
0100
0000
,
0001
0001
1000
1000
,
0001
1000
0001
1000
,
2002
0000
0000
0000
,
0000
0000
0000
0000
,
3003
0000
0000
0000
;

//---------------dance-double - ----------------
#NOTES:
     dance-double:
     :
     Easy:
     5:
     0.230311,0.321130,0.084851,0.091378,0.000000,247.000000,234.000000,13.000000,14.000000,0.000000,0.000000,0.230311,0.321130,0.084851,0.091378,0.000000,247.000000,234.000000,13.000000,14.000000,0.000000,0.000000:
// measure 0
00000000
00000000
00000000
00000000
,  // measure 1
00000000
00000000
00000000
00000000
,  // measure 2
00000000
00000000
00000000
00000000
,  // measure 3
00000000
00000000
00000000
00000000
,  // measure 4
00001000
00001000
00001000
00001000
,  // measure 5
00010000
00010000
00010000
00010000
,  // measure 6
00001000
00001000
00010000
00010000
,  // measure 7
00001000
00001000
00010000
00000000
,  // measure 8
00200000
00000000
00000000
00300000
,  // measure 9
00002000
00000000
00000000
00003000
,  // measure 10
02000000
00000000
00000000
03000000
,  // measure 11
00020000
00000000
00000000
00030000
,  // measure 12
00200000
00000000
00301000
00000000
,  // measure 13
00020000
00000000
00031000
00000000
,  // measure 14
00020000
00000000
00030010
00000000
,  // measure 15
00002000
00000000
00003010
00000000
,  // measure 16
00000000
00001000
00000000
00001000
,  // measure 17
00000000
00000100
00000000
00000100
,  // measure 18
00000000
00010000
00000000
00010000
,  // measure 19
00000000
01000000
00000000
01000000
,  // measure 20
00000000
00010000
00000000
00100000
,  // measure 21
00000000
01000000
00000000
10000000
,  // measure 22
00000000
01000000
00000000
00100000
,  // measure 23
00000000
00010000
00000000
00000000
,  // measure 24
00011000
00000000
00100000
00000000
,  // measure 25
00011000
00000000
00000010
00000000
,  // measure 26
00011000
00000000
01000000
00000000
,  // measure 27
00011000
00000000
00000100
00000000
,  // measure 28
00010000
00010000
00010000
00010000
,  // measure 29
00001000
00001000
00001000
00001000
,  // measure 30
00010000
00010000
00001000
00001000
,  // measure 31
00011000
00100000
00011000
00000100
,  // measure 32
00010000
00010000
00001000
00001000
,  // measure 33
00010000
00001000
00010000
00001000
,  // measure 34
01000000
01000000
00010000
00010000
,  // measure 35
01000000
10000000
01000000
00001000
,  // measure 36
00010000
00010000
00001000
00001000
,  // measure 37
00010000
00001000
00010000
00000100
,  // measure 38
00001000
00001000
00000001
00000001
,  // measure 39
00001000
00000100
00000001
00001001
,  // measure 40
00000010
00000010
00001000
00011000
,  // measure 41
00100000
00100000
00010000
00011000
,  // measure 42
00000010
00000000
00011000
00000000
,  // measure 43
00100000
00000000
00011000
00000000
,  // measure 44
00000010
00010000
00001000
00100000
,  // measure 45
00001000
00010000
00000010
00010000
,  // measure 46
00000100
00010000
00001000
01000000
,  // measure 47
00001000
00010000
00001000
00011000
,  // measure 48
00020000
00030000
00002000
00003000
,  // measure 49
02000000
03000000
00020000
00030000
,  // measure 50
10000000
01000000
00010000
00000000
,  // measure 51
00001000
00000100
00000001
00000000
,  // measure 52
00000001
00000001
00001000
00001000
,  // measure 53
00000010
00000010
00001000
00001000
,  // measure 54
00000100
00000100
00010000
00010000
,  // measure 55
00001000
00001000
01000000
01000000
,  // measure 56
00010000
01000000
10000000
00000000
,  // measure 57
10000000
01000000
00010000
00000000
,  // measure 58
00001000
00000010
00000001
00000000
,  // measure 59
00000001
00000010
00001000
00000000
,  // measure 60
00001000
00001000
00000100
00000100
,  // measure 61
00001000
00001000
00010000
00010000
,  // measure 62
01000000
01000000
00010000
00010000
,  // measure 63
00001000
00001000
00000100
00000000
,  // measure 64
00001000
00000010
00001000
00000000
,  // measure 65
00010000
00100000
00010000
00000000
,  // measure 66
10000000
01000000
00010000
00000000
,  // measure 67
00001000
00000100
00000001
00000000
,  // measure 68
00001000
00001000
00000010
00000000
,  // measure 69
00001000
00001000
00100000
00000000
,  // measure 70
00010000
00010000
00000010
00000000
,  // measure 71
00010000
00010000
00100000
00000000
,  // measure 72
10000000
10000000
00010000
00010000
,  // measure 73
00001000
00001000
00000001
00000001
,  // measure 74
00001000
00000001
00001000
00000100
,  // measure 75
00010000
00001000
00001000
00010000
,  // measure 76
00010000
00000000
00001000
00001000
,  // measure 77
01000000
00000000
00100000
00100000
,  // measure 78
10000000
10000000
01000000
01000000
,  // measure 79
00001000
00001000
00010000
00010000
,  // measure 80
00022000
00000000
00000000
00000000
,  // measure 81
00000000
00000000
00000000
00000000
,  // measure 82
00033000
00000000
00000000
00000000
;
