#TITLE:はじまりの空;
#SUBTITLE:;
#ARTIST:+plus;
#TITLETRANSLIT:Hajimari no Sora;
#SUBTITLETRANSLIT:;
#ARTISTTRANSLIT:;
#GENRE:;
#CREDIT:;
#BANNER:Hajimari no Sora.png;
#BACKGROUND:Hajimari no Sora-bg.png;
#LYRICSPATH:;
#CDTITLE:;
#MUSIC:Hajimari no Sora.ogg;
#OFFSET:0.000000;
#SAMPLESTART:55.217392;
#SAMPLELENGTH:13.913048;
#SELECTABLE:YES;
#BPMS:0.000000=138.000000
;
#STOPS:
;
#BGCHANGES:;
#KEYSOUNDS:;
#ATTACKS:;

//---------------dance-single - ----------------
#NOTES:
     dance-single:
     :
     Hard:
     13:
     0.549919,0.597552,0.187320,0.084294,0.365275,411.000000,391.000000,20.000000,9.000000,0.000000,0.000000,0.549919,0.597552,0.187320,0.084294,0.365275,411.000000,391.000000,20.000000,9.000000,0.000000,0.000000:
0000
0000
0000
0000
,
0000
0000
0000
0000
,
0000
0000
0000
0000
,
0000
0000
0000
0000
,
1001
0000
0000
0000
0010
0000
0100
0000
0010
0000
0000
0001
1000
0000
0001
0000
,
0100
0000
0000
0000
0001
0000
1000
0000
0001
0000
0000
1000
0010
0000
0100
0000
,
0010
0000
1000
0100
0010
0000
0100
0010
,
0001
0000
0000
0001
0000
0000
1001
0000
0000
0000
0000
0000
1000
0000
0001
0000
,
0100
0000
0000
0001
0100
0000
0001
0000
1000
0000
0100
0000
0010
0000
0001
0000
,
0100
0000
0000
0010
0100
0000
0010
0000
1000
0000
0010
0000
0100
0000
0001
0000
,
0100
0000
0000
0010
0100
0000
0010
0000
1000
0000
0000
0001
1000
0000
0001
0000
,
0100
0000
0000
0010
1000
0000
0010
0000
0100
0001
0000
0001
0100
0000
0001
0000
,
1000
0000
0000
0001
1000
0000
0001
0000
0100
0000
0010
0000
0100
0000
0001
0000
,
1000
0000
0000
0001
1000
0000
0001
0000
0100
0000
0010
0000
1000
0000
0010
0000
,
0100
0000
0000
0001
0100
0000
0001
0000
1000
0000
0000
0100
1000
0000
0100
0000
,
1000
0000
0000
0001
0000
0000
1000
0000
1001
0000
0000
0000
0110
0000
0000
0000
,
1000
0000
0010
1000
0010
0000
0100
0000
0010
0000
0000
0000
0100
0001
0100
0000
,
0010
0000
1000
0010
1000
0000
0010
0000
0100
0000
0000
0000
0001
1000
0001
0000
,
0100
0000
0000
0100
0000
0000
0001
0000
1000
0000
0000
1000
0000
0000
0001
0000
,
0010
0000
0001
0010
0001
0000
0100
0000
0010
0000
0000
0000
1000
0000
0001
0000
,
0100
0000
0001
0100
0001
0000
0100
0000
0010
0000
0000
0000
1000
0000
0010
0000
,
0100
0000
0010
0100
0010
0000
0100
0000
0010
0000
0000
0000
1000
0000
0001
0000
,
0100
0000
0010
0100
0000
0000
0001
0000
1000
0000
0010
0100
0000
0000
0010
0000
,
1000
0010
1000
0010
1000
0000
0010
0000
0100
0000
0000
0000
0001
0000
1000
0000
,
0001
0100
0010
1000
0001
0010
0100
1000
,
0200
0000
1300
0020
0000
0030
0100
0001
,
1000
0010
0100
0001
1000
0100
0010
0001
,
0200
0000
0301
0020
0000
0031
0100
0000
,
0001
0000
0000
0100
0001
0000
0100
0000
0010
0000
0000
0010
0000
0000
1000
0000
,
0010
0100
0010
0100
0010
0000
1000
0000
0010
0000
0000
1010
0000
0000
0100
0000
,
0101
0000
0000
0001
0000
0000
1000
0000
1001
0000
0000
1000
0000
0000
0001
0000
,
0101
0100
0110
0010
1001
0000
1000
0010
,
0100
0000
0000
0100
0000
0000
0100
0000
0001
0000
0100
0000
1000
0000
0100
0000
,
0001
0000
0010
0001
0000
0000
0100
0000
0001
0000
1000
0000
0010
0000
1000
0000
,
0001
0010
0100
1000
0001
0100
0001
0010
,
0001
0000
0000
1001
0000
0000
2000
0000
0010
0000
0000
0010
0000
0000
3010
0000
,
0100
0000
0010
0100
0000
0010
0000
0100
0010
0000
1000
0000
0001
0000
0000
0000
,
0100
0000
0001
0100
0000
0001
0000
0100
0001
0000
1000
0000
0100
0000
0010
0000
,
0001
0000
0000
0100
0000
0000
1000
0000
0100
0000
0000
0010
0000
0000
0001
0000
,
0100
0000
0000
0110
0000
0000
1000
0000
1001
0000
0000
0000
0001
0000
0100
0000
,
0010
0000
0100
0010
0000
0000
0100
0000
0001
0000
1000
0000
0001
0000
0000
0000
,
1000
0000
0100
1000
0000
0000
0001
0000
0100
0000
0001
0000
0010
0000
0000
0000
,
0000
0000
0001
0100
0001
0000
0100
0000
0010
0000
1000
0000
0010
0000
1000
0000
,
0002
0000
0103
0010
0000
2000
0002
3003
,
0100
0000
0010
1000
0010
0000
0100
0000
0001
0000
0010
0000
0100
0000
1000
0000
,
0010
0000
0100
0001
0100
0000
0010
0000
1000
0000
0100
0000
0010
0000
0001
0000
,
0100
0000
0000
0100
0001
0000
0000
0001
1000
0000
0000
1000
0010
0000
0000
0010
,
0100
0000
0000
1001
0000
0000
0100
0000
0010
0000
0000
0000
1100
0000
1100
0000
,
0101
0000
0000
0001
0100
0000
0001
0000
0100
0000
0010
0000
1000
0100
1000
0100
,
1000
0000
0000
0010
1000
0000
0010
0000
0100
0000
0001
0000
0010
0001
0010
0001
,
0010
0000
0000
0001
0100
0000
0001
0000
0010
0000
0000
0001
1000
0000
0001
0000
,
0100
0000
0000
0100
1000
0000
0000
1000
0010
0000
0000
0010
0100
0000
0001
0000
,
1000
0000
0000
1001
0000
0000
0001
0000
0100
0000
0010
0000
1000
0000
0010
0000
,
0100
0000
0000
0110
0000
0000
1000
0000
0100
0000
0010
0000
0001
0000
0100
0000
,
0001
0000
0000
0100
0000
0000
0001
1000
0001
0000
0000
0100
0000
0000
1000
0001
,
1000
0000
0000
0100
0000
0000
1000
0000
1001
0000
0000
0000
0010
0100
0010
0100
,
0020
0000
0000
0000
,
0000
0000
0000
0000
,
0030
0000
0000
0000
;

//---------------dance-single - ----------------
#NOTES:
     dance-single:
     :
     Medium:
     7:
     0.367951,0.461745,0.487033,0.327811,0.009366,275.000000,223.000000,52.000000,35.000000,0.000000,0.000000,0.367951,0.461745,0.487033,0.327811,0.009366,275.000000,223.000000,52.000000,35.000000,0.000000,0.000000:
0000
0000
0000
0000
,
0000
0000
0000
0000
,
0000
0000
0000
0000
,
0000
0000
0000
0000
,
1001
0100
1000
0100
,
1001
0100
0001
0100
,
1001
0010
1000
0100
,
2002
0000
0000
3003
0000
0000
0010
1000
,
0010
0000
0110
0000
0001
0100
1000
0000
,
0110
0000
1001
0000
1000
0100
0001
0000
,
1000
0010
1000
0000
0001
0100
0001
0000
,
1000
0100
0010
0000
0001
0100
0010
0000
,
1010
0000
0101
0000
1000
0001
0100
0000
,
0101
0000
1010
0000
0001
1000
0010
0000
,
2200
3300
0022
0033
,
0010
0000
0000
0010
0000
0000
1000
0000
0001
0000
0000
0000
1001
0000
0000
0000
,
0010
1000
0100
1000
0010
0000
0100
0000
,
0001
0010
0001
0100
0001
0000
1000
0000
,
0020
0030
0200
0300
,
0001
1000
0001
0100
0001
0000
1000
0000
,
0010
1000
0010
0000
1000
0000
0100
0000
,
0001
0010
0001
0000
0100
0000
0010
0000
,
1000
0001
1000
0000
0001
1000
0001
0000
,
0100
0010
1001
0000
,
2000
3100
0002
0103
,
0010
0000
1000
0001
0000
0000
0100
0000
,
0002
0013
2000
3100
,
0010
0000
0001
0100
0000
0001
1000
0000
,
0110
0000
1001
0000
1000
0100
1000
0000
,
0110
0000
1001
0000
0001
0100
0001
0000
,
1100
0000
0101
0000
,
1010
0000
0011
0000
0110
0000
0001
0100
,
0020
0000
0030
0000
1000
0100
1000
0000
,
0020
0000
0030
0000
0001
0100
0001
0000
,
0020
0030
1000
0100
,
0001
0000
1000
0000
0001
0000
0100
0010
,
0200
0000
0300
0000
0001
1000
0100
1000
,
0002
0000
0003
0000
1000
0001
0010
0001
,
2000
3000
0002
0003
,
0110
0000
1001
0000
0110
0000
1000
0010
,
0200
0000
0300
0000
0001
0100
0010
0000
,
2000
0000
3000
0000
0001
0100
0010
0000
,
2000
3000
0200
0300
,
0001
0000
1000
0001
0000
2002
3003
0000
,
0000
0010
1000
0000
0100
0000
0101
0000
,
0000
0010
0001
0000
0100
0000
1100
0000
,
1001
1001
0110
0110
,
1010
0101
1010
0000
,
0220
0000
0330
0000
0001
1000
0100
0000
,
0220
0000
0330
0000
1000
0001
0100
0000
,
0011
1010
1100
0101
,
1010
0000
1010
0000
1100
0000
0001
0100
,
1000
0000
0110
0000
1000
0010
0001
0000
,
1100
0000
0011
0000
1000
0100
0010
0000
,
0022
0033
2200
3300
,
0010
0000
0000
0010
0000
0000
0001
0000
1000
0000
0000
0000
0000
0000
0000
0000
,
2002
0000
0000
0000
,
0000
0000
0000
0000
,
3003
0000
0000
0000
;

//---------------dance-single - ----------------
#NOTES:
     dance-single:
     :
     Easy:
     5:
     0.236826,0.325937,0.224784,0.402739,0.000000,177.000000,153.000000,24.000000,43.000000,0.000000,0.000000,0.236826,0.325937,0.224784,0.402739,0.000000,177.000000,153.000000,24.000000,43.000000,0.000000,0.000000:
0000
0000
0000
0000
,
0000
0000
0000
0000
,
0000
0000
0000
0000
,
0000
0000
0000
0000
,
0002
0000
0003
1000
,
0002
0000
0003
0100
,
0002
0000
0000
0013
,
2002
3003
0000
0000
,
0010
0000
1000
0001
,
0100
0000
0001
1000
,
0200
0300
2000
3000
,
0020
0030
0002
0003
,
2002
3003
0010
0100
,
2002
3003
0100
0010
,
2200
3300
0022
0033
,
1000
0001
1001
0000
,
0010
0010
0001
0000
,
0010
0010
1000
0000
,
0001
0100
1000
0100
,
0001
1000
1001
0000
,
0010
0010
1001
0000
,
0100
0100
1001
0000
,
1000
0010
0001
0010
,
1000
0001
1001
0000
,
0010
0010
0001
0001
,
0100
0010
0100
0000
,
0010
0010
1000
1000
,
0100
0010
0100
0000
,
2002
3003
0001
0100
,
2000
3000
0100
0001
,
2002
3003
0220
0330
,
1001
1001
1001
0000
,
0010
0010
0001
0100
,
0010
0010
1000
0100
,
1000
0100
0010
0001
,
0100
0010
0220
0330
,
0001
0001
2000
3000
,
0001
0001
2000
3000
,
0020
0030
0200
0300
,
0001
0100
1001
0000
,
0010
1000
0100
0001
,
0010
0001
0100
1000
,
0002
0003
2000
3000
,
0010
0100
2002
3003
,
0010
0010
0001
0100
,
0010
0010
1000
0100
,
0001
0001
1000
1000
,
0010
0100
1001
0000
,
0002
0000
0000
0000
,
2003
0000
0000
0000
,
3020
0000
0000
0130
,
0002
0003
2000
3000
,
0010
0010
1000
0100
,
0010
0010
0001
0100
,
0002
0003
2000
3000
,
1001
1001
1001
0000
,
2002
0000
0000
0000
,
0000
0000
0000
0000
,
3003
0000
0000
0000
;

//---------------dance-single - ----------------
#NOTES:
     dance-single:
     :
     Beginner:
     3:
     0.131124,0.190130,0.018732,0.103026,0.000000,98.000000,96.000000,2.000000,11.000000,0.000000,0.000000,0.131124,0.190130,0.018732,0.103026,0.000000,98.000000,96.000000,2.000000,11.000000,0.000000,0.000000:
0000
0000
0000
0000
,
0000
0000
0000
0000
,
0000
0000
0000
0000
,
0000
0000
0000
0000
,
0010
0000
0000
0000
,
0001
0000
0000
0000
,
0100
0000
0000
0000
,
1000
0000
0000
0000
,
0010
0000
0100
0000
,
0010
0000
0100
0000
,
0001
0000
0100
0000
,
1000
0000
0100
0000
,
0010
0000
0100
0000
,
0010
0000
0100
0000
,
1000
0000
0100
0000
,
0001
0000
0100
0000
,
0001
0000
0001
0000
,
1000
0000
1000
0000
,
0010
0000
0010
0000
,
0100
0000
0100
0000
,
0001
0000
0100
0000
,
1000
0000
0100
0000
,
0010
0000
0010
0000
,
0100
0000
0100
0000
,
0001
0000
0001
0000
,
2000
0000
3000
0000
,
0001
0000
0001
0000
,
2000
0000
3000
0000
,
0010
0000
1000
0000
,
0010
0000
0001
0000
,
0010
0000
0010
0000
,
0100
0100
0100
0000
,
0001
0000
1000
0000
,
0001
0000
1000
0000
,
0010
0000
0010
0000
,
0100
0000
0100
0000
,
1000
0000
0001
0000
,
1000
0000
0001
0000
,
0100
0000
0100
0000
,
0010
0000
0010
0000
,
1000
0000
0001
0000
,
0100
0000
0100
0000
,
0001
0000
1000
0000
,
0100
0000
0100
0000
,
1000
0000
0001
0001
,
0000
0000
1000
1000
,
2000
0000
3000
0000
,
0010
0000
0100
0000
,
2002
0000
3003
0000
,
0200
0000
0300
0000
,
0020
0000
0030
0000
,
0001
0000
1000
0000
,
0020
0000
0030
0000
,
0200
0000
0300
0000
,
0001
0000
1000
0000
,
0010
0010
0010
0000
,
2002
0000
0000
0000
,
0000
0000
0000
0000
,
3003
0000
0000
0000
;

//---------------dance-double - ----------------
#NOTES:
     dance-double:
     :
     Hard:
     13:
     0.507103,0.516067,0.187320,0.018732,0.257565,379.000000,359.000000,20.000000,2.000000,0.000000,0.000000,0.507103,0.516067,0.187320,0.018732,0.257565,379.000000,359.000000,20.000000,2.000000,0.000000,0.000000:
00000000
00000000
00000000
00000000
,
00000000
00000000
00000000
00000000
,
00000000
00000000
00000000
00000000
,
00000000
00000000
00000000
00000000
,
10010000
00000000
01000000
00010000
01000000
00000000
00001000
00010000
,
00001000
00000000
00000010
00001000
00000010
00000000
00010000
00001000
,
00010000
00000000
01000000
00010000
01000000
00000000
00100000
00000000
,
10010000
00000000
00000000
10010000
00000000
00000000
10010000
00000000
00000000
00000000
00000000
00000000
10000000
00000000
00100000
00000000
,
01000000
00000000
00000000
01000000
00000000
00000000
01000000
00000000
00010000
00000000
00100000
00000000
00001000
00000000
00010000
00000000
,
00000100
00000000
00000000
00000100
00000000
00000000
00000100
00000000
00010000
00000000
00001000
00000000
00100000
00000000
00010000
00000000
,
01000000
00000000
00000000
00100000
01000000
00000000
00100000
00000000
10000000
00000000
00000000
00010000
10000000
00000000
00010000
00000000
,
00100000
00000000
00001000
00000000
00010000
00000000
00000100
00001000
,
00000010
00000000
00000000
00000010
00000000
00000000
00000010
00000000
00001000
00000000
00000100
00000000
00010000
00000000
00001000
00000000
,
00100000
00000000
00000000
00100000
00000000
00000000
00100000
00000000
00001000
00000000
00010000
00000000
00000100
00000000
00001000
00000000
,
00000001
00000000
00000000
00000001
00000000
00000000
00001000
00000000
00000100
00000000
00000000
00000100
00000000
00000000
00010000
00000000
,
00001000
00000000
00000000
00001000
00000000
00000000
01000000
00000000
00010000
00000000
00000000
00000000
10010000
00000000
00000000
00000000
,
01000000
10000000
00100000
01000000
00010000
00000000
00101000
00000000
,
00010000
00000100
00001000
00000010
00000100
00000000
00001001
00000000
,
00001000
00000000
00000100
00001000
00000000
00000000
00000100
00000000
00010000
00000000
00001000
00010000
00000000
00000000
00001000
00000000
,
01000000
00001000
00000000
00001000
00010000
00000000
00001000
00000000
01000000
00000000
00000000
00000000
01010000
00000000
00000000
00000000
,
10000000
00000000
00100000
10000000
00100000
00000000
01000000
00000000
00010000
00000000
00000000
00000000
00100000
00000000
00001000
00000000
,
00010000
00000000
00000100
00001000
00000100
00000000
00010000
00000000
00000100
00000000
00000000
00000000
00001000
00000000
00000010
00000000
,
00000100
00000000
00000001
00001000
00000000
00000000
00000100
00000000
00010000
00000000
00001000
00010000
00000000
00000000
00001000
00000000
,
01000000
00000000
00010000
01000000
00010000
00000000
01000000
00000000
01000000
00000000
00000000
00000000
10100000
00000000
00000000
00000000
,
10000000
00100000
01000000
00010000
01000000
00000000
00001000
00010000
,
00000100
00000000
00001000
00000001
00000000
00001000
00000010
00000100
,
00000010
00001000
00000100
00000000
00010000
00001000
01000000
00001000
,
01000000
00000000
00010000
01000000
00000000
00100000
10000000
00000000
,
00100000
01000000
00100000
01000000
00100000
00000000
10000000
00000000
00010000
00000000
00000000
00000000
00011000
00000000
00000000
00000000
,
00001000
00000100
00001000
00000100
00001000
00000000
00000010
00000000
00000100
00000000
00000000
00000000
00000101
00000000
00000000
00000000
,
00001000
00000000
00000010
00001000
00000000
00000000
00000000
00000000
00010000
00000000
00001000
00010000
00000000
00000000
00001000
00000000
,
01000000
00010000
10000000
00100000
01100000
00000000
10000000
00100000
,
01000000
00000000
00000000
01000000
00000000
00000000
00001000
00000000
00010000
00000000
00000100
00000000
00001000
00000000
00000001
00000000
,
00000100
00000000
00000000
00000100
00000000
00000000
00000001
00000000
00001000
00000000
00000100
00000000
00010000
00000000
00000000
00000000
,
00001000
00000000
00010000
00001000
00010000
00000000
00001000
00000000
00100000
00000000
00010000
00000000
01000000
00000000
00100000
00000000
,
10000000
00000000
00000000
10000000
00000000
00000000
00010000
00000000
01000000
00000000
00000000
01000000
00000000
00000000
00010000
00000000
,
00100000
00000000
00010000
00100000
00000000
00010000
00000000
00000000
00100000
00000000
00001000
00000000
00010000
00000000
00000010
00000000
,
00001000
00000000
00000100
00001000
00000000
00000000
00000100
00000000
00001000
00000000
00000010
00000000
00000100
00000000
00000001
00000000
,
00001000
00000000
00000000
00001000
00000000
00000000
00001000
00000000
00000100
00000000
00010000
00000000
00001000
00000000
01000000
00000000
,
00100000
00000000
00000000
00100000
00000000
00000000
10000000
00000000
10010000
00000000
00000000
00000000
11000000
00000000
00000000
00000000
,
00110000
00000000
00000000
00010000
00000000
00000000
00010000
00000000
01000000
00000000
00001000
00000000
00010000
00000000
00000100
00000000
,
00001000
00000000
00000000
00001000
00000000
00000000
00000001
00000000
00001000
00000000
00000100
00000000
00010000
00000000
00001000
00000000
,
01000000
00000000
00010000
01000000
00010000
00000000
01000000
00000000
00100000
00000000
10000000
00000000
01000000
00000000
00100000
00000000
,
00001000
00000000
00010000
00000100
00000000
00001010
00000000
00000000
,
00000001
00000000
00000100
00000010
00000100
00000000
00000001
00000000
00001000
00000000
00000100
00000000
00010000
00000000
00001000
00000000
,
01000000
00000000
00010000
01000000
00010000
00000000
10000000
00000000
00010000
00000000
00100000
00000000
00001000
00000000
00010000
00000000
,
00000100
00000000
00000000
00000100
00001000
00000000
00000000
00001000
00000010
00000000
00000000
00000010
00000100
00000000
00000001
00000000
,
00001000
00000000
00000000
00001100
00000000
00000000
00000100
00000000
00010000
00000000
00000000
00000000
00101000
00000000
00000000
00000000
,
00010000
00000000
00000000
00010000
00000000
00000000
00010000
00000000
10000000
00000000
01000000
00000000
00100000
00000000
00001000
00000000
,
00010000
00000000
00000000
00010000
00000000
00000000
00010000
00000000
00000100
00000000
00001000
00000000
00000010
00000000
00000100
00000000
,
00000001
00000000
00000000
00000001
00000000
00000000
00000001
00000000
00001000
00000000
00000100
00000000
00010000
00000000
00001000
00000000
,
00100000
00000000
00000000
00100000
00010000
00000000
00000000
00010000
01000000
00000000
00000000
01000000
00100000
00000000
10000000
00000000
,
01000000
00000000
00000000
01000000
00000000
00000000
00010000
00000000
00100000
00000000
00001000
00000000
00010000
00000000
00000010
00000000
,
00000100
00000000
00000000
00000100
00000000
00000000
00000100
00000000
00000010
00000000
00010000
00000000
00001000
00000000
01000000
00000000
,
00100000
00000000
00000000
00100000
10000000
00000000
01000000
00000000
00100000
00000000
00000000
00100000
00001000
00000000
00010000
00000000
,
00000100
00000000
00000000
00001100
00000000
00000000
00000010
00000000
00000011
00000000
00000000
00000000
00000100
00000000
00020000
00000000
,
00002000
00000000
00000000
00000000
,
00000000
00000000
00000000
00000000
,
00033000
00000000
00000000
00000000
;

//---------------dance-double - ----------------
#NOTES:
     dance-double:
     :
     Medium:
     7:
     0.355909,0.461745,0.299712,0.280980,0.000000,266.000000,234.000000,32.000000,30.000000,0.000000,0.000000,0.355909,0.461745,0.299712,0.280980,0.000000,266.000000,234.000000,32.000000,30.000000,0.000000,0.000000:
// measure 0
00000000
00000000
00000000
00000000
,  // measure 1
00000000
00000000
00000000
00000000
,  // measure 2
00000000
00000000
00000000
00000000
,  // measure 3
00000000
00000000
00000000
00000000
,  // measure 4
10010000
00000000
10000000
01000000
00000000
00000000
01000000
00010000
,  // measure 5
00100000
00000000
00100000
00001000
00000000
00000000
00001000
00010000
,  // measure 6
00000100
00000000
00001000
00000001
00000000
00000000
00001000
00000000
,  // measure 7
00000200
00000000
00000000
00000300
00000000
00000000
00010000
00000000
,  // measure 8
00002000
00000000
00010000
00000000
00013000
00000000
00100000
00010000
,  // measure 9
02000000
00000000
00100000
00000000
03100000
00000000
00100000
10000000
,  // measure 10
02000000
00000000
03000000
00000000
10000000
00010000
01000000
00000000
,  // measure 11
00020000
00230000
00302000
00023000
,  // measure 12
00030200
00000000
00001000
00000000
00001300
00000000
00000010
00000100
,  // measure 13
00000002
00000000
00001000
00000000
00001003
00000000
00000010
00001000
,  // measure 14
00000200
00000300
00020000
00030000
,  // measure 15
00001000
00110000
01010000
00000000
,  // measure 16
00100000
00000000
10000000
01000000
10000000
00000000
00100000
00000000
,  // measure 17
00001000
00000000
00010000
00000100
00010000
00000000
00000010
00000000
,  // measure 18
00001000
00000000
00000100
00001000
00000100
00000000
00001000
00000001
,  // measure 19
00001000
00000000
00000100
00001000
00000100
00000000
00010000
00000000
,  // measure 20
00001000
00000000
00100000
00010000
01000000
00000000
00010000
00000000
,  // measure 21
00100000
00000000
00001000
00010000
00000100
00000000
00001000
00000000
,  // measure 22
00000001
00001000
00000100
00000000
00001000
00000100
00010000
00000000
,  // measure 23
00010000
00001000
00010000
00000000
00002000
00000000
00103000
00000000
,  // measure 24
00100000
00010000
01000000
00010000
00100000
00000000
00010000
00000000
,  // measure 25
10000000
01000000
00100000
00001000
,  // measure 26
00010000
00000100
00010000
00001000
00010000
00000000
00000100
00000000
,  // measure 27
00001000
00000010
00000100
00001001
,  // measure 28
00000001
00000100
00000001
00000000
00000101
00000000
00001100
00000000
,  // measure 29
00000100
00010000
00000100
00000000
00011000
00000000
00110000
00000000
,  // measure 30
02020000
03030000
20200000
30300000
,  // measure 31
00110000
00000000
00011000
00000000
00001100
00000000
00000010
00001000
,  // measure 32
00000200
00000000
00000300
00000000
00010000
00001000
01000000
00000000
,  // measure 33
00200000
00000000
00300000
00000000
10000000
00010000
01000000
00000000
,  // measure 34
00001000
00000000
00010000
00000000
00000100
00001000
00000100
00000000
,  // measure 35
00001000
00000010
00002002
00003003
,  // measure 36
00000001
00000000
00000100
00000000
00001000
00000010
00000100
00000000
,  // measure 37
00001000
00000000
00000100
00000000
00010000
00001000
00010000
00001000
,  // measure 38
00010000
00001000
00200000
00300000
,  // measure 39
01010000
10100000
01000000
10010000
,  // measure 40
00100000
01000000
00100000
00000000
10000000
00010000
10000000
00000000
,  // measure 41
00010000
00100000
00010000
00000000
00100000
00001000
00100000
00000000
,  // measure 42
00000000
00001000
00010000
00000100
00010000
00000000
00001000
00000000
,  // measure 43
00000100
00000000
00001000
00000010
00000000
00000220
00000000
00000330
,  // measure 44
00000000
00000001
00001000
00000000
00000100
00000000
00011000
00000000
,  // measure 45
00000000
00100000
00010000
00000000
00100000
00000000
00011000
00000000
,  // measure 46
00001100
00001100
00011000
00011000
,  // measure 47
00110000
00000000
01010000
00000000
10010000
00000000
00100000
10000000
,  // measure 48
00200000
00000000
00000000
00000000
00300000
00000000
00010000
01000000
,  // measure 49
00020000
00000000
00000000
00000000
00030000
00000000
00100000
00001000
,  // measure 50
00020000
00000000
00000100
00000000
00030100
00000000
00000100
00001000
,  // measure 51
00000020
00000000
00000100
00000000
00001000
00000000
00000130
00000001
,  // measure 52
00001000
00000000
00001001
00000000
00000100
00001000
00000100
00000000
,  // measure 53
00011000
00000000
00010000
00000000
00100000
00010000
01000000
00000000
,  // measure 54
01100000
10000000
00010000
01000000
,  // measure 55
00001000
00010000
00011000
00000000
,  // measure 56
00022000
00000000
00000000
00000000
,  // measure 57
00000000
00000000
00000000
00000000
,  // measure 58
00033000
00000000
00000000
00000000
;

//---------------dance-double - ----------------
#NOTES:
     dance-double:
     :
     Easy:
     5:
     0.236826,0.353099,0.196686,0.224784,0.000000,177.000000,156.000000,21.000000,24.000000,0.000000,0.000000,0.236826,0.353099,0.196686,0.224784,0.000000,177.000000,156.000000,21.000000,24.000000,0.000000,0.000000:
// measure 0
00000000
00000000
00000000
00000000
,  // measure 1
00000000
00000000
00000000
00000000
,  // measure 2
00000000
00000000
00000000
00000000
,  // measure 3
00000000
00000000
00000000
00000000
,  // measure 4
00200000
00000000
00300000
00001000
,  // measure 5
00020000
00000000
00030000
00000010
,  // measure 6
00002000
00000000
00003000
00000010
,  // measure 7
00020000
00030000
00000000
00001000
,  // measure 8
00200000
00300000
00010000
01000000
,  // measure 9
00200000
00300000
10000000
01000000
,  // measure 10
00020000
00030000
00200000
00300000
,  // measure 11
00001000
00010000
00001000
00010000
,  // measure 12
00000010
00000010
00001000
00000001
,  // measure 13
00001000
00001000
00000010
00010000
,  // measure 14
00002000
00003000
02000000
03000000
,  // measure 15
10010000
00000000
01100000
00000000
,  // measure 16
10000000
00010000
10000000
00000000
,  // measure 17
00010000
01000000
00010000
00000000
,  // measure 18
00002000
00003000
00020000
00030000
,  // measure 19
00000010
00001000
00000001
00000000
,  // measure 20
00001000
00001000
00000100
00010000
,  // measure 21
00001000
00001000
01000000
00010000
,  // measure 22
20000000
30000000
00020000
00030000
,  // measure 23
10000000
00010000
01000000
00000000
,  // measure 24
10000000
00000000
00010000
00000000
,  // measure 25
00001000
00000000
00000001
00000000
,  // measure 26
00000010
00000000
00001000
00000000
,  // measure 27
00010000
00000000
00100000
00000000
,  // measure 28
10000000
01000000
10000000
00000000
,  // measure 29
00010000
01000000
00010000
00000000
,  // measure 30
00011000
00000000
00011000
00000000
,  // measure 31
00011000
00011000
00011000
00000000
,  // measure 32
00001000
00000000
00010000
00000100
,  // measure 33
00001000
00000000
00000010
00001000
,  // measure 34
00000001
00001000
00000010
00001000
,  // measure 35
00000100
00010000
00001000
01000000
,  // measure 36
00010000
00010000
10000000
10010000
,  // measure 37
10000000
10000000
00010000
10010000
,  // measure 38
10000000
00100000
01000000
00001000
,  // measure 39
00010000
00010000
00011000
00000000
,  // measure 40
00010000
00000010
00010000
00010000
,  // measure 41
00001000
01000000
00001000
00001000
,  // measure 42
00020000
00030000
00000020
00000030
,  // measure 43
00010000
00001000
00200000
00300000
,  // measure 44
00000000
00010000
00001000
10010000
,  // measure 45
00000000
00001000
00010000
00001001
,  // measure 46
00000010
00000010
00000010
00000010
,  // measure 47
00002002
00003003
00011000
00000000
,  // measure 48
10000000
01000000
00200000
00300000
,  // measure 49
00001000
00010000
00000020
00000030
,  // measure 50
00001000
00000001
00001000
00000100
,  // measure 51
00010000
00001000
02000000
03000000
,  // measure 52
10010000
10010000
00011000
00000000
,  // measure 53
00001001
00011000
00011000
00000000
,  // measure 54
00010000
00001000
00010000
00000000
,  // measure 55
00100000
00001000
00010000
00000100
,  // measure 56
00022000
00000000
00000000
00000000
,  // measure 57
00000000
00000000
00000000
00000000
,  // measure 58
00033000
00000000
00000000
00000000
;
