#TITLE:HAT TRICK;
#SUBTITLE:;
#ARTIST:P*Light;
#TITLETRANSLIT:;
#SUBTITLETRANSLIT:;
#ARTISTTRANSLIT:;
#GENRE:;
#CREDIT:;
#BANNER:HAT TRICK.png;
#BACKGROUND:HAT TRICK-bg.png;
#LYRICSPATH:;
#CDTITLE:;
#MUSIC:HAT TRICK.ogg;
#OFFSET:0.000000;
#SAMPLESTART:36.740002;
#SAMPLELENGTH:16.000000;
#SELECTABLE:YES;
#BPMS:0.000000=150.000000
;
#STOPS:164.000000=0.800000,
181.500000=0.400000,
209.000000=0.400000
;
#BGCHANGES:-1.500=HAT TRICK.AVI=1.000=1=0=0=StretchNoLoop==CrossFade==,
99999=-nosongbg-=1.000=0=0=0 // don't automatically add -songbackground-
;
#KEYSOUNDS:;
#ATTACKS:;

//---------------dance-single - ----------------
#NOTES:
     dance-single:
     :
     Hard:
     13:
     0.534668,0.621459,0.452603,0.574458,0.509178,430.000000,378.000000,52.000000,66.000000,0.000000,0.000000,0.534668,0.621459,0.452603,0.574458,0.509178,430.000000,378.000000,52.000000,66.000000,0.000000,0.000000:
0000
0000
0000
0000
,
0000
0000
0000
0000
,
0000
0000
0000
0000
,
0000
0000
0000
0000
,
1000
0000
1000
1001
0000
0010
0110
0000
,
1001
0000
0001
1001
0000
0100
0110
0000
,
1000
0100
1000
0100
0000
0000
0001
0100
0001
0100
0000
0000
,
2002
3003
0020
0130
,
2000
0000
0000
3000
,
0200
0000
0000
0300
,
0002
0000
0000
0003
,
0020
0000
0200
0330
,
1000
0001
0000
0001
0000
1000
0001
0000
2002
0000
0000
0000
3003
0000
0000
0000
,
0001
1000
0000
1000
0000
0001
1000
0000
2002
0000
0000
0000
3003
0000
0000
0000
,
1000
0010
0000
0010
0000
0100
0001
0000
2002
0000
0000
0000
3003
0000
0000
0000
,
1000
0100
0000
0100
0000
1000
0001
0000
2002
0000
0000
0000
3003
0000
0000
0000
,
0010
1000
0000
0100
0000
0000
0000
0000
0010
0001
0000
0100
0000
0000
0000
0000
,
0010
1000
0000
0010
0000
0000
0100
0000
0100
0000
0000
0000
0001
0000
0100
0000
,
1000
0010
0000
0000
0010
0100
0000
0000
0100
0001
0000
0001
0000
0000
1000
0000
,
0001
0001
1000
1000
0020
0000
0130
0000
,
2020
3030
0202
0303
,
2200
3300
0022
0033
,
0110
1001
0110
1001
,
2002
0000
0000
3003
,
2200
3300
0220
0330
0022
0033
1001
0000
,
0100
0001
0000
0001
0000
0000
1000
0000
0010
0100
0000
0100
0000
0000
0001
0000
,
1000
0010
0000
0010
0000
0000
0100
0000
0100
0000
0000
0000
0001
0000
0100
0000
,
0100
0001
0000
0000
0001
1000
0000
0000
1000
0010
0000
0010
0000
0000
0100
0000
,
0001
1000
0001
1000
0001
0000
0100
0000
0020
0000
0000
0000
0130
0000
0000
0000
,
0001
0100
0000
0100
0000
0000
0001
0000
1000
0010
0000
0010
0000
0000
1000
0000
,
0001
0100
0000
0100
0000
0010
0100
0000
0010
0000
0000
0000
1000
0000
0100
0000
,
0001
1000
0000
0000
1000
0001
0000
0000
0100
0010
0000
0010
0000
0000
1000
0000
,
0001
0000
0000
0100
0000
0000
0001
0000
0000
0100
0000
0000
0001
0000
0000
0000
0000
0000
0100
0000
0000
0000
0000
0000
0010
0000
0000
0000
0100
0000
0000
0000
0010
0000
0000
0000
0100
0000
0000
0000
0000
0000
0000
0000
0000
0000
0000
0000
,
0001
0000
0000
0100
0000
0001
0100
0000
0001
0000
1000
0000
0100
0000
0000
0000
,
1000
0000
0000
0001
0000
1000
0001
0000
1000
0000
0100
0000
1000
0000
0000
0000
,
0010
0100
0000
0010
0000
0000
1000
0000
0001
1000
0000
0001
0000
0000
1000
0000
,
0010
0100
0010
0100
0010
0000
0100
0000
0002
0000
0000
0000
1003
0000
0000
0000
,
0010
1000
0000
0100
0000
1000
0010
0000
0200
0000
0000
0000
0300
0000
0000
0000
,
0010
0100
0000
0001
0000
0100
0010
0000
0200
0000
0000
0000
0310
0000
0001
0000
,
1001
0000
0000
1001
0000
0000
0100
0000
0010
1000
0000
1000
0000
0010
0100
0000
,
0001
0100
0001
0100
0001
0000
1000
0000
2002
0000
0000
0000
3003
0000
0000
0000
,
0110
0000
1001
1001
,
1001
0000
1001
0000
1000
0100
1000
0010
,
1000
0001
1000
0000
0001
1000
0001
0000
1000
0000
0000
0001
0000
0000
0002
0000
,
0000
0000
0103
0000
0010
0000
0100
0000
0001
0000
0000
0001
0000
0000
0001
0000
,
0100
0010
1000
0200
0310
0000
0110
0000
,
0110
0000
0000
0000
0001
0000
0100
0000
0001
0000
1000
0000
0001
1000
0001
0000
,
1000
0001
1000
0000
0001
0000
0000
1000
0000
0000
2000
0000
0000
0000
3010
0000
,
0100
0001
0002
0000
2003
0000
3020
0000
,
0000
0000
0030
0000
1000
0001
0000
0000
0100
0000
0000
0000
0001
1000
0000
0000
,
0100
0000
0000
0000
1000
0001
0000
0000
1000
0000
0000
0000
0100
0000
0000
0000
,
1000
0000
0100
0000
1000
0000
0000
0000
0010
0000
0000
0000
0100
0001
0000
0100
,
0000
0001
2002
3003
0000
0000
0000
0000
,
2200
3300
0202
0303
,
2020
3030
0022
0033
,
0110
1100
0011
0110
,
2002
0000
0000
3003
,
0022
0033
0220
0330
2200
3300
1001
0000
,
0001
0100
0000
0001
0000
0000
0100
0000
1000
0100
0000
1000
0000
0000
0100
0000
,
0001
0100
0000
0001
0000
0000
0100
0000
0010
0000
0100
0000
0110
0000
0000
0000
,
1000
0100
0000
1000
0000
0100
1000
0000
0010
0000
0100
0000
0001
0000
0010
0000
,
0001
0010
0000
0001
0000
0100
0010
0000
1000
0000
0100
0000
0010
0000
0000
0000
,
0001
0100
0000
0100
0000
0000
0010
0000
1000
0010
0000
0010
0000
0000
0100
0000
,
0001
1000
0001
1000
0001
0000
0100
0000
0020
0000
0000
0000
1030
0000
0000
0000
,
0001
0100
0000
0100
0000
0001
1000
0000
1000
0100
0000
0100
0000
1000
0001
0000
,
0001
0010
0000
0010
0000
0001
0100
0000
0010
0000
1000
0000
0010
0000
0100
0000
,
0101
0000
0000
0101
0000
0000
0001
0000
1000
0000
0001
0000
0100
0000
0010
0000
,
1000
0001
1000
0001
1000
0000
0010
0000
0220
0000
0000
0000
0330
0000
0000
0000
,
1001
0000
0000
0000
;

//---------------dance-single - ----------------
#NOTES:
     dance-single:
     :
     Medium:
     9:
     0.404110,0.503086,0.548346,0.478715,0.000000,325.000000,262.000000,63.000000,55.000000,0.000000,0.000000,0.404110,0.503086,0.548346,0.478715,0.000000,325.000000,262.000000,63.000000,55.000000,0.000000,0.000000:
0000
0000
0000
0000
,
0000
0000
0000
0000
,
0000
0000
0000
0000
,
0000
0000
0000
0000
,
1001
0000
0000
0110
0000
0000
1001
0000
,
1001
0000
0000
0110
0000
0000
1001
0000
,
2000
3010
0002
0013
,
2002
3003
0200
0310
,
2000
0000
0000
3000
,
0002
0000
0000
0003
,
0200
0000
0000
0300
,
0020
0030
0200
0300
,
0002
0100
1003
0000
,
2000
0100
3001
0000
,
0002
0010
1003
0000
,
2000
0010
3001
0000
,
0010
0010
0100
0100
,
0001
1000
0001
0000
0100
0000
0010
1000
,
0010
1100
0101
0010
,
1000
0100
1000
0000
0202
0000
0303
0000
,
2020
3030
2200
3300
,
0202
0303
0022
0033
,
1001
0110
1001
0110
,
2002
0000
0000
3003
,
0010
0010
0010
1001
,
1000
0100
1000
0000
0001
0100
0001
0000
,
1000
0010
1000
0000
1001
0000
0110
0000
,
1000
0000
0001
0000
1000
0100
1000
0000
,
0001
0100
0001
0100
0001
0000
1001
0000
,
0010
0100
0010
0000
1000
0100
1000
0000
,
0010
0100
0010
0100
0010
0000
1100
0000
,
0101
0000
0011
0000
0001
0100
0001
0000
,
1000
1000
1000
0000
0202
0000
0303
0000
,
0010
1000
0100
0000
0110
0000
1001
0000
,
0010
0001
0100
0000
0110
0000
1001
0000
,
0100
0001
1000
0000
0100
1000
0001
0000
,
0010
0010
0010
0000
1001
0000
0110
0000
,
1000
0100
0001
0000
2002
0000
3003
0000
,
0001
0100
1000
0000
0001
0000
0010
0100
,
0020
0000
0030
0000
1000
0100
0001
0000
,
0001
0100
0001
0100
0002
0000
1003
0000
,
0110
0000
1100
1100
,
1100
0101
0101
0101
,
1001
0000
0110
0000
1000
0100
1000
0000
,
0001
0100
0001
0000
0010
0100
0010
0100
,
0010
0000
1000
0002
0103
0000
0001
0000
,
0101
0000
1000
0100
1000
0000
0001
0010
,
0001
0100
0010
1000
,
0001
0200
0000
0320
,
0000
1030
0001
1000
,
0001
0100
0100
0100
,
0001
1000
0001
0000
1000
0000
0010
0000
,
0100
0000
2002
3003
0000
0000
0000
0000
,
0020
0030
0200
0300
,
0002
0003
2000
3000
,
0110
1001
0110
1001
,
0220
0000
0000
0330
,
1100
0110
0011
1001
,
0220
0330
0220
0330
,
1000
0100
0010
0001
0100
0100
0100
0000
,
0002
0000
0203
0000
0301
0100
1000
0000
,
2000
0000
3200
0000
1300
0100
0001
0000
,
0010
0100
1001
0000
0100
0010
1001
0000
,
0001
0010
0100
1000
2002
0000
3003
0000
,
0010
0100
0010
0000
1000
0001
1000
0000
,
0001
0100
0001
0100
0001
0000
1000
0100
,
1001
0000
1100
0000
0001
0010
0100
0000
,
0001
0010
0100
0000
0220
0000
0330
0000
,
1001
0000
0000
0000
;

//---------------dance-single - ----------------
#NOTES:
     dance-single:
     :
     Beginner:
     4:
     0.177808,0.266339,0.147966,0.060927,0.000000,143.000000,126.000000,17.000000,7.000000,0.000000,0.000000,0.177808,0.266339,0.147966,0.060927,0.000000,143.000000,126.000000,17.000000,7.000000,0.000000,0.000000:
0000
0000
0000
0000
,
0000
0000
0000
0000
,
0000
0000
0000
0000
,
0000
0000
0000
0000
,
1001
0000
0000
0000
,
1001
0000
0000
0000
,
0110
0000
0110
0000
,
0110
0000
0000
0000
,
2000
0000
3000
0000
,
0002
0000
0003
0000
,
2000
0000
3000
0000
,
0002
0000
0003
0000
,
1001
0000
0000
0000
,
1001
0000
0000
0000
,
1001
0000
0000
0000
,
1001
0000
0000
0000
,
1000
0000
1000
0000
,
0001
0000
0001
0000
,
0100
0000
0100
0000
,
0010
0000
0010
0000
,
1000
0000
0001
0000
,
0100
0000
0010
0000
,
1000
1000
1000
1000
,
0000
0000
0000
0000
,
0100
0100
0100
0000
,
1000
0000
1000
0000
,
1000
0000
1000
0000
,
0001
0000
0001
0000
,
0001
0000
1001
0000
,
0100
0000
0100
0000
,
0010
0000
0010
0000
,
0100
0000
0100
0000
,
0100
0100
0100
0000
,
0001
0000
0100
0100
,
0100
0000
1000
0000
,
0001
0000
1000
0000
,
0010
0010
0010
0000
,
1000
0000
1001
0000
,
0001
0000
0001
0000
,
0100
0000
0100
0000
,
0010
0010
0010
0000
,
1000
0000
0200
0000
,
0000
0300
0100
0000
,
0100
0000
0001
0000
,
0001
0000
1000
0000
,
1000
0000
0002
0000
,
0003
0001
0000
0001
,
0000
1000
0000
1000
,
0000
0010
0000
0020
,
0030
0010
0000
0010
,
0000
0100
0000
0100
,
0000
0010
0000
0010
,
0000
1001
0000
0000
,
1000
0000
0001
0000
,
0100
0000
0010
0000
,
1000
1000
1000
1000
,
0000
0000
0000
0000
,
0010
0010
0010
0000
,
1001
0000
1001
0000
,
1001
0000
1001
0000
,
0010
0010
0010
0000
,
0100
0100
0100
0000
,
0001
0000
1000
0000
,
0001
0001
0001
0000
,
0100
0000
0010
0000
,
1000
0000
0001
0000
,
0100
0000
0100
0000
,
0010
0010
0010
0000
,
1001
0000
0000
0000
;

//---------------dance-single - Copied from----------------
#NOTES:
     dance-single:
     Copied from:
     Easy:
     6:
     0.282255,0.355119,0.365564,0.278525,0.000000,227.000000,185.000000,42.000000,32.000000,0.000000,0.000000,0.282255,0.355119,0.365564,0.278525,0.000000,227.000000,185.000000,42.000000,32.000000,0.000000,0.000000:
0000
0000
0000
0000
,
0000
0000
0000
0000
,
0000
0000
0000
0000
,
0000
0000
0000
0000
,
1001
0000
0000
0110
0000
0000
0000
0000
,
1001
0000
0000
0110
0000
0000
0000
0000
,
2002
3003
0220
0330
,
2002
0000
0000
3003
,
0020
0000
0030
0000
,
0002
0000
0003
0000
,
0200
0000
0300
0000
,
2000
0000
3000
0000
,
1000
0001
1001
0000
,
0001
1000
1001
0000
,
0010
0100
1001
0000
,
0100
0010
1001
0000
,
1000
0100
1000
0100
,
0001
0100
0001
0100
,
0010
0010
0010
0010
,
0020
0000
0030
0000
,
1001
0000
1001
0000
,
0110
0000
0110
0000
,
1000
0100
0010
0001
,
2002
0000
0000
3003
,
0100
0100
0100
0000
,
1000
0100
1000
0100
,
1000
0010
0001
0100
,
0001
0001
1000
1000
,
0001
1000
1001
0000
,
0001
0100
0001
0100
,
0001
0010
1000
0100
,
1000
1000
0001
0001
,
1000
0001
2002
3003
,
0100
0001
0100
0100
,
0010
1000
0010
0010
,
0002
0003
2000
3000
,
0010
0010
0110
1001
,
2002
3003
1001
0000
,
2002
3003
1001
0010
,
0100
0000
0110
0000
,
0001
1000
2002
3003
,
1001
0000
0010
0010
,
0001
0001
0010
0001
,
0010
1000
0100
0100
,
1000
1000
0100
1000
,
0002
1003
0002
0000
,
0003
0001
0100
0001
,
0100
1000
0100
1000
,
0100
0010
0001
0020
,
0030
0010
0000
0010
,
0000
0100
0000
0100
,
0000
0010
0000
0010
,
0000
1001
0000
0000
,
1001
0000
1001
0000
,
0110
0000
0110
0000
,
1000
0100
0010
0001
,
2002
0000
0000
3003
,
0010
0010
0010
0000
,
1001
0000
1001
0000
,
1001
1001
1001
0000
,
0010
1000
0010
0100
,
0010
0001
0010
0100
,
1000
1000
0001
0001
,
1000
0001
1001
0000
,
0100
0010
0100
0010
,
1000
1000
2002
3003
,
0010
0100
0010
0100
,
0001
0001
2002
3003
,
1001
0000
0000
0000
;

//---------------dance-double - ----------------
#NOTES:
     dance-double:
     :
     Medium:
     8:
     0.414057,0.473492,0.739832,0.400380,0.008704,333.000000,248.000000,85.000000,46.000000,0.000000,0.000000,0.414057,0.473492,0.739832,0.400380,0.008704,333.000000,248.000000,85.000000,46.000000,0.000000,0.000000:
00000000
00000000
00000000
00000000
,
00000000
00000000
00000000
00000000
,
00000000
00000000
00000000
00000000
,
00000000
00000000
00000000
00000000
,
10100000
00000000
00000000
01010000
00000000
00000000
00010000
00000000
,
00011000
00000000
00000000
00001010
00000000
00000000
00000001
00000000
,
00000202
00000303
00002200
00003300
,
00020000
00000000
00000000
00031000
,
00002000
00000000
00000000
00003000
,
02000000
00000000
00000000
03000000
,
00020000
00000000
00000000
00030000
,
20000000
30000000
00020000
00030000
,
01000000
01100000
10010000
00000000
,
00100000
00110000
00011000
00000000
,
00000010
00000110
00001100
00000000
,
00000001
00000101
00001100
00000000
,
00000001
00000101
00001000
00001100
,
00010000
00001000
01001000
00000000
,
00200000
02300000
03020000
20030000
,
30100000
00100000
20020000
30030000
,
22000000
33000000
00220000
00330000
,
00002200
00003300
00000022
00000033
,
00001001
00001100
00001001
00001100
,
00022000
00000000
00000000
00033000
,
00011000
00011000
00011000
00001000
,
01000000
00100000
10000000
00000000
01000000
00100000
10000000
00000000
,
00100000
01000000
00100000
00000000
10010000
00000000
10000000
01000000
,
00100000
11000000
01100000
00110000
,
00100000
00001000
00010000
00001000
00100000
00000000
00101000
00000000
,
00010000
00010100
00010000
00010100
,
00001000
00000010
00000100
00000000
00001001
00000000
00000010
00000100
,
00001000
00000101
00001100
00000101
,
00000020
00000130
00002002
00003003
,
00000010
00000100
00001000
00000000
00000010
00000100
00001000
00000000
,
00000001
00000100
00001000
00000000
00000010
00000000
00001100
00000000
,
00000100
00010000
00001000
00000000
00000100
00010000
00001000
00000000
,
00001000
01000000
00010000
00000000
10010000
00000000
01100000
00000000
,
10000000
00100000
01000000
00000000
20020000
00000000
30030000
00000000
,
00010000
01000000
00100000
00000000
01010000
00000000
00110000
00000000
,
00010000
00000000
00000000
00001000
00000000
00000000
00010000
00000000
00001000
00000000
00000000
00000000
00010000
00000000
00000000
00000000
,
00000100
00001000
00000010
00000100
00000002
00000000
00001003
00000000
,
00001001
00000000
00001100
00001100
,
00000101
00000000
00000101
00000000
00001000
00000100
00000001
00000000
,
00001000
00000100
00000001
00000000
00001100
00000000
00001100
00000000
,
00011000
00000000
00011000
00000000
00010000
00001000
01000000
00000000
,
00010000
00001000
01000000
00000000
10100000
00000000
10100000
00000000
,
10100000
00000000
10000000
01000000
00010000
00000000
10000000
01000000
,
00010000
00110000
00110000
00011000
,
00011000
00000000
00010000
00000100
00001000
00000000
00022000
00000000
,
00033000
00000200
00000300
00002000
,
00003000
00000010
00000001
00000100
,
00000000
00002000
00003000
00020000
,
00030000
00011000
00000000
00000000
,
01100000
00000000
10010000
00000000
,
00110000
00000000
00001100
00000000
,
00000110
00001001
00001100
00001001
,
00002200
00000000
00000000
00003300
,
00011000
00011000
00011000
00001000
,
02002000
03003000
02002000
03003000
,
01000000
00010000
01000000
00010000
01000000
00100000
01000000
00000000
,
10000000
00010000
01000000
00000000
10000000
00010000
01000000
00000000
,
01000000
00001000
00010000
00000000
00010000
00000100
00001000
00000000
,
00000010
00001000
00000100
00000000
00000010
00001000
00000100
00000000
,
00000010
00001000
00000100
00010000
00001000
00000000
00011000
00000000
,
00001000
01000000
00010000
00000000
00001000
01000000
00010000
00000000
,
10000000
01000000
00100000
00000000
10010000
00000000
11000000
00000000
,
00010000
00000000
00000000
00100000
00000000
00000000
00010000
00000000
00100000
00000000
00000000
00000000
00001000
00000000
00000000
00000000
,
00010000
00000100
00001000
00000000
00002200
00000000
00003300
00000000
,
00001001
00000000
00000000
00000000
;

//---------------dance-double - Copied from----------------
#NOTES:
     dance-double:
     Copied from:
     Easy:
     5:
     0.262360,0.355119,0.243709,0.208894,0.000000,211.000000,183.000000,28.000000,24.000000,0.000000,0.000000,0.262360,0.355119,0.243709,0.208894,0.000000,211.000000,183.000000,28.000000,24.000000,0.000000,0.000000:
00000000
00000000
00000000
00000000
,
00000000
00000000
00000000
00000000
,
00000000
00000000
00000000
00000000
,
00000000
00000000
00000000
00000000
,
00010000
00000000
00000000
00010000
00000000
00000000
00000000
00000000
,
00001000
00000000
00000000
00001000
00000000
00000000
00000000
00000000
,
00000002
00000003
00002000
00003000
,
00000200
00000000
00000000
00000300
,
00020000
00000000
00030000
00000000
,
00002000
00000000
00003000
00000000
,
00020000
00000000
00030000
00000000
,
00002000
00003000
00020000
00030000
,
01000000
01000000
10010000
00000000
,
01000000
01000000
00011000
00000000
,
00000100
00000100
00001001
00000000
,
00000100
00000100
00011000
00000000
,
00000100
00001000
00010000
00001000
,
01000000
00010000
00100000
00010000
,
10000000
10000000
00010000
00010000
,
00100000
01000000
10010000
00000000
,
20000000
30000000
00200000
00300000
,
02000000
03000000
00020000
00030000
,
00001000
00000100
00000010
00000001
,
00002002
00000000
00000000
00003003
,
00001001
00001001
00001001
00000000
,
01000000
10000000
01000000
10000000
,
00100000
00100000
10010000
00000000
,
00100000
01000000
00100000
10000000
,
00010000
00010000
00100000
00000000
,
00010000
00000100
00010000
00000100
,
00001000
00000100
00000001
00000000
,
00001000
00000100
00001000
00000001
,
00000010
00000100
00001001
00000000
,
00000010
00001000
00000010
00001000
,
00000001
00001000
00000010
00000000
,
00000100
00000000
00000100
00000000
,
00010000
00001000
00020000
00030000
,
00110000
00000000
11000000
00000000
,
00010000
00100000
01000000
00000000
,
00010000
00000000
00001000
00010000
,
00000100
00001000
00000002
00000003
,
00001001
00000000
00000100
00000100
,
00000100
00000100
00001000
00000001
,
00001000
00000001
00000100
00000100
,
00010000
00001000
00010000
00001000
,
01000000
00000000
00010000
00010000
,
00010000
10000000
00010000
10000000
,
00010000
00100000
00100000
00001000
,
00001000
00010000
00001000
00022000
,
00033000
00000200
00000300
00002000
,
00003000
00000010
00000001
00000100
,
00000000
00002000
00003000
00000200
,
00000300
00011000
00000000
00000000
,
01010000
00000000
01010000
00000000
,
00011000
00000000
00011000
00000000
,
00001100
00001100
00001100
00000000
,
00022000
00000000
00000000
00033000
,
00011000
00011000
00011000
00000000
,
01000000
00000000
01000000
00000000
,
01000000
00010000
01000000
00010000
,
10000000
01000000
10000000
01000000
,
00010000
01000000
00010000
00001000
,
00010000
00000000
00010000
00000000
,
00000010
00001000
00000100
00000000
,
00000001
00000100
00001000
00000000
,
00010000
01000000
10000000
00000000
,
10000000
00100000
00010000
00000000
,
00001000
00000010
00000001
00000000
,
00001001
00000000
00000000
00000000
;

//---------------dance-double - ----------------
#NOTES:
     dance-double:
     :
     Hard:
     13:
     0.476228,0.591865,0.478715,0.217598,0.291581,383.000000,328.000000,55.000000,25.000000,0.000000,0.000000,0.476228,0.591865,0.478715,0.217598,0.291581,383.000000,328.000000,55.000000,25.000000,0.000000,0.000000:
// measure 0
00000000
00000000
00000000
00000000
,  // measure 1
00000000
00000000
00000000
00000000
,  // measure 2
00000000
00000000
00000000
00000000
,  // measure 3
00000000
00000000
00000000
00000000
,  // measure 4
01100000
00000000
10000000
11000000
00000000
00000000
00110000
00000000
,  // measure 5
00011000
00000000
00010000
00011000
00000000
00000000
00001100
00000000
,  // measure 6
00000010
00000100
00000010
00000100
00000000
00000000
00000100
00000010
00000100
00000010
00000000
00000000
,  // measure 7
00002002
00003003
00000020
00000130
,  // measure 8
00000002
00000000
00000003
00000000
,  // measure 9
00002000
00000000
00003000
00000000
,  // measure 10
00020000
00000000
00030000
00000000
,  // measure 11
20000000
00000000
30020000
00030000
,  // measure 12
10000000
01000000
00000000
10000000
00000000
00000000
01000000
00000000
01000000
00000000
00000000
00000000
00000000
00000000
00000000
00000000
,  // measure 13
00010000
01000000
00000000
00010000
00000000
00000000
01000000
00000000
01000000
00000000
00000000
00000000
00000000
00000000
00000000
00000000
,  // measure 14
00100000
00001000
00000000
00100000
00000000
00000000
00001000
00000000
00001000
00000000
00000000
00000000
00000000
00000000
00000000
00000000
,  // measure 15
00010000
00000010
00000000
00000010
00000000
00000000
00001000
00000000
00001000
00000000
00000000
00000000
00000000
00000000
00000000
00000000
,  // measure 16
00000100
00000010
00000000
00000000
00001001
00000000
00000000
00000000
00000010
00000100
00000000
00000000
00001001
00000000
00000000
00000000
,  // measure 17
00000001
00000100
00000000
00000100
00000000
00000000
00000010
00000000
00000010
00000000
00000000
00000000
00001000
00000000
00000100
00000000
,  // measure 18
00010000
00010000
00001000
00001000
00010000
00010000
00001000
00000000
,  // measure 19
02000000
03020000
00230000
00300000
,  // measure 20
11000000
00000000
00110000
00000000
,  // measure 21
00001100
00000000
00000011
00000000
,  // measure 22
00000110
00001100
00011000
00110000
,  // measure 23
02200000
00000000
00000000
03300000
,  // measure 24
10010000
10010000
10010000
01100000
,  // measure 25
10000000
00100000
00000000
00100000
00000000
00000000
00000000
00000000
01000000
00010000
00000000
00010000
00000000
00000000
00000000
00000000
,  // measure 26
10000000
00100000
00000000
00100000
00000000
00000000
01000000
00000000
00010000
00000000
00000000
00000000
10000000
00000000
01000000
00000000
,  // measure 27
00100000
00000000
00110000
00000000
00100000
00001000
00010000
00000000
,  // measure 28
00010000
00000100
00001000
00000000
00001100
00000000
00000011
00000000
,  // measure 29
00000001
00000100
00000000
00000100
00000000
00000000
00000000
00000000
00000001
00001000
00000000
00001000
00000000
00000000
00000000
00000000
,  // measure 30
00000001
00000100
00000000
00000100
00000000
00000000
00000010
00000000
00000010
00000000
00000000
00000000
00001000
00000000
00000100
00000000
,  // measure 31
00000010
00000000
00001100
00000000
00010000
00001000
00010000
00000000
,  // measure 32
00001000
00000000
00000000
01000000
00000000
00000000
00001000
00000000
00000000
00000000
00000000
00000000
01000000
00000000
00010000
00000000
01000000
00000000
00010000
00000000
00000000
00000000
00000000
00000000
,  // measure 33
10000000
01000000
00100000
01000000
10000000
00000000
01010000
00000000
,  // measure 34
01000000
00010000
00100000
00010000
01000000
00000000
01010000
00000000
,  // measure 35
00100000
00001000
00010000
00000000
00100000
00001000
00010000
00000000
,  // measure 36
00010000
00000100
00001000
00000100
00010000
00000000
00010100
00000000
,  // measure 37
00001000
00000100
00000000
00000100
00000000
00000100
00001000
00000000
00000020
00000000
00000000
00000000
00000030
00000000
00000000
00000000
,  // measure 38
00000001
00000100
00000000
00000100
00000000
00000100
00000001
00000000
00000010
00000000
00000000
00000000
00001001
00000000
00000000
00000000
,  // measure 39
00000010
00000000
00000000
00000010
00000000
00000000
00001000
00000000
00000100
00010000
00000000
00000100
00000000
00010000
00000100
00000000
,  // measure 40
00010000
00001000
00100000
00010000
02000000
00000000
03000000
00000000
,  // measure 41
10010000
00000000
11000000
11000000
,  // measure 42
01010000
00000000
01010000
00000000
10000000
01000000
00100000
00010000
,  // measure 43
01000000
00000000
01000000
00000000
00100000
00000000
00100000
00000000
10000000
00000000
00000000
10000000
00000000
00000000
00010000
00000000
,  // measure 44
00000000
00000000
01000000
00000000
00001000
00000000
00010000
00000000
00000100
00000000
00000000
00000100
00000000
00000000
00000100
00000000
,  // measure 45
00000000
00010000
00001000
01000000
00000000
00000000
10100000
00000000
,  // measure 46
10100000
00000000
10000000
00100000
01000000
00010000
00100000
00100000
,  // measure 47
00001000
00000000
00001000
00000000
00010000
00000000
00000000
00010000
00000000
00000000
00010000
00000000
00000000
00000000
00000100
00000000
,  // measure 48
00001000
00000000
00000010
00000000
00000001
00000000
00000000
00000001
00000000
00000000
00000001
00000000
00000200
00000000
00000000
00000000
,  // measure 49
00000300
00000000
00000010
00001000
00000100
00000000
00000010
00001000
,  // measure 50
00000100
00000000
00000010
00001000
00000100
00010000
00001000
00000000
,  // measure 51
00001000
01000000
00100000
00000000
00100000
00000000
10000000
00010000
,  // measure 52
01000000
00100000
10010000
00000000
00000000
00000000
00000000
00000000
,  // measure 53
11000000
00000000
00110000
00000000
,  // measure 54
00001100
00000000
00000011
00000000
,  // measure 55
00000110
00001100
00011000
00110000
,  // measure 56
02200000
00000000
00000000
03300000
,  // measure 57
10010000
10010000
10010000
01000000
,  // measure 58
20020000
30030000
20020000
30030000
,  // measure 59
10000000
01000000
00100000
00010000
01000000
00100000
01000000
00000000
,  // measure 60
10000000
01000000
00000000
01000000
00000000
00000000
10000000
00000000
00100000
00000000
01000000
00000000
00001000
00000000
00010000
00000000
,  // measure 61
00000100
00001000
00000000
00001000
00000000
00000000
00000001
00000000
00000100
00000000
00000010
00000000
00001000
00000000
00000100
00000000
,  // measure 62
00010000
00001000
00000000
00001000
00000000
00000000
00010000
00000000
00001000
00010000
00000000
00010000
00000000
00000000
00001000
00000000
,  // measure 63
00100000
00010000
01000000
00100000
20020000
00000000
30030000
00000000
,  // measure 64
10000000
01000000
00000000
01000000
00000000
01000000
10000000
00000000
00100000
01000000
00000000
01000000
00000000
01000000
00010000
00000000
,  // measure 65
00010000
00100000
00000000
00100000
00000000
00100000
00001000
00000000
00011000
00000000
00000000
00000000
00010000
00000000
00000100
00000000
,  // measure 66
00001000
00000000
00000000
00001000
00000000
00000000
00001000
00000000
00000010
00000100
00000000
00000100
00000000
00000100
00000001
00000000
,  // measure 67
00001000
00000100
00001000
00000100
00001000
00000000
00000010
00000000
00000200
00000000
00000000
00000000
00000300
00000000
00000000
00000000
,  // measure 68
00001001
00000000
00000000
00000000
;

//---------------dance-single - ----------------
#NOTES:
     dance-single:
     :
     Challenge:
     14:
     0.642845,0.680645,0.548346,0.565754,0.657145,517.000000,454.000000,63.000000,65.000000,0.000000,0.000000,0.642845,0.680645,0.548346,0.565754,0.657145,517.000000,454.000000,63.000000,65.000000,0.000000,0.000000:
0000
0000
0000
0000
,
0000
0000
0000
0000
,
0000
0000
0000
0000
,
0000
0000
0000
0000
,
1001
0100
0100
1001
0010
0010
1000
0001
,
1001
0100
0100
1001
0010
0010
1000
0100
,
0001
0100
0001
0200
0000
0000
0310
1000
0010
2000
0000
0000
,
3002
0000
0000
0000
0000
0000
0000
0000
0103
0010
0100
0000
1001
0000
0000
0000
,
0102
0100
0100
0103
,
2100
0100
0100
3100
,
0102
0100
0100
0103
,
2010
3010
0102
0103
,
1000
0001
0000
0100
0000
0010
0100
0000
1001
0000
0000
0000
0000
0000
0000
0000
,
0001
1000
0000
0010
0000
0100
0010
0000
1001
0000
0000
0000
0000
0000
0000
0000
,
1000
0100
0000
0010
0000
0001
0100
0000
1001
0000
0000
0000
0000
0000
0000
0000
,
0001
0010
0000
0100
0000
1000
0010
0000
1001
0000
0000
0000
0000
0000
0000
0000
,
1000
0100
0000
1000
0000
0100
0010
0000
0001
0010
0000
0001
0000
0100
0001
0000
,
1000
0001
0000
0001
0000
0001
1000
0000
0101
0000
0000
0000
1000
0000
0010
0000
,
0100
0010
0100
0000
0001
0100
0001
0000
0100
0010
0100
0000
0010
0000
1000
0000
,
0001
0100
0001
0100
0001
0000
0100
0000
0220
0000
0000
0000
0330
0000
0000
0000
,
2200
3300
0022
0033
,
0220
0330
2002
3003
,
1100
0110
0011
0110
,
2002
0000
0000
0000
0000
0000
0000
0000
0000
0000
3003
0000
1000
0001
1000
0001
,
2002
3003
2200
3300
0022
0033
1001
0000
,
0100
0010
0000
1000
0000
0001
1000
0000
0010
0100
0000
0001
0000
1000
0001
0000
,
0100
0010
0000
1000
0000
0100
0010
0000
0001
0000
0000
0000
1000
0000
0001
0000
,
0100
0001
0000
0000
1000
0001
0000
0000
1000
0100
0000
1000
0000
0010
0100
0000
,
0001
0100
0001
0100
0001
0000
0100
0000
0020
0000
1000
0000
1030
0000
0100
0000
,
1000
0010
0000
0010
0000
0100
0001
0000
1000
0100
0000
0100
0000
0010
0001
0000
,
1000
0010
0000
0010
0000
0100
0001
0000
1001
0000
0000
0000
0010
0000
0100
0000
,
0001
0100
0001
0000
1000
0100
1000
0000
0010
0100
0000
0010
0000
0100
0010
0000
,
1000
0000
0000
0100
0000
0000
1000
0000
0000
0010
0000
0000
1000
0000
0000
0000
0000
0000
0001
0000
0000
0000
0000
0000
0100
0000
0000
0000
0010
0000
0000
0000
0100
0000
0000
0000
0001
0000
0000
0000
0000
0000
0000
0000
0000
0000
0000
0000
,
0010
1000
0000
0001
0000
1000
0010
0000
1000
0000
0100
0000
0010
0000
0001
0000
,
0100
0001
0000
1000
0000
0001
0100
0000
0001
0010
0001
0010
0001
0000
0100
0000
,
0010
1000
0000
1000
0000
1000
0010
0000
0100
0001
0000
0001
0000
0001
0100
0000
,
0010
1000
0010
0100
0010
0000
1000
0000
0002
0000
0000
0000
0103
0000
0000
0000
,
1000
0100
0000
0010
0000
0100
1000
0000
0002
0000
0000
0000
0003
0000
0000
0000
,
0001
0010
0000
0100
0000
0010
0001
0000
2000
0000
0000
0000
3001
0000
0100
0000
,
1001
0000
0000
1001
0000
0000
1100
0000
0001
0100
0000
0010
0000
0100
0001
0000
,
1000
0100
1000
0010
1000
0000
0001
0000
2002
0000
0000
0000
3003
0000
0000
0000
,
0110
0000
0200
0320
,
1000
0000
0000
0000
1030
0000
0000
0000
0001
0100
0001
0100
0001
0100
0001
0000
,
1000
0100
1000
0000
0001
0100
0001
0000
1000
0000
0000
0010
0000
0000
0100
0000
,
0001
0000
0010
0000
0100
0000
1000
0000
0001
0000
0000
0100
0000
0000
0010
0000
,
1000
0010
0010
1010
0102
0000
0100
0000
,
0103
0000
0000
0000
0001
0010
0001
0010
0001
0100
0001
0000
1000
0100
1000
0000
,
0001
0100
0001
0000
0100
0000
0100
0000
0100
0000
0100
0000
0010
0000
0010
0000
,
0010
0010
1000
0100
0010
0001
0200
0000
,
0300
0000
0001
0010
0011
0000
1000
0100
,
1100
0000
0010
0100
0110
0000
1001
0000
,
1000
0000
0100
0000
1100
0000
0000
0000
0101
0000
0000
0000
1000
0010
0000
0010
,
0000
0010
1000
0000
2002
3003
0000
0000
1100
0000
0000
0000
0101
0000
0000
0000
,
0220
0330
2002
3003
,
2200
3300
0022
0033
,
2200
3300
0220
0330
0022
0033
2002
3003
,
0220
0000
0000
0000
0000
0000
0000
0000
0000
0000
0330
0000
0010
0100
0010
0100
,
0220
0330
0220
0330
0001
0100
1001
0000
,
1000
0001
0000
0100
0000
0100
0001
0000
1000
0001
0000
0001
0000
0100
0001
0000
,
1000
0001
0000
0001
0000
0100
0001
0000
1000
0001
1000
0001
1000
0000
0000
0000
,
0010
1000
0000
0001
0000
1000
0010
0000
1000
0000
0100
0000
0010
0000
0001
0000
,
0100
0001
0000
1000
0000
0001
0100
0000
0001
0010
0001
0010
0001
0000
0100
0000
,
0010
1000
0000
1000
0000
1000
0010
0000
0100
0001
0000
0001
0000
0001
0100
0000
,
0010
1000
0010
0100
0010
0000
1000
0000
0002
0000
0000
0000
0103
0000
0000
0000
,
1000
0100
0000
0010
0000
0100
1000
0000
0002
0000
0000
0000
0003
0000
0000
0000
,
0001
0010
0000
0100
0000
0010
0001
0000
2000
0000
0000
0000
3001
0000
0100
0000
,
1001
0000
0000
1001
0000
0000
1100
0000
0001
0100
0000
0010
0000
0100
0001
0000
,
1000
0100
1000
0010
1000
0000
0001
0000
2002
0000
0000
0000
3003
0000
0000
0000
,
0110
0000
0000
0000
;

//---------------dance-double - ----------------
#NOTES:
     dance-double:
     :
     Challenge:
     14:
     0.594352,0.710238,0.287229,0.330748,0.648441,478.000000,445.000000,33.000000,38.000000,0.000000,0.000000,0.594352,0.710238,0.287229,0.330748,0.648441,478.000000,445.000000,33.000000,38.000000,0.000000,0.000000:
// measure 0
00000000
00000000
00000000
00000000
,  // measure 1
00000000
00000000
00000000
00000000
,  // measure 2
00000000
00000000
00000000
00000000
,  // measure 3
00000000
00000000
00000000
00000000
,  // measure 4
10100000
00000000
10000000
11000000
00000000
00100000
00010000
00000000
,  // measure 5
00110000
00000000
00010000
00001000
00000000
00010000
00000100
00000000
,  // measure 6
00001000
00000100
00000010
00000001
00000000
00000000
00001000
00000100
00000010
00000001
00000000
00000000
,  // measure 7
00001200
00000000
00020300
00031000
,  // measure 8
01200000
00000000
00000000
00300000
,  // measure 9
21000000
00000000
00000000
30000000
,  // measure 10
00120000
00000000
00000000
00000000
,  // measure 11
00032000
00000000
00003200
00000310
,  // measure 12
00000001
00000100
00000000
00000010
00000000
00000100
00000001
00000000
00002002
00000000
00000000
00000000
00003003
00000000
00000000
00000000
,  // measure 13
00001000
00000100
00000000
00001000
00000000
00000100
00010000
00000000
00000200
00000000
00000000
00000000
00000300
00000000
00000000
00000000
,  // measure 14
00010000
00001000
00000000
00100000
00000000
00001000
00010000
00000000
00002000
00000000
00000000
00000000
00003000
00000000
00000000
00000000
,  // measure 15
00100000
00010000
00000000
01000000
00000000
00010000
00100000
00000000
00020000
00000000
00000000
00000000
00030000
00000000
00000000
00000000
,  // measure 16
01000000
00100000
00000000
10000000
00000000
00000000
00010000
00000000
01000000
00100000
00000000
10000000
00000000
00000000
00010000
00000000
,  // measure 17
10000000
01000000
00000000
00100000
00000000
00000000
00010000
00000000
01000000
00000000
00000000
00000000
00010000
00000000
00100000
00000000
,  // measure 18
00001000
00001000
00010000
00010000
00000100
00000100
00001000
00001000
,  // measure 19
00000010
00000001
00000100
00000000
00002002
00000000
00003003
00000000
,  // measure 20
00000010
00001000
00000000
00000100
00000000
00001000
00000100
00000000
00010000
00001000
00000000
00010000
00000000
00001000
01000000
00000000
,  // measure 21
00010000
01000000
00000000
00100000
00000000
01000000
00100000
00000000
10000000
01000000
00000000
00100000
00000000
00010000
01000000
00000000
,  // measure 22
00010000
00100000
00001000
00010000
00000100
00001000
00000010
00000001
,  // measure 23
00000200
00000000
00000000
00000000
00000000
00000000
00000000
00000000
00000000
00000000
00000000
00000000
00000310
00001000
00000010
00001000
,  // measure 24
00000020
00020030
00031000
00011000
,  // measure 25
00001000
00100000
00000000
00010000
00000000
00100000
00001000
00000000
00100000
00010000
00000000
01000000
00000000
00010000
00100000
00000000
,  // measure 26
00010000
10000000
00000000
01000000
00000000
10000000
00010000
00000000
02000000
00000000
00000000
00000000
03100000
00000000
10000000
00000000
,  // measure 27
00010000
00000000
00000000
00000000
01100000
00000000
00000000
00000000
10000000
00100000
00000000
01000000
00000000
00010000
00100000
00000000
,  // measure 28
00010000
00100000
00010000
00100000
00010000
00000000
00100000
00000000
00002000
00000000
00000000
00000000
00013000
00000000
00000000
00000000
,  // measure 29
00000100
00001000
00000000
00000010
00000000
00001000
00000100
00000000
00001000
00000010
00000000
00000100
00000000
00000010
00001000
00000000
,  // measure 30
00000001
00000100
00000000
00000001
00000000
00000010
00000001
00000000
00000100
00000000
00000000
00000000
00000010
00000000
00001000
00000000
,  // measure 31
00000100
00010000
00000100
00000000
00010000
00001000
00010000
00000000
00001000
00100000
00001000
00000000
00100000
00010000
00100000
00000000
,  // measure 32
00010000
00000000
00000000
00100000
00000000
00000000
00010000
00000000
00000000
00100000
00000000
00000000
00010000
00000000
00000000
00000000
00000000
00000000
01000000
00000000
00000000
00000000
00000000
00000000
00100000
00000000
00000000
00000000
10000000
00000000
00000000
00000000
00100000
00000000
00000000
00000000
10000000
00000000
00000000
00000000
00000000
00000000
00000000
00000000
00000000
00000000
00000000
00000000
,  // measure 33
10000000
01000000
00000000
00100000
00000000
00000000
01000000
00000000
10000000
00000000
00100000
00000000
01000000
00000000
00010000
00000000
,  // measure 34
00100000
00010000
00000000
01000000
00000000
00000000
00010000
00000000
00100000
00001000
00100000
00001000
00100000
00000000
00001000
00000000
,  // measure 35
00010000
00000100
00000000
00010000
00000000
00000000
00000100
00000000
00001000
00000010
00000000
00001000
00000000
00000000
00000010
00000000
,  // measure 36
00000100
00000001
00001000
00000001
00000100
00000000
00000010
00000000
00002000
00000000
00000000
00000000
00003100
00000000
00000000
00000000
,  // measure 37
00000010
00001000
00000000
00000100
00000000
00010000
00001000
00000000
00020000
00000000
00000000
00000000
00032000
00000000
00000000
00000000
,  // measure 38
00103000
00010000
00000000
01000000
00000000
00100000
01000000
00000000
00020000
00000000
00000000
00000000
10030000
00000000
00100000
00000000
,  // measure 39
10100000
00000000
00000000
10100000
00000000
00000000
10010000
00000000
10000000
01000000
00000000
00100000
00000000
00010000
01000000
00000000
,  // measure 40
00010000
00100000
00010000
00100000
00010000
00000000
00100000
00000000
00202000
00000000
00000000
00000000
00303000
00000000
00000000
00000000
,  // measure 41
00022000
00033000
00001001
00000000
00001200
00000000
00000001
00000000
,  // measure 42
00001000
00000000
00000000
00000000
00000301
00000000
00000000
00000000
00001000
00000100
00001000
00000100
00001000
00000100
00001000
00000000
,  // measure 43
00000100
00010000
00000100
00000000
00010000
00001000
00010000
00000000
00001000
00000000
00000000
01000000
00000000
00000000
00010000
00000000
,  // measure 44
01000000
00000000
00100000
00000000
10000000
00000000
00010000
00000000
00100000
00000000
00000000
00001000
00000000
00000000
00010000
00000000
,  // measure 45
00000100
00000100
00001000
00000020
00000130
00000000
00000101
00000000
,  // measure 46
00001100
00000000
00000000
00000000
00000001
00000010
00000001
00000100
00000001
00000010
00000001
00000000
00000100
00000010
00000100
00000000
,  // measure 47
00001000
00000100
00001000
00000000
00000010
00000000
00000000
00010000
00000000
00000000
00001000
00000000
00100000
00000000
00010000
00000000
,  // measure 48
01000000
00000000
00100000
00000000
10000000
00000000
00000000
01000000
00000000
00000000
00100000
00000000
00020000
00000000
00000000
00000000
,  // measure 49
00000000
00031000
00001001
00001000
,  // measure 50
00011000
00010000
10010000
10000000
,  // measure 51
10000000
01000000
00100000
00000000
00011000
00000000
00001000
00000100
,  // measure 52
00000010
00000000
00002002
00003003
00001100
00000000
00110000
00000000
,  // measure 53
10000000
01000000
00000000
00100000
00000000
00000000
00000000
00000000
00010000
00001000
00000000
00010000
00000000
00000000
00000000
00000000
,  // measure 54
00000100
00001000
00000000
00000010
00000000
00000000
00000000
00000000
00000100
00000001
00000000
00000010
00000000
00000000
00000000
00000000
,  // measure 55
00000001
00000100
00000001
00000000
00001000
00000100
00001000
00000000
00010000
00001000
00010000
00000000
00001000
01000000
00001000
00000000
,  // measure 56
01000000
00000000
00100000
00000000
00010000
00000000
20000000
00000000
00000000
00000000
00000000
00000000
30100000
01000000
00100000
01000000
,  // measure 57
00200000
00000000
20300000
00000000
31000000
00100000
00001000
00000000
,  // measure 58
00011000
00000000
00001001
00000000
,  // measure 59
00000001
00000010
00000100
00000000
00001000
00100000
00010000
00000000
,  // measure 60
00010000
00100000
00000000
01000000
00000000
00100000
00010000
00000000
01000000
00000000
00100000
00000000
10000000
00000000
00010000
00000000
,  // measure 61
00100000
00001000
00000000
00010000
00000000
00001000
00100000
00000000
00001000
00010000
00001000
00010000
00001000
00000000
00010000
00000000
,  // measure 62
00000100
00001000
00000000
00000010
00000000
00001000
00000100
00000000
00000010
00000001
00000000
00000100
00000000
00000001
00000010
00000000
,  // measure 63
00000001
00000100
00000001
00000100
00000001
00000000
00000010
00000000
00002000
00000000
00000000
00000000
00003100
00000000
00000000
00000000
,  // measure 64
00000010
00001000
00000000
00000100
00000000
00001000
00000010
00000000
00001000
00000100
00000000
00010000
00000000
00000100
00001000
00000000
,  // measure 65
00000100
00010000
00000000
00001000
00000000
00010000
00001000
00000000
00100000
00000000
00000000
00000000
00010000
00000000
01000000
00000000
,  // measure 66
00100000
00000000
00000000
10100000
00000000
00000000
00110000
00000000
10000000
01000000
00000000
00100000
00000000
00000000
00001000
00000000
,  // measure 67
00010000
00001000
00010000
00001000
00010000
00000000
00000100
00000000
00002200
00000000
00000000
00000000
00003300
00000000
00000000
00000000
,  // measure 68
00001001
00000000
00000000
00000000
;
