#TITLE:Green Greens Fusion Collab;
#SUBTITLE:;
#ARTIST:♪♪♪♪♪;
#TITLETRANSLIT:;
#SUBTITLETRANSLIT:;
#ARTISTTRANSLIT:-;
#GENRE:;
#CREDIT:;
#MENUCOLOR:;
#METERTYPE:DDR;
#BANNER:Green Greens Fusion Collab.png;
#BACKGROUND:Green Greens Fusion Collab-bg.png;
#LYRICSPATH:;
#CDTITLE:;
#MUSIC:Green Greens Fusion Collab.ogg;
#OFFSET:-1.800;
#SAMPLESTART:25.768;
#SAMPLELENGTH:15.367;
#SELECTABLE:YES;
#LISTSORT:;
#DISPLAYBPM:180.000;
#BPMS:0.000=180.000,368.000=360.000,382.000=720.000;
#STOPS:382.000=3.348
,383.000=0.167
,384.000=0.167
,385.000=1.333
,386.000=0.167
,387.000=0.167
;
#BGCHANGES:374.500=Green Greens Fusion Collab.avi=1.000=0=0=0,
424.000=Green Greens Fusion Collab-bg.png=1.000=1=0=0,
99999=-nosongbg-=1.000=0=0=0 // don't automatically add -songbackground-
;
#ATTACKS:;

//---------------dance-single - ----------------
#NOTES:
     dance-single:
     :
     Hard:
     17:
     0.930,1.000,0.477,0.506,0.636:
0000
0000
0000
0000
,
0000
0000
0000
0000
,
0000
0000
0000
0000
,
0020
0000
0000
0000
2030
0000
0000
3001
0100
0000
0010
0000
1000
0000
0100
0000
,
0020
0000
0000
0000
2030
0000
0000
3001
0020
0000
0000
0000
0031
0000
0100
0000
,
0010
0000
0010
0000
0010
0000
0010
0000
1000
0001
1000
0000
1000
0001
1000
0000
,
1001
0000
0000
0000
2000
0000
0000
0000
3002
0000
0000
0000
1003
0000
0000
0001
,
2000
0000
0000
0000
3200
0000
0000
0000
1300
0000
0010
0000
0002
0000
0000
0103
,
0001
0000
0010
0000
0001
0000
0100
0000
0002
0000
0000
0000
1003
0000
0100
1000
,
0200
0000
0000
0000
1300
0000
0010
1000
0020
0000
0000
0000
0130
0000
0001
0100
,
0002
0000
0000
0000
2003
0000
0000
0000
3010
0000
0001
0000
0100
0000
0010
0100
,
0020
0000
0000
0000
2030
0000
0000
0000
3200
0000
0000
0000
1300
0000
0000
0001
,
0010
0000
0001
0000
0100
0000
0010
0000
2000
0000
0100
0000
3100
0000
0000
0001
,
0200
0000
0010
0000
0310
0000
0000
1000
0200
0000
1000
0000
1300
0000
0000
0010
,
0100
0001
0010
0001
0200
0000
0320
0000
,
1030
0000
0000
0001
0100
0000
0100
0000
0010
0000
1000
0000
0001
0000
0001
0000
,
1000
0010
0010
0100
0010
0100
0100
0010
,
1000
0001
0001
0100
0001
0001
1001
0000
,
0010
0000
1000
0010
0000
1000
0001
0000
0100
0000
0001
0100
0000
0001
1000
0000
,
0001
0000
1000
0010
0000
1000
0010
0000
0100
0000
0001
0000
0100
0001
1000
0001
,
0100
0000
0001
0100
0000
0001
0010
0000
0100
0000
0001
1000
0000
0001
0100
0000
,
0010
0000
1000
0100
0000
1000
0001
0000
0100
0000
0000
0001
0100
0010
0100
0001
,
0100
0000
0010
1000
0010
0000
0010
1000
0001
0000
0001
1000
0001
0000
0001
1000
,
0100
0000
0100
1000
0001
0000
1000
0001
1000
0000
0001
0010
0001
0000
0100
0001
,
0100
0000
0100
0001
1000
0000
0001
1000
0001
0000
1000
0001
0100
0000
0010
0000
,
0010
1000
0100
0001
1001
0000
0110
0000
,
2000
0000
0100
0000
0100
0000
3100
0000
1000
0000
0010
0000
0100
0000
0001
0100
,
0001
0000
0100
0000
0010
0000
1000
0000
0200
0000
0000
0000
1300
0000
0010
1000
,
0020
0000
0000
0000
0130
0000
0001
0100
0002
0000
0000
0000
1003
0000
0001
1000
,
0002
0000
0100
0000
0100
0000
0100
0000
0103
0000
0001
0000
1000
0000
0010
1000
,
0010
0000
0100
0000
0010
1000
0010
0000
0100
0000
0010
0000
1000
0010
1000
0000
,
0010
0000
0100
0000
0001
0100
0001
0000
0100
0000
0010
0000
1000
0010
1000
0000
,
0001
0000
0100
0000
0001
0100
0001
0000
0010
0000
0001
0000
0100
0001
0100
0000
,
0001
1000
0001
0000
1000
0001
0100
0000
0100
0001
0100
0001
1000
0010
1000
0010
,
1000
0000
0000
0001
0100
0000
0010
0000
0000
0000
1000
0000
0001
0000
1000
0000
,
0010
1000
0000
1000
0010
0000
0100
0000
0001
0100
0000
0100
0001
0000
0010
0000
,
0001
1000
0000
1000
0001
0000
0100
0000
0010
0100
0001
0100
0010
0000
0000
0000
,
2010
0000
0000
0000
3100
0000
0000
0010
0002
0000
0000
0000
0103
0000
0000
0010
,
2000
0000
0000
0000
3010
0000
0000
0100
0002
0000
0000
0000
0103
0000
0000
1000
,
0020
0000
0000
0000
0130
0000
0000
0001
2000
0000
0000
0000
3001
0000
0000
0010
,
0200
0000
0000
0000
0001
0000
0000
0000
0310
0000
0000
0000
1010
0000
0000
0001
,
0200
0000
0000
0000
0310
0000
0000
0010
2000
0000
0000
0000
3100
0000
0000
0100
,
0002
0000
0000
0000
0013
0000
0000
0010
1000
0000
0000
1000
0010
0000
0000
0001
,
2000
0000
0000
0000
3010
0000
0000
0010
0200
0000
0000
0000
0301
0000
0000
1000
,
0020
0100
0130
0000
,
0020
1000
0130
0001
,
1000
0100
0010
0001
1001
0000
0001
0100
,
1001
0000
1000
0100
1001
0000
0010
0110
,
1001
0000
1100
0000
0101
0000
0001
0011
,
1001
0000
1100
0000
0101
0000
1000
0010
,
1000
0001
1000
1000
1001
0000
0010
0100
,
1001
0000
0000
0000
0100
0000
0010
0000
1001
0000
0000
0000
1000
0000
0000
0001
,
1000
0000
0001
0000
0100
0000
0001
0000
0010
0001
0010
0001
0100
0001
0100
0001
,
1000
0000
0000
0010
0100
0000
0200
0000
0300
0000
0001
0000
1000
0000
2002
0000
,
3003
0000
0010
0001
1000
0100
0010
0001
0000
0000
0000
0000
,
2000
3020
0230
0302
0013
0010
1001
0000
,
1000
0000
0000
2000
0010
0000
0000
3020
0100
0000
0100
0000
0130
0000
1002
0000
,
0000
0000
0103
0000
1000
0000
0001
2000
0001
0000
0001
0000
3001
0000
0000
0010
,
0200
0000
0000
0000
0310
0000
0010
1000
0100
0000
0010
0000
0001
0000
2001
0000
,
0000
0000
3100
1000
0100
0000
1001
0000
0100
0001
0100
0000
0010
0000
1000
0100
,
2000
0000
0000
0000
3010
0000
0000
0001
0100
0000
1000
0000
0100
0000
2002
0000
,
3003
0000
0001
0010
0001
0000
1000
0001
1000
0000
0010
0000
0100
0001
0100
0000
,
0010
0000
1000
0001
0100
0000
0001
0100
0010
0000
1000
0100
0010
0000
0100
0000
,
0001
1000
0001
0100
0001
1000
0001
0100
0001
0000
0000
0000
1001
0000
0000
0000
,
0110
0000
0001
0000
0100
0000
0001
0100
0001
0000
0100
0000
0010
0000
1000
0010
,
0100
0000
0010
0000
0100
0000
0001
0100
0001
0000
1000
0000
0010
0000
0100
0010
,
1000
0000
0001
0000
1000
0000
0001
0100
0001
0000
0100
0010
0100
0000
0010
1000
,
0100
1000
0100
1000
0010
1000
0010
1000
0001
0100
0001
0100
0001
0010
0001
0010
,
0001
0000
0100
0000
0010
0000
1000
0100
1000
0000
0001
0100
0010
0000
0010
0000
,
0110
0000
0001
0100
0010
0000
0010
1000
0001
0000
1000
0100
0010
0000
0010
0000
,
0011
0000
0001
1000
0100
0000
0100
1000
0010
0000
0001
1000
0001
1000
0001
0100
,
0001
0000
0010
1000
0010
0100
0010
0100
0001
0010
0100
1000
0010
0100
0010
1000
,
0001
0000
1000
0100
0010
0000
1001
0000
0000
0000
0100
0000
0110
0000
0001
0000
,
1001
1001
1100
1100
1001
1001
0101
0101
,
1000
0001
1000
0001
1000
0010
0100
0010
1000
0001
0100
0001
1000
0000
0010
0000
,
1001
0000
0110
0001
0000
1000
0110
1000
,
0000
0001
1010
0001
0000
1000
0110
0110
,
1000
0000
0101
0010
0000
1000
0110
0001
,
0000
0000
0010
0000
1001
0000
0100
0000
0001
0100
0001
0000
1000
0000
1010
0000
,
0000
0000
0001
0100
0001
0000
0101
0000
0000
0000
0010
1000
0100
0000
1100
0000
,
0000
0000
0010
0001
0100
0000
0101
0000
0000
0000
0010
1000
0001
0000
1000
0000
,
1100
0000
0001
0010
0100
0000
0101
0000
0000
0000
1000
0100
0010
0000
1001
0000
,
2000
0001
0001
3001
0002
1000
1000
1003
,
0020
0000
0100
0000
0100
0000
0130
0000
0200
0000
0000
0000
0301
0000
0000
0001
,
2000
0000
0000
0000
0000
0000
0000
0000
3000
0000
0000
0000
0001
0000
0000
0001
,
0100
0010
0010
1000
0001
1000
0010
0100
,
0020
0000
0000
0000
0000
0000
1030
0010
2000
0000
0000
0000
3002
0000
0000
0000
,
0000
0000
0000
0000
0100
0000
0000
0000
0100
0000
0000
0000
0103
0000
0000
0100
,
0002
0000
0000
0000
0100
0000
0000
0000
0103
0000
0000
0000
1100
0000
0000
0001
,
0100
0010
1000
0001
1001
0001
0100
0001
,
1001
1000
1000
1000
0001
0001
0001
0001
,
0100
0010
0100
0010
1000
0001
1000
0001
0100
0010
0100
0010
1000
0001
1000
0001
,
1000
0100
0010
0001
0100
0010
1000
0100
,
0010
0001
1000
0100
0010
0001
0100
0010
,
1000
0000
0100
0000
0010
0000
0001
0000
0010
0000
0100
0000
,
2000
0000
0000
0000
3001
0000
1001
0000
0000
1001
0000
0000
,
0110
1001
1001
0110
,
2002
0000
0000
0000
,
0000
3000
0000
0003
;

//---------------dance-single - ----------------
#NOTES:
     dance-single:
     :
     Medium:
     12:
     0.581,0.643,0.224,0.347,0.094:
0000
0000
0000
0000
,
0000
0000
0000
0000
,
0000
0000
0000
0000
,
0020
0000
2030
0000
,
3002
0000
0203
0000
,
0320
0000
0000
0030
,
1001
0000
0110
0000
1000
0001
1000
0000
,
0020
0000
0030
0001
,
1000
0100
0010
0001
0100
0000
0001
1000
,
0100
0000
1000
0001
0100
0000
0001
1000
,
0200
0000
1000
0000
1300
0000
0001
0100
,
0020
1000
1030
0001
,
1000
0100
0010
0001
0100
0000
0001
0010
,
0001
0000
1000
0100
1000
0000
0010
0100
,
0020
1000
0100
1030
,
0101
0000
1000
0100
0000
0001
0100
1000
,
0100
0000
1010
0000
0100
0100
0100
0000
,
0010
0000
0101
0000
0010
0010
0010
0000
,
2000
0100
0001
3100
,
0001
0000
0010
0001
0100
0000
0010
0000
,
2000
0010
0001
3010
,
0002
0000
0100
0000
1003
0000
0010
0100
,
0001
0000
1000
0010
0100
0000
0001
0100
,
1000
0000
1000
0100
0001
0000
0001
0010
,
0100
0000
0100
0010
0001
0000
0001
0100
,
2000
0000
0010
0000
3001
0000
0001
0100
,
2000
0010
0100
3010
,
0001
0100
0000
1000
0100
0000
0101
0000
,
1100
0110
1001
1100
,
0102
1000
1003
0010
,
0100
0001
0100
0001
1000
0001
1000
0001
,
1000
0010
1000
0010
0100
0010
0100
0010
,
1000
0100
0010
0001
1000
0100
0010
0001
,
1000
0010
0100
0001
1000
0010
0100
0001
,
1000
0000
0001
0001
0000
1000
0001
1000
,
0000
0000
0000
0000
,
0000
0000
0000
0000
,
0010
0000
0000
0000
0001
0000
0000
0100
0001
0000
0000
0000
0010
0000
0000
1000
,
0010
0000
0000
0000
1000
0000
0000
0001
0100
0000
0000
0000
0001
0000
0000
1000
,
0010
0000
0000
0000
1000
0000
0000
0001
0100
0000
0000
0000
0001
0000
0000
0000
,
0120
0000
0000
0000
0000
0000
0000
0000
0130
0000
0000
0000
0001
0000
0000
1000
,
0001
0000
0000
0000
1000
0000
0000
0010
1000
0000
0000
0000
0010
0000
0000
0100
,
0010
0000
0000
0000
0100
0000
0000
0001
0100
0000
0000
0000
0001
0000
0000
1000
,
0001
0000
0000
0000
0100
0000
0000
0010
1000
0000
0000
0000
0001
0000
0000
0100
,
0020
0000
0000
0000
0000
0000
0000
0000
1030
0000
0000
0000
0101
0000
0000
0001
,
0100
0000
0000
0000
0010
0000
0000
0000
1000
0000
0000
0000
0001
0000
0000
0100
,
0001
0000
0100
0000
0100
0000
0100
0000
0010
0000
0000
0000
1000
0000
0000
0100
,
1000
0000
0000
0100
1000
0000
0000
0001
1000
0000
0000
0001
1000
0000
0000
0001
,
0100
0000
0000
0000
0010
0000
0000
0000
1000
0000
0000
0000
0001
0000
0000
0100
,
0001
0000
0000
0000
1000
0000
0000
0000
0010
0000
0000
0000
1000
0000
0000
0100
,
1000
0000
0010
0000
0100
0000
0010
0000
0100
0000
0000
0000
0001
0000
0000
0100
,
0001
0000
0000
0100
0001
0000
0000
1000
0001
0000
0000
1000
0001
0000
0000
1000
,
0010
0100
0001
1000
,
0010
0000
0100
0100
0000
0001
0100
1000
,
0000
0000
0000
0000
,
0020
2030
3200
0302
,
1003
0000
0100
1000
0000
0010
0100
1001
,
0000
0010
1000
0100
0000
0010
0001
0100
,
1001
0000
0010
1000
0100
1000
0100
0001
,
0000
0001
0100
1000
0000
1000
0010
0100
,
0001
0000
0001
0100
0010
0100
0010
0110
,
0000
1000
0001
1001
0000
0001
0100
0010
,
0100
0000
0001
0100
1000
0100
0001
0000
,
0000
1000
0100
0000
1100
0000
0101
0000
,
1000
0100
1000
0100
0001
0100
0001
0100
,
1000
0010
1000
0010
0001
0010
0001
0010
,
1000
0100
0010
0001
1000
0100
0010
0001
,
0100
0010
0100
0010
1000
0001
1000
0001
,
0100
0001
0100
0001
0100
0010
0100
0010
,
1000
0010
1000
0010
0100
0010
0100
0010
,
1000
0001
0100
0010
1000
0001
0100
0010
,
1000
0100
0010
0001
1000
0100
0010
0001
,
1001
0000
0100
1000
0000
0001
0100
1000
,
0010
0100
0100
0100
0100
0100
0100
0100
,
0001
1000
1000
1000
1000
1000
1001
0000
,
0010
0000
1000
0020
0000
0130
0001
0020
,
0000
0031
0100
0020
0000
1030
0100
0010
,
0001
0010
0100
2000
0000
3001
0100
0020
,
0000
1000
1030
0000
0101
0000
1001
0000
,
0010
0100
0001
2000
0000
3010
0100
0002
,
0000
1003
0010
0200
0000
0301
1000
0001
,
1000
0100
0010
0002
0000
0103
0010
1000
,
0200
1000
0001
1300
,
0020
1000
0001
1030
,
2002
0000
3003
0010
,
0220
0000
0330
1000
,
0022
0000
0033
0100
,
2002
3003
0010
1000
,
0200
0001
1300
0001
,
1000
0010
0100
0001
2000
0000
3010
0000
,
0200
0001
0001
0301
,
0020
1000
1000
1030
,
2002
0000
0000
0000
,
0000
0000
0000
3003
,
0010
0000
1000
0000
,
0100
0000
1001
0000
,
0000
1001
0000
0000
,
2002
0000
0000
0000
,
0000
0000
0000
3003
;

//---------------dance-single - ----------------
#NOTES:
     dance-single:
     :
     Easy:
     8:
     0.467,0.571,0.391,0.499,0.000:
0000
0000
0000
0000
,
0000
0000
0000
0000
,
0000
0000
0000
0000
,
0002
0000
2003
0000
,
3200
0000
0320
0000
,
2030
0000
3002
0003
,
1001
0000
0220
0330
,
2000
0000
3100
0000
,
0001
0010
0100
0000
,
0001
0100
0010
2000
,
0002
0000
3003
0000
,
0020
0000
0130
0000
,
0001
0100
2000
3000
,
1000
0010
0100
0001
,
2002
0000
3003
0000
,
0010
0000
1000
0001
0000
0000
1000
0001
,
0000
0100
0100
0100
,
0000
0010
0010
0010
,
2000
3100
0002
0103
,
1000
0100
0010
0001
,
2000
3100
0002
0103
,
0020
0100
0130
0001
,
2000
3010
0002
0013
,
1000
0010
0100
0001
,
0100
1000
0100
0001
,
2002
3003
0110
0000
,
2000
3100
0020
0031
,
0100
0010
0100
0010
0100
0000
0000
0000
,
0002
0013
0200
1300
,
0100
0010
0100
0010
0100
0000
0000
0000
,
1000
0100
1000
0000
0100
0000
0010
0000
,
0001
0010
0001
0000
0010
0000
0100
0000
,
2000
3001
0002
1003
,
0020
0100
0100
0130
,
1000
0000
0001
0100
0000
0000
0001
0100
,
0000
0010
0010
0010
,
0000
0100
0100
0100
,
0002
0100
0103
1001
,
2000
0100
3100
1001
,
0002
0103
2000
3100
,
1001
1001
0110
0110
,
1000
0100
0010
1001
,
0001
0010
0100
1001
,
2200
3300
0022
0033
,
0220
0330
2002
3003
,
0020
0100
0130
1001
,
1010
1010
1001
0010
,
0011
1000
1100
0010
,
0220
0000
0330
0001
,
0200
0010
0310
1100
,
0101
0101
1100
0010
,
0101
0010
1100
0010
,
2002
0000
3003
0010
,
1000
0000
0001
1000
0000
0000
0001
1000
,
0000
0000
0000
0000
,
0020
1000
0100
0031
,
1000
0000
0100
0000
1000
0000
0100
1000
,
0100
0000
0001
0000
0100
0000
0001
0100
,
0001
1000
0100
0010
,
0002
1000
0100
1003
,
0010
0000
0100
0000
0001
0000
0100
0010
,
0100
0000
0001
0000
1000
0000
0001
1000
,
0001
0001
1000
1000
,
0010
0010
0010
0010
,
1001
0000
1000
0001
1000
0000
0100
0000
,
0010
0000
0001
1000
0001
0000
0010
0000
,
0100
0000
1000
0001
1000
0000
0001
1000
,
0002
0100
0100
0103
,
1001
0000
1000
0100
1000
0000
0010
0000
,
0001
0000
0001
0010
0001
0000
0010
0000
,
1000
1000
0001
0001
,
0210
0010
0010
0310
,
0101
0000
1000
0100
0000
0000
1000
0100
,
0000
0001
0100
1000
,
0000
1000
0010
0001
,
1001
1001
1100
1100
,
0001
0010
0100
1000
,
1001
1001
0101
0101
,
0020
0030
0200
0300
,
0011
0011
1100
1100
,
0110
0000
0110
0000
1001
0000
0001
0100
,
0001
0000
1000
0100
1000
0000
0010
0100
,
0020
1000
1000
1030
,
0200
0001
0001
0301
,
0020
0000
0030
0001
,
2000
0000
3000
1000
,
0002
0000
0003
0100
,
0020
0030
2000
3000
,
0200
0300
0002
0003
,
0010
1000
0100
0001
,
0010
1000
0100
0001
,
0020
0000
0000
0030
,
2002
0000
0000
0000
,
0000
0000
0000
3003
,
0010
0000
0001
0000
,
0100
0000
1001
0000
,
0000
1001
0000
0000
,
2002
0000
0000
0000
,
0000
0000
0000
3003
;

//---------------dance-single - ----------------
#NOTES:
     dance-single:
     :
     Beginner:
     5:
     0.237,0.321,0.029,0.289,0.000: // measure 1
0000
0000
0000
0000
,  // measure 2
0000
0000
0000
0000
,  // measure 3
0000
0000
0000
0000
,  // measure 4
0010
0000
0001
0000
,  // measure 5
0100
0000
1000
0000
,  // measure 6
0002
0000
0003
0000
,  // measure 7
1000
0000
1000
0000
,  // measure 8
0020
0000
0030
0000
,  // measure 9
0001
0000
0001
0000
,  // measure 10
1000
0000
1000
0000
,  // measure 11
0002
0000
0003
0000
,  // measure 12
0020
0000
0030
0000
,  // measure 13
1000
0000
1000
0000
,  // measure 14
0001
0000
0001
0000
,  // measure 15
2000
0000
3000
0000
,  // measure 16
0100
0000
0100
0000
,  // measure 17
0200
0000
0300
0000
,  // measure 18
0200
0000
0300
0000
,  // measure 19
0010
0000
0010
0000
,  // measure 20
0001
0000
0100
0000
,  // measure 21
0010
0000
0010
0000
,  // measure 22
1000
0000
0100
0000
,  // measure 23
0001
0000
0001
0000
,  // measure 24
0100
0000
1000
0000
,  // measure 25
0010
0000
0001
0000
,  // measure 26
0200
0000
0310
0000
,  // measure 27
1000
1000
0000
0000
,  // measure 28
0001
0000
0000
0001
0000
0000
0000
0000
,  // measure 29
1000
1000
0000
0000
,  // measure 30
0010
0010
0010
0000
,  // measure 31
0200
0000
0300
0100
,  // measure 32
0010
0010
0010
0000
,  // measure 33
2000
3000
0002
0003
,  // measure 34
2000
0000
3000
0000
,  // measure 35
0001
0000
0001
0000
,  // measure 36
0000
1000
1000
1000
,  // measure 37
0000
0001
0001
0001
,  // measure 38
1000
0000
0001
0000
,  // measure 39
0100
0000
0010
0000
,  // measure 40
1000
0000
0001
0000
,  // measure 41
0200
0000
0300
0000
,  // measure 42
0001
0000
1000
0000
,  // measure 43
0010
0000
0100
0000
,  // measure 44
0001
0000
1000
0000
,  // measure 45
0020
0000
0030
0000
,  // measure 46
2002
0000
3003
0000
,  // measure 47
1000
1000
1000
0000
,  // measure 48
0001
0001
0001
0001
,  // measure 49
0200
0000
0300
0000
,  // measure 50
0020
0000
0030
0000
,  // measure 51
1000
1000
1000
0000
,  // measure 52
0001
0000
1000
0000
,  // measure 53
0002
0000
0003
0000
,  // measure 54
0100
0000
0010
0000
,  // measure 55
0000
0000
0000
0000
,  // measure 56
0100
0100
0100
0100
,  // measure 57
0200
0300
0020
0030
,  // measure 58
2000
3000
0002
0003
,  // measure 59
1000
1000
1000
1000
,  // measure 60
0002
0000
0003
0000
,  // measure 61
0020
0030
0200
0300
,  // measure 62
0002
0003
2000
3000
,  // measure 63
0001
0001
0001
0001
,  // measure 64
2000
0000
3000
0000
,  // measure 65
0000
0001
0001
0001
,  // measure 66
0000
1000
1000
1000
,  // measure 67
0000
0010
0010
0010
,  // measure 68
0000
0100
0100
0100
,  // measure 69
0000
0001
0001
0001
,  // measure 70
0000
1000
1000
1000
,  // measure 71
0000
0010
0010
0010
,  // measure 72
0020
0000
0030
0000
,  // measure 73
0100
0000
0100
0000
,  // measure 74
0020
0000
0030
0000
,  // measure 75
0200
0000
0300
0000
,  // measure 76
0001
0000
0100
0000
,  // measure 77
1000
1000
1000
0000
,  // measure 78
0001
0000
0010
0000
,  // measure 79
0200
0000
0300
0000
,  // measure 80
1000
0000
0100
0000
,  // measure 81
0001
0001
0001
0000
,  // measure 82
1000
0000
0100
0000
,  // measure 83
0020
0000
0030
0000
,  // measure 84
0200
0000
0300
0000
,  // measure 85
0002
0000
0003
1000
,  // measure 86
1000
0000
0000
0100
,  // measure 87
0100
0000
0000
0010
,  // measure 88
0010
0000
0000
0001
,  // measure 89
0001
0000
0100
0000
,  // measure 90
1000
0000
0010
0000
,  // measure 91
0001
0001
0100
0000
,  // measure 92
1000
1000
0100
0000
,  // measure 93
2002
0000
0000
0000
,  // measure 94
0000
3003
0000
0000
,  // measure 95
0010
0000
0010
0000
,  // measure 96
0010
0000
1001
0000
,  // measure 97
0000
0000
0000
0000
,  // measure 98
2002
0000
0000
0000
,  // measure 99
0000
0000
0000
3003
;
