#TITLE:Gold;
#SUBTITLE:;
#ARTIST:Jeff Williams and Casey Lee Williams;
#TITLETRANSLIT:;
#SUBTITLETRANSLIT:;
#ARTISTTRANSLIT:;
#GENRE:;
#CREDIT:;
#MENUCOLOR:;
#METERTYPE:DDR;
#BANNER:Gold.png;
#BACKGROUND:Gold-bg.png;
#LYRICSPATH:;
#CDTITLE:;
#MUSIC:Gold.ogg;
#OFFSET:-0.550;
#SAMPLESTART:52.942;
#SAMPLELENGTH:13.180;
#SELECTABLE:YES;
#LISTSORT:;
#DISPLAYBPM:150.000;
#BPMS:0.000=150.000,223.500=170.000,224.500=150.000;
#STOPS:;
#BGCHANGES:;
#ATTACKS:;

//---------------dance-single - ----------------
#NOTES:
     dance-single:
     :
     Hard:
     10:
     0.512,0.477,0.302,0.287,0.000:
0000
0000
0000
0000
,
0000
0000
0000
0000
,
0000
0000
0000
0000
,
0000
0000
0000
0000
,
0000
0000
0000
0000
,
2000
0100
0000
3001
,
0002
0100
0000
0013
,
0010
0001
0010
0000
0001
0100
0001
0000
,
0100
0010
0100
0000
0010
1000
0010
1000
,
0000
0001
0000
1000
0001
1000
0000
0001
,
0000
1000
0000
0001
0100
0001
0000
1000
,
0000
0001
0000
1000
0010
0100
0000
0001
,
0000
1000
0000
0001
0100
0010
0000
1000
,
0000
0100
0000
1000
0010
1000
0010
0100
,
0000
0001
0000
0100
0001
0100
0001
0010
,
0001
0000
0100
0001
0000
0100
0000
0010
,
0000
1000
0000
0100
1000
0010
0000
1000
,
0000
1001
0000
0001
0100
0010
0000
0001
,
0000
1001
0000
1000
0100
0010
0000
1000
,
0000
0101
0000
0001
0100
0010
0000
1000
,
0000
1100
0000
0010
1000
0100
0000
1000
,
0001
0100
0000
0001
1000
0100
0000
1000
,
0010
0100
0000
0001
0100
0010
0000
1000
,
0001
0100
0001
1000
0000
1001
0000
0001
,
0000
0100
0010
0100
0000
0001
1000
0001
,
0000
1000
0100
1000
0000
0001
0100
0010
,
0000
1000
0100
0010
0001
0100
0010
0100
,
0000
0001
0100
0010
0000
0010
1000
0100
,
0000
1000
0010
0100
0001
0100
0010
1000
,
0000
0001
0100
0001
0000
1000
0100
1000
,
0000
0010
0100
0001
0000
1000
0001
0100
,
0000
0010
1000
0001
0000
1000
0001
0100
,
0000
0010
0100
0010
0100
0010
0000
1010
,
0000
0101
0000
1001
0000
0001
0100
0010
,
0000
1010
0000
0101
0000
1000
0100
0010
,
0000
0011
0000
1100
0000
0001
0100
0010
,
0000
1010
0000
0101
0000
0001
0100
0020
,
0000
1000
0000
0130
0000
1000
0100
0020
,
0000
0001
0000
0130
0000
0001
1000
0010
,
0100
0020
0000
2030
0000
3002
0000
2003
,
0000
3020
0000
0130
0000
0001
1000
0020
,
0000
0100
0000
1030
0000
1000
0100
0020
,
0000
0001
0000
0130
0000
0001
0100
0020
,
0000
1000
0000
0130
0000
1000
0100
2000
,
0000
0001
0000
3010
0000
0001
0100
0010
,
0000
1010
0000
0101
0000
1000
0100
0010
,
0000
0011
0000
1100
0000
0110
0000
0000
,
1000
0001
0100
0010
1000
0001
1000
0001
,
2000
0000
0010
0000
3010
0100
0001
0100
,
0020
0000
0100
0000
0130
0001
0100
0020
,
0000
2030
0000
3002
0000
0203
0000
0320
,
0000
0000
1030
0000
0001
0100
0010
2000
,
0000
0001
0000
3001
0000
0100
0010
2000
,
0000
0001
0000
3001
0000
0100
0001
0020
,
0000
0001
0000
0100
0000
0001
0000
0130
,
0000
0001
1000
0100
0000
0100
1000
0001
,
0000
1001
0000
0110
0000
1000
0010
0100
,
0000
0110
0000
1001
0000
0001
0010
0001
,
0000
0110
0000
1010
0000
1000
0100
1000
,
0000
1001
0000
0101
0000
0010
0100
0002
,
0000
1003
0000
0110
0000
0100
0010
2000
,
0000
3001
0000
0110
0000
0001
0100
0010
,
1000
0200
0000
1000
0000
0010
0000
2300
,
0000
0001
0000
0010
0000
3001
0100
0010
,
0000
0110
0000
0101
0000
0010
1000
0100
,
0000
1100
0000
1001
0000
0100
0010
2000
,
0000
0001
0000
3010
0000
0001
0100
0020
,
0000
1000
0000
0031
0000
1000
0010
0200
,
0000
0001
0000
0310
0000
0001
0100
0020
,
0000
1000
0000
0130
1000
0001
1000
0100
,
1000
0001
1000
0001
0100
0010
0100
0010
,
2000
0000
0100
0000
3100
0000
1000
0020
,
0100
0000
0100
0000
0130
0000
0001
0200
,
0000
0320
0000
2030
0000
3002
0000
2003
,
0000
3100
1000
0000
0010
0100
0001
1001
,
0000
1100
0000
0101
0000
1000
0010
1010
,
0000
1100
0000
0101
0000
0110
0000
0001
,
0100
0010
0100
0001
0100
0010
0100
0001
,
1000
0010
0100
0001
1000
0001
0100
0010
;

//---------------dance-single - ----------------
#NOTES:
     dance-single:
     :
     Medium:
     7:
     0.349,0.357,0.446,0.121,0.000:
0000
0000
0000
0000
,
0000
0000
0000
0000
,
0000
0000
0000
0000
,
0000
0000
0000
0000
,
0000
0000
0000
0000
,
2000
0100
0000
3100
,
0002
0100
0000
0103
,
0000
0010
0001
0100
,
1000
0010
1001
1001
,
0000
0000
0001
0100
0000
0100
0000
0001
,
0000
1000
0000
0020
0000
0030
0000
0010
,
0000
1000
0000
1000
0000
0001
0000
0100
,
0000
0001
0000
2000
0000
3000
0000
0001
,
0000
0001
0000
1000
0000
0010
0000
1000
,
0000
0001
0000
0001
0000
0000
0000
0010
,
0100
0000
0000
1001
0000
0000
0110
0000
,
0000
1000
0001
0100
,
0000
1001
0000
0110
,
0000
0000
1001
0000
1000
0001
1000
0000
,
0000
0101
0000
1010
,
0000
0000
0110
0000
0100
0010
0100
0000
,
0000
1100
0000
0101
,
0000
0000
0100
0000
0001
0100
0001
0000
,
1000
0100
1000
1001
,
0001
0010
1000
1001
,
2000
0100
0000
3100
,
0002
0100
0000
0103
,
2000
0100
0000
3010
,
0002
0010
0000
0103
,
0000
1001
0010
0100
,
0000
1001
0010
0100
,
0001
0001
1000
1000
,
0010
0000
0110
0000
0110
0000
0000
1000
,
0000
0001
0000
1001
0000
0000
0000
0100
,
0000
0010
0000
0110
0000
0000
0000
1000
,
0000
0100
0000
0001
0000
0000
0000
0001
,
0000
0100
0000
1000
0000
0000
0000
0010
,
0000
0010
0000
1001
0000
0000
0000
0100
,
0000
0100
0000
1000
0000
0001
0000
1000
,
0000
0001
0000
0100
0000
0010
0000
1000
,
0000
0010
0000
0100
0000
0001
0000
1000
,
0000
0010
0000
1010
0000
0000
0000
0001
,
0000
0100
0000
0101
0000
0000
0000
0100
,
0000
0010
0000
0110
0000
0000
0000
0001
,
0000
0100
0000
1001
0000
0000
0000
1000
,
0000
0100
0000
1001
0000
0000
0000
0010
,
0000
1000
0000
0100
0000
0001
0000
0000
,
1000
0100
0010
0001
,
2000
0010
0010
3010
,
0002
0010
0010
0013
,
2000
3100
0002
0103
,
1000
0100
0001
0010
,
0000
1001
0100
0110
,
0000
1001
0010
0110
,
0000
0101
0000
1100
,
0001
0000
0010
0000
0100
0000
0000
1001
,
0000
1001
0000
1001
0000
0000
0000
0110
,
0000
0110
0000
0110
0000
0000
0000
0010
,
0000
1000
0000
1100
0000
0000
0000
0010
,
0000
0001
0000
0101
0000
0000
0000
1100
,
0000
1100
0000
0101
0000
0101
0000
1000
,
0000
0001
0000
0100
0000
0010
0000
0100
,
0000
0001
0100
1000
,
0000
0000
1000
0000
0100
0000
0001
1000
,
0000
0100
0000
1001
0000
0000
0000
0001
,
0000
0100
0000
1001
0000
0000
0000
0110
,
0000
1010
0000
0101
0000
0000
0000
1001
,
0000
0110
0000
0011
0000
0000
0000
1000
,
0000
0001
0000
0101
0000
1000
0000
0010
,
0000
0100
0000
0001
0000
1001
0000
0000
,
0001
0010
0100
1000
,
0002
0100
0100
0103
,
2000
0100
0100
3100
,
0002
0103
2000
3100
,
0001
0000
0010
0000
1000
0000
0000
0100
,
0000
1001
0000
1001
0000
0000
0000
0010
,
0000
1001
0000
1001
0000
0000
0000
0000
,
0100
0001
0010
1000
,
0100
1000
0010
1001
;

//---------------dance-single - ----------------
#NOTES:
     dance-single:
     :
     Easy:
     4:
     0.209,0.208,0.038,0.136,0.000:
0000
0000
0000
0000
,
0000
0000
0000
0000
,
0000
0000
0000
0000
,
0000
0000
0000
0000
,
0000
0000
0000
0000
,
2000
0000
0000
3000
,
0002
0000
0000
0003
,
2000
0000
0000
3000
,
0002
0000
0000
0003
,
0000
0010
0000
0001
,
0000
0100
0000
1000
,
0000
0010
0000
1000
,
0000
0100
0000
0001
,
0000
0010
0000
1000
,
0000
0010
0000
0001
,
0000
0010
0000
0010
,
0000
0010
0100
0010
,
0000
1000
0000
0001
,
0000
0100
0100
0100
,
0000
0001
0000
0100
,
0000
0010
0010
0010
,
0000
0001
0000
1000
,
0000
0001
1000
0001
,
0000
0010
0000
0100
,
0000
1000
0001
1000
,
0002
0000
0000
0003
,
0020
0000
0000
0030
,
0200
0000
0000
0300
,
2000
0000
0000
3000
,
0000
0010
0010
0010
,
0000
0100
0100
0100
,
0000
0001
0010
0100
,
1000
0001
1000
0000
,
0000
0100
0001
0100
,
0000
0100
1000
0100
,
0000
0010
0001
0010
,
0000
0010
1000
0010
,
0000
1000
0000
0001
,
0000
1000
0000
0001
,
0000
0010
0001
0100
,
0010
0100
0010
0100
,
0000
1000
0000
0001
,
0000
0010
0000
1001
,
0000
0001
0000
1000
,
0000
0010
0000
1001
,
0000
0100
0010
0100
,
0000
0010
0100
0010
,
0200
0000
0000
0300
,
2000
0000
0000
3000
,
0020
0000
0000
0030
,
0200
0000
0000
0300
,
0002
0000
0000
0003
,
0000
0010
0000
1001
,
0000
0010
0000
1001
,
0000
0010
0001
0100
,
0000
0010
1000
0100
,
0000
0100
1000
0010
,
0100
0100
0000
0100
,
0000
0100
0001
0010
,
0100
0010
0000
0010
,
0000
0001
1000
0001
,
0000
1000
0001
1000
,
0000
0010
0001
0100
,
0010
0100
0010
0100
,
0000
0001
0100
0010
,
0000
1000
0010
0100
,
0000
1000
0010
0001
,
0000
0001
0010
1000
,
0000
0010
0001
0100
,
1000
0100
0001
0010
,
0000
0000
0000
0000
,
0020
0000
0000
0030
,
0200
0000
0000
0300
,
0020
0030
0200
0300
,
0020
0000
0030
0000
,
0001
0010
0100
0000
,
1000
0010
0100
0000
,
0001
0010
1000
0000
,
0001
0100
1000
1001
;

//---------------dance-single - ----------------
#NOTES:
     dance-single:
     :
     Beginner:
     1:
     0.099,0.148,0.000,0.000,0.000:
0000
0000
0000
0000
,
0000
0000
0000
0000
,
0000
0000
0000
0000
,
0000
0000
0000
0000
,
0000
0000
0000
0000
,
1000
0000
0000
0000
,
0001
0000
0000
0000
,
1000
0000
0000
0000
,
0001
0000
0000
0000
,
0010
0000
0000
0000
,
0001
0000
0000
0000
,
0100
0000
0000
0000
,
1000
0000
0000
0000
,
0001
0000
0000
0000
,
0010
0000
0000
0000
,
1000
0000
0000
0000
,
0010
0000
0000
0000
,
0001
0000
0000
0000
,
0001
0000
0000
0000
,
1000
0000
0000
0000
,
1000
0000
0000
0000
,
0001
0000
0000
0000
,
1000
0000
0000
0000
,
0010
0000
0000
0000
,
0100
0000
0000
0000
,
0001
0000
0000
0000
,
0010
0000
0000
0000
,
0100
0000
0000
0000
,
1000
0000
0000
0000
,
0010
0000
0000
0000
,
0100
0000
0000
0000
,
0001
0000
0000
0000
,
1000
0000
0000
0000
,
0000
0100
0000
0100
,
0000
0100
0000
0000
,
0000
0010
0000
0010
,
0000
0010
0000
0000
,
0000
1000
0000
1000
,
0000
1000
0000
0000
,
0000
0001
0000
0001
,
0000
0001
0000
0000
,
0000
0010
0000
0010
,
0000
0010
0000
0000
,
0000
0100
0000
0100
,
0000
0100
0000
0000
,
0000
0010
0000
0010
,
0000
0100
0000
0100
,
0000
0000
0000
0000
,
1000
0000
0000
0000
,
0010
0000
0000
0000
,
0100
0000
0000
0000
,
0001
0000
0000
0000
,
0010
0000
0000
0000
,
0100
0000
0000
0000
,
0001
0000
0000
0000
,
1000
0000
0000
0000
,
0000
1000
0000
1000
,
0000
1000
0000
0000
,
0000
0001
0000
0001
,
0000
0001
0000
0000
,
0000
0010
0000
0010
,
0000
0010
0000
0000
,
0000
0100
0000
0100
,
0000
0100
0000
0000
,
0000
0001
0000
0001
,
0000
0001
0000
0000
,
0000
1000
0000
1000
,
0000
1000
0000
0000
,
0000
0001
0000
0001
,
0000
0001
0000
0000
,
0000
0000
0000
0000
,
0100
0000
0000
0000
,
0010
0000
0000
0000
,
0100
0000
0100
0000
,
0100
0000
0000
0000
,
0010
0000
0100
0000
,
0010
0000
0100
0000
,
0001
0000
1000
0000
,
0001
0000
1000
0000
;

//---------------dance-single - ----------------
#NOTES:
     dance-single:
     :
     Challenge:
     10:
     0.458,0.447,0.476,0.461,0.000: // measure 1
0000
0000
0000
0000
,  // measure 2
0000
0000
0000
0000
,  // measure 3
0000
0000
0000
0000
,  // measure 4
0000
0000
0000
0000
,  // measure 5
0000
0000
0000
0000
,  // measure 6
0010
1000
0010
1000
,  // measure 7
0001
0100
0001
0100
,  // measure 8
1000
0100
0010
0001
,  // measure 9
2002
0000
0000
0000
3003
0000
0000
1010
,  // measure 10
0000
0101
0000
1000
0000
0100
0000
0010
,  // measure 11
0000
0002
0000
0200
0000
0303
0000
1010
,  // measure 12
0000
1010
0000
0001
0000
0100
0010
1000
,  // measure 13
0000
0002
0000
2000
0000
3003
0000
0101
,  // measure 14
0000
1100
0000
0020
0000
0100
0000
1000
,  // measure 15
0000
0130
0000
2002
0000
3003
0000
0010
,  // measure 16
1000
0000
0001
0100
0000
0010
0000
2002
,  // measure 17
0000
0000
0000
0000
0000
3003
0000
0101
,  // measure 18
0000
0101
0000
0010
0000
1000
0000
0001
,  // measure 19
0000
0200
0000
0010
0000
0310
0000
1001
,  // measure 20
0000
1001
0000
0010
0000
0001
0000
1000
,  // measure 21
0000
0001
0000
0200
0000
0300
0000
1001
,  // measure 22
0000
1001
0000
0010
1000
0010
0100
0020
,  // measure 23
0000
0000
1030
0002
0000
0000
0103
0010
,  // measure 24
1000
0000
0010
0100
0000
0010
0000
2002
,  // measure 25
0000
0000
0000
3003
0000
1000
0001
0200
,  // measure 26
0000
0310
0000
0200
0000
0301
0000
2002
,  // measure 27
0000
0000
0000
3003
0000
0001
0100
0020
,  // measure 28
0000
1030
0000
0002
0000
0103
0000
2002
,  // measure 29
0000
0000
0000
3003
0000
0010
1000
0200
,  // measure 30
0000
1300
0000
0002
0000
1003
0000
2002
,  // measure 31
0000
0000
0000
3003
0000
0010
1000
0200
,  // measure 32
0000
1300
0000
0002
0000
0103
0000
0020
,  // measure 33
0100
0000
0100
0000
0130
0000
0001
1000
,  // measure 34
0000
1001
0000
1001
0000
0001
1000
0100
,  // measure 35
0000
1001
0000
1001
0000
0001
0010
0001
,  // measure 36
0000
1000
0001
1000
0000
0001
0100
0010
,  // measure 37
0000
0010
1000
0010
0000
1000
0100
1000
,  // measure 38
0000
0001
0100
0001
0000
0001
0100
0010
,  // measure 39
0000
1010
0000
0101
0000
1010
0000
0001
,  // measure 40
0100
0010
0000
1010
0000
0101
0000
1000
,  // measure 41
0000
0100
0000
0010
0000
0001
0100
0010
,  // measure 42
0000
1000
0001
1000
0000
0010
0100
0010
,  // measure 43
0000
1001
0000
1001
0000
0001
0100
0001
,  // measure 44
0000
1001
0000
1001
0000
0100
1000
0100
,  // measure 45
0000
1001
0000
1001
0000
1000
0010
1000
,  // measure 46
0000
0001
0100
0001
0000
0100
0010
0100
,  // measure 47
0000
0101
0000
1010
0000
0101
0000
0000
,  // measure 48
0020
0230
0302
2003
,  // measure 49
3020
0000
0000
0000
0000
0000
0000
0032
,  // measure 50
0000
0000
0000
0000
0000
0000
0000
2003
,  // measure 51
0000
3020
0000
2030
0000
3020
0000
0230
,  // measure 52
0000
0000
0000
0000
0000
0301
0100
0001
,  // measure 53
0000
1000
0001
2000
0000
3000
0000
0001
,  // measure 54
0000
0100
0010
0100
0000
0010
0000
2000
,  // measure 55
0000
0001
0000
3001
,  // measure 56
0200
0000
0320
0000
2030
0000
3001
0001
,  // measure 57
0000
1001
0000
1001
0000
0100
0010
0100
,  // measure 58
0000
1001
0000
1001
0000
0010
0100
0010
,  // measure 59
0000
1000
0001
1000
0000
0001
0100
0001
,  // measure 60
0000
1000
0010
1000
0000
0001
0010
0001
,  // measure 61
0000
1000
0100
1000
0000
0001
0100
0010
,  // measure 62
0000
1010
0000
1010
0000
0101
0000
1000
,  // measure 63
0001
1000
0000
0010
0000
0010
0000
0110
,  // measure 64
0000
0110
0000
1001
0000
0001
0100
0010
,  // measure 65
0000
1000
0010
1000
0000
0010
0100
0001
,  // measure 66
0000
1001
0000
1001
0000
0001
0100
0010
,  // measure 67
0000
1001
0000
0110
0000
1000
0010
0100
,  // measure 68
0000
1001
0000
0110
0000
1000
0001
0100
,  // measure 69
0000
0101
0000
0101
0000
0010
1000
0100
,  // measure 70
0000
1100
0000
0011
0000
1100
0000
0000
,  // measure 71
0002
0203
0320
2030
,  // measure 72
3200
0000
0000
0000
0000
0000
0000
0302
,  // measure 73
0000
0000
0000
0000
0000
0000
0000
2003
,  // measure 74
0000
3002
0000
2003
0000
3002
0000
0203
,  // measure 75
0000
0000
0000
0000
0000
0310
1000
0100
,  // measure 76
0000
0010
0001
0100
0000
0000
0000
1001
,  // measure 77
0000
1100
0000
0101
0000
0110
0000
2002
,  // measure 78
0000
0000
0000
0000
,  // measure 79
0000
0000
0000
0000
0000
0000
0000
3003
;

//---------------dance-double - ----------------
#NOTES:
     dance-double:
     :
     Challenge:
     9:
     0.495,0.477,1.000,0.378,0.000:
00000000
00000000
00000000
00000000
,
00000000
00000000
00000000
00000000
,
00000000
00000000
00000000
00000000
,
00000000
00000000
00000000
00000000
,
00000000
00000000
00000000
00000000
,
02200000
00000000
03300000
00000000
,
00022000
00000000
00033000
00000000
,
00000220
00000000
00000330
00000000
,
00022000
00000000
00000000
00000000
00033000
00000000
00000000
00101000
,
00000000
00101000
00000000
00011000
00000000
00011000
00000000
00010010
,
00000000
00011000
00000000
00011000
00000000
00000000
00000000
01010000
,
00000000
01010000
00000000
10010000
00000000
01010000
00000000
01001000
,
00000000
00022000
00000000
00000000
00000000
00033000
00000000
00010100
,
00000000
00010100
00000000
00001100
00000000
00001100
00000000
00001001
,
00000000
00001001
00000000
00001001
00000000
00000000
00000000
00000000
,
00001100
00000000
00000000
00011000
00000000
00011000
00000000
00101000
,
00000000
00000000
00000000
00110000
00000000
00000000
00000000
01010000
,
00000000
01010000
00000000
10100000
00000000
10100000
00000000
01001000
,
00000000
01001000
00000000
00101000
00000000
00000000
00000000
00011000
,
00000000
00011000
00000000
00010010
00000000
00010010
00000000
00010100
,
00000000
00010100
00000000
00011000
00000000
00000000
00000000
00001100
,
00000000
00001100
00000000
00001001
00000000
00001001
00000000
00001100
,
00000000
00000000
00000000
00010100
00000000
00000000
00000000
00000000
,
00011000
00000000
00000000
00101000
00000000
00101000
00000000
00101000
,
00000000
00000000
00000000
00000000
00000000
01010000
00000000
20020000
,
00000000
30030000
00000000
00220000
00000000
00330000
00000000
00202000
,
00000000
00000000
00000000
00303000
00000000
00011000
00000000
00022000
,
00000000
00033000
00000000
00002020
00000000
00003030
00000000
00002002
,
00000000
00000000
00000000
00003003
00000000
00001100
00000000
00020200
,
00000000
00030300
00000000
00202000
00000000
00303000
00000000
00020200
,
00000000
00000000
00000000
00030300
00000000
00101000
00000000
02020000
,
00000000
03030000
00000000
00022000
00000000
00033000
00000000
00002200
,
00000000
00000000
00000000
00003300
00000000
00000000
00000000
00000101
,
00000000
00000101
00000000
00000101
00000000
00001100
00000000
00011000
,
00000000
00011000
00000000
00011000
00000000
01010000
00000000
10010000
,
00000000
10010000
00000000
10010000
00000000
00110000
00000000
00011000
,
00000000
00011000
00000000
00011000
00000000
00001010
00000000
00001001
,
00000000
00001001
00000000
00001001
00000000
00001100
00000000
00011000
,
00000000
00011000
00000000
01010000
00000000
01010000
00000000
00000000
,
10010000
10010000
00000000
10010000
00000000
10010000
00000000
01001000
,
00000000
01001000
00000000
00011000
00000000
00011000
00000000
00010100
,
00000000
00010100
00000000
00010100
00000000
00001100
00000000
00001001
,
00000000
00001001
00000000
00001001
00000000
00001010
00000000
00010010
,
00000000
00010010
00000000
00010100
00000000
00010010
00000000
00011000
,
00000000
00011000
00000000
00101000
00000000
00011000
00000000
01010000
,
00000000
01010000
00000000
10010000
00000000
10010000
00000000
00110000
,
00000000
00110000
00000000
01010000
00000000
01001000
00000000
00000000
,
00000000
00000000
00000000
00000000
,
00022000
00000000
00000000
00000000
00000000
00033000
00000000
00002020
,
00000000
00000000
00000000
00000000
00003030
00000000
00000000
00010100
,
00000000
00010100
00000000
01001000
00000000
01001000
00000000
00022000
,
00000000
00000000
00000000
00033000
00000000
01001000
00000000
01001000
,
00000000
01001000
00000000
01001000
00000000
00000000
00000000
00010100
,
00000000
00010100
00000000
00010100
00000000
00000000
00000000
00022000
,
00000000
00000000
00000000
00000000
,
00033000
00000000
00000000
00000000
00000000
00000000
00000000
00110000
,
00000000
01010000
00000000
10010000
00000000
00000000
00000000
11000000
,
00000000
10100000
00000000
10010000
00000000
00000000
00000000
00101000
,
00000000
00011000
00000000
00101000
00000000
00000000
00000000
00010100
,
00000000
00011000
00000000
00010100
00000000
00000000
00000000
00001010
,
00000000
00000101
00000000
00001010
00000000
00000000
00000000
00000110
,
00000000
00001010
00000000
00000110
00000000
00001010
00000000
00000000
,
00010010
00000000
00000000
00011000
00000000
00011000
00000000
01001000
,
00000000
01001000
00000000
00011000
00000000
00000000
00000000
01001000
,
00000000
01001000
00000000
00011000
00000000
00011000
00000000
00010100
,
00000000
00010100
00000000
00010010
00000000
00010010
00000000
00011000
,
00000000
00011000
00000000
00101000
00000000
00101000
00000000
00011000
,
00000000
01001000
00000000
00011000
00000000
00011000
00000000
00010100
,
00000000
00010100
00000000
00011000
00000000
00011000
00000000
00110000
,
00000000
00110000
00000000
01010000
00000000
10010000
00000000
00000000
,
00000000
00000000
00000000
00000000
,
20020000
00000000
00000000
00000000
30030000
00000000
00000000
02020000
,
00000000
00000000
00000000
03030000
00000000
00000000
00000000
00110000
,
00000000
00101000
00000000
00110000
00000000
00101000
00000000
00220000
,
00000000
00000000
00000000
00000000
00330000
00000000
00000000
00011000
,
00000000
00010100
00000000
00010100
00000000
00000000
00000000
00001010
,
00000000
00001001
00000000
00001100
00000000
00001010
00000000
00020020
,
00000000
00000000
00000000
00000000
,
00000000
00000000
00000000
00000000
00000000
00000000
00000000
00030030
;

//---------------dance-double - ----------------
#NOTES:
     dance-double:
     :
     Hard:
     10:
     0.501,0.477,0.559,0.302,0.000:
00000000
00000000
00000000
00000000
,
00000000
00000000
00000000
00000000
,
00000000
00000000
00000000
00000000
,
00000000
00000000
00000000
00000000
,
00000000
00000000
00000000
00000000
,
00020000
01000000
00000000
01030000
,
00002000
00010000
00000000
00013000
,
00000200
00001000
00000000
00001300
,
00000001
00000000
00000010
00000000
00000100
00000000
00001000
00000001
,
00000000
00001001
00000000
00001000
00000000
00000100
00010000
00000100
,
00000000
00011000
00000000
00000100
00000000
00010000
00001000
00100000
,
00000000
00010000
00000000
01000000
00000000
00010000
10000000
01000000
,
00000000
10010000
00000000
10000000
00000000
00100000
01000000
00001000
,
00000000
00010000
00000000
00000100
00000000
00010000
00000100
00010000
,
00000000
00011000
00000000
00010000
00000000
00000010
00001000
00000100
,
00001000
00000000
00000010
00000100
00000000
00000001
00000000
00002000
,
00000000
00000010
00000000
00003010
00000000
00000001
00000100
00000010
,
00000000
00000110
00000000
00000001
00000000
00001000
00000100
00001000
,
00000000
00001100
00000000
00000100
00000000
00010000
00001000
00100000
,
00000000
00110000
00000000
00010000
00000000
01000000
00100000
10000000
,
00000000
10010000
00000000
10000000
00000000
00100000
01000000
00010000
,
00000000
01010000
00000000
01000000
00000000
00001000
00010000
00000100
,
00000000
00001100
00000000
00001000
00000000
00000010
00000100
00000001
,
00000100
00000000
00000010
00001000
00000000
00001100
00000000
00001100
,
00000000
00000100
00010000
00001000
00000000
00001000
00100000
00020000
,
00000000
01030000
00000000
02000000
00000000
13000000
00000000
20000000
,
00000000
00010000
00000000
30010000
00000000
00100000
00001000
00020000
,
00000000
00031000
00000000
00020000
00000000
00030100
00000000
00002000
,
00000000
00000010
00000000
00003010
00000000
00001000
00000001
00002000
,
00000000
00003100
00000000
00000200
00000000
00010300
00000000
00020000
,
00000000
00001000
00000000
00031000
00000000
00001000
00100000
00020000
,
00000000
01030000
00000000
00200000
00000000
10300000
00000000
00200000
,
00000000
00000000
01000000
00000000
01000000
00000000
01300000
00100000
,
00000000
10100000
00000000
01010000
00000000
10000000
00100000
01000000
,
00000000
01010000
00000000
00110000
00000000
00100000
00001000
00010000
,
00000000
00010100
00000000
00010010
00000000
00000010
00001000
00000001
,
00000000
00000101
00000000
00001001
00000000
00001000
00000100
00010000
,
00000000
00010100
00000000
00011000
00000000
00001000
00100000
00010000
,
00000000
01010000
00000000
10010000
00000000
01010000
00000000
20000000
,
00100000
30100000
00000000
01010000
00000000
11000000
00000000
00110000
,
00000000
01001000
00000000
00011000
00000000
00010000
00000100
00001000
,
00000000
00001100
00000000
00001001
00000000
00000100
00010000
00001000
,
00000000
00011000
00000000
01001000
00000000
01000000
00100000
01000000
,
00000000
10010000
00000000
01100000
00000000
10000000
00010000
00100000
,
00000000
00101000
00000000
00011000
00000000
00010000
00000010
00001000
,
00000000
00001000
00000001
00000100
00000000
00000010
00001000
00000100
,
00000000
00001100
00000000
00011000
00000000
00110000
00000000
00000000
,
00010000
01000000
00010000
01000000
00001000
00010000
00001000
00010000
,
00000200
00000000
00001000
00000000
00001300
00000000
00001000
00000020
,
00000000
00000000
00000100
00000000
00000130
00000000
00000001
00002000
,
00000000
00003200
00000000
00020300
00000000
00032000
00000000
02003000
,
00000000
00000000
00100000
00000000
03100000
00010000
01000000
00100000
,
00000000
10000000
01000000
00100000
00000000
00010000
01000000
00100000
,
00000000
10000000
00000000
01010000
00000000
00110000
00000000
00200000
,
00001000
00001000
00010000
00310000
,
00001000
00100000
00010000
00100000
00001000
00010000
00001000
00010000
,
00000000
00010100
00000000
00001010
00000000
00001000
00000010
00000100
,
00000000
00000101
00000000
00001001
00000000
00000010
00001000
00000100
,
00000000
00001100
00000000
00010100
00000000
00000100
00010000
00001000
,
00000000
00101000
00000000
00011000
00000000
00100000
00010000
01000000
,
00000000
10010000
00000000
01010000
00000000
00100000
00001000
00010000
,
00000000
00010100
00000000
00001100
00000000
00010100
00000000
00000100
,
00001000
00000001
00000000
00001100
00000000
00010100
00000000
00011000
,
00000000
01001000
00000000
01010000
00000000
00010000
10000000
01000000
,
00000000
10010000
00000000
01001000
00000000
00001000
00010000
00000100
,
00000000
00001100
00000000
00010100
00000000
00010000
00001000
01000000
,
00000000
01010000
00000000
10010000
00000000
01000000
00001000
00010000
,
00000000
00010100
00000000
00001010
00000000
00001000
00000001
00000100
,
00000000
00000010
00001000
00000100
00000000
00010000
00001000
00100000
,
00000000
00110000
00000000
01100000
00000000
11000000
00000000
00000000
,
00200000
00302000
00023000
00030020
,
00000230
00000000
00000000
00000000
00000000
00000000
00000000
00000302
,
00000000
00000000
00000000
00000000
00000000
00000000
00000000
00002003
,
00000000
00003200
00000000
00020300
00000000
00032000
00000000
02003000
,
00000000
00000000
00000000
00000000
00000000
00100000
13000000
02000000
,
00000000
03010000
10000000
02000000
00000000
13000000
00100000
02000000
,
00000000
03010000
00000000
00110000
00000000
00101000
00000000
00100000
,
00002000
00010000
00010000
00013000
,
00010000
00001000
00010000
00001000
00010000
00001000
00010000
00001000
;

//---------------dance-double - Copied from----------------
#NOTES:
     dance-double:
     Copied from:
     Medium:
     7:
     0.314,0.298,0.181,0.265,0.000:
00000000
00000000
00000000
00000000
,
00000000
00000000
00000000
00000000
,
00000000
00000000
00000000
00000000
,
00000000
00000000
00000000
00000000
,
00000000
00000000
00000000
00000000
,
20000000
01000000
00000000
31000000
,
00020000
01000000
00000000
01030000
,
00000000
00100000
00010000
00000100
,
00001000
00000010
00001001
00001001
,
00000000
00000000
00000001
00000100
00000000
00000100
00000000
00000001
,
00000000
00001000
00000000
00000200
00000000
00000300
00000000
00010000
,
00000000
00001000
00000000
00100000
00000000
00010000
00000000
01000000
,
00000000
00010000
00000000
20000000
00000000
30000000
00000000
00010000
,
00000000
00010000
00000000
10000000
00000000
00100000
00000000
01000000
,
00000000
00001000
00000000
00010000
00000000
00000000
00000000
00001000
,
00010000
00000000
00000000
00001000
00000000
00010000
00000000
00000200
,
00000000
00000000
00000300
00000000
00000000
00000000
00000000
00000010
,
00000000
00001000
00000000
00000100
00000000
00010000
00001000
00010000
,
00000000
00001000
00000000
01000000
00000000
00010000
00000000
10000000
,
00000000
10000000
00000000
00100000
00000000
01000000
00000000
00100000
,
00000000
10000000
00000000
00020000
00000000
00030000
00000000
00100000
,
00000000
00100000
00000000
00001000
00010000
00001000
00000000
00010000
,
00000000
00000000
00000010
00001000
00000000
00000000
00000000
00000000
,
00001001
00000000
00000000
00001000
00000000
00000100
00000000
00020000
,
00000000
00000000
00030000
00000000
,
00002000
00003000
00200000
00300000
,
00010000
00000000
01000000
00000000
00010000
01000000
00010000
00000000
,
20000000
30000000
00020000
00030000
,
00100000
00000000
00001000
00000000
00100000
00001000
00100000
00000000
,
00002000
00003000
00020000
00030000
,
00000010
00000000
00001000
00000000
00000001
00000100
00000001
00000000
,
00002000
00003000
00000200
00000300
,
00020000
00000000
00032000
00000000
00023000
00000000
00030000
00001000
,
00000000
00100000
00000000
00010000
00000000
00000000
00000000
01000000
,
00000000
00010000
00000000
10010000
00000000
00000000
00000000
00100000
,
00000000
00001000
00000000
00011000
00000000
00000000
00000000
00001000
,
00000000
00000010
00000000
00001001
00000000
00000000
00000000
00000001
,
00000000
00001000
00000000
00001100
00000000
00000000
00000000
00000000
,
00000100
00010000
00001000
01000000
,
00010000
01000000
00010000
00000000
10000000
00000000
00100000
00000000
,
01000000
00010000
01000000
00000000
00002000
00000000
00003000
00000000
,
00010000
00000100
00001010
00000000
,
00000001
00000010
00001100
00000000
,
00010000
00001000
01010000
00000000
,
00100000
10000000
01010000
00000000
,
10000000
00000000
00010000
00000000
10000000
00010000
10000000
00000000
,
01000000
00100000
00010000
00001000
,
00020000
00030000
00002000
00003000
,
00000020
00000000
00000030
00000000
,
00000002
00000000
00000003
00000000
,
00002000
00003000
00000002
00000003
,
00002000
00000000
00003000
00000000
,
00000010
00001000
00001100
00000000
,
00010000
00100000
01010000
00000000
,
10000000
00010000
00100000
00001000
,
00010000
00000000
00000010
00000000
00001000
00000100
00001000
00000010
,
00000000
00001000
00000000
00001000
00000000
00000001
00000000
00001000
,
00000000
00001000
00000000
00001000
00000000
00000000
00000000
00010000
,
00000000
00010000
00000000
00010000
00000000
10000000
00000000
00010000
,
00000000
00010000
00000000
00010000
00000000
00000000
01100000
00000000
,
00000000
10010000
00000000
00011000
,
00000000
00001001
00000000
00000110
,
00000010
00001000
00000000
00000010
00000000
00001000
00000000
00020000
,
00000000
00000000
00000000
00030000
00000000
00000000
00000000
00001000
,
00000000
00001000
00000000
00101000
00000000
00000000
00000000
01000000
,
00000000
00100000
00000000
10010000
00000000
00000000
00000000
01000000
,
00000000
01000000
00000000
01010000
00000000
00000000
00000000
00001000
,
00000000
00010000
00000000
00001100
00000000
00000010
00001000
00000010
,
00000000
00000100
00000001
00000100
00000000
00000000
00000000
00000000
,
00000001
00001000
00000100
00010000
,
00002000
00003000
00020000
00030000
,
00022000
00000000
00000000
00033000
,
00200000
00000000
00000000
00300000
,
00020000
00030000
02000000
03000000
,
20000000
00000000
30000000
00100000
,
10000000
01000000
00100000
00010000
,
00100000
00001000
00010000
00000000
,
00001000
00010000
00000010
00001000
,
00000001
00000100
00001000
00001001
;

//---------------dance-double - ----------------
#NOTES:
     dance-double:
     :
     Easy:
     3:
     0.186,0.206,0.151,0.106,0.000:
00000000
00000000
00000000
00000000
,
00000000
00000000
00000000
00000000
,
00000000
00000000
00000000
00000000
,
00000000
00000000
00000000
00000000
,
00000000
00000000
00000000
00000000
,
00100000
00000000
00000000
00000000
,
00010000
00000000
00000000
00000000
,
00001000
00000000
00000000
00000000
,
00000100
00000000
00000000
00000000
,
00000000
00000001
00000000
00000001
,
00000000
00001000
00000000
00001000
,
00000000
00000001
00000000
00000001
,
00000000
00001000
00000000
00001000
,
00000000
00010000
00000000
00010000
,
00000000
10000000
00000000
10000000
,
00000000
00010000
00000000
10000000
,
00000000
00010000
00000000
00001000
,
00000000
00010000
00000000
00000010
,
00000000
00000100
00000000
00001000
,
00000000
00001000
00000000
01000000
,
00000000
00100000
00000000
00010000
,
00000000
01000000
00000000
10000000
,
00000000
00100000
00000000
00010000
,
00000000
00000100
00000000
00001000
,
00000000
00000010
00000000
00000001
,
00000000
00001000
00000001
00001000
,
00000000
00001000
00000000
00010000
,
00000000
10000000
00010000
10000000
,
00000000
00010000
00000000
00001000
,
00000000
00000010
00001000
00000100
,
00000000
00001000
00000000
00010000
,
00000000
00100000
00010000
01000000
,
00000000
10000000
00000000
00010000
,
00000000
10010000
00000000
10010000
,
00000000
10000000
00000000
00010000
,
00000000
00011000
00000000
00011000
,
00000000
00010000
00000000
00001000
,
00000000
00001001
00000000
00001001
,
00000000
00000001
00000000
00001000
,
00000010
00000000
00001000
00000000
,
00000100
00000000
00000001
00000000
,
00000010
00000010
00000000
00001000
,
00000000
00011000
00000000
00010000
,
00100000
00100000
00000000
10010000
,
00000000
00010000
00000000
00011000
,
00000000
00001000
00000000
00001001
,
00000000
00001000
00000100
00000001
,
00000100
00000100
00000100
00000000
,
00002000
00000000
00003000
00000000
,
00020000
00000000
00030000
00000000
,
02000000
00000000
03000000
00000000
,
20000000
00000000
30000000
00000000
,
00200000
00000000
00300000
00000000
,
00002000
00000000
00003000
00000000
,
00000020
00000000
00000000
00000000
,
00000030
00000000
00000000
00000000
,
00000000
00001001
00000000
00001001
,
00000000
00000001
00000000
00001000
,
00000000
00011000
00000000
00011000
,
00000000
00001000
00000000
00010000
,
00000000
10010000
00000000
10010000
,
00000000
10000000
00000000
00010000
,
01000000
00000000
00010000
00000000
,
00100000
00000000
10000000
00000000
,
01000000
01000000
00000000
00010000
,
00000000
00011000
00000000
00001000
,
00000100
00000100
00000000
00001001
,
00000000
00001000
00000000
00011000
,
00000000
00010000
00000000
10010000
,
00000000
00010000
00100000
10000000
,
00100000
00100000
00100000
00000000
,
00020000
00000000
00030000
00000000
,
00002000
00000000
00003000
00000000
,
00000020
00000000
00000030
00000000
,
00000002
00000000
00000003
00000000
,
00000200
00000000
00000300
00000000
,
00020000
00000000
00030000
00000000
,
00200000
00000000
00000000
00000000
,
00300000
00000000
00000000
00000000
;
