#TITLE:Glitter;
#SUBTITLE:(Starving Trancer Remix);
#ARTIST:Another Infinity feat. Mayumi Morinaga;
#TITLETRANSLIT:;
#SUBTITLETRANSLIT:;
#ARTISTTRANSLIT:;
#GENRE:;
#CREDIT:;
#BANNER:Glitter (Starving Trancer Remix).png;
#BACKGROUND:Glitter (Starving Trancer Remix)-bg.png;
#LYRICSPATH:;
#CDTITLE:;
#MUSIC:Glitter (Starving Trancer Remix).ogg;
#OFFSET:0.000000;
#SAMPLESTART:63.428574;
#SAMPLELENGTH:13.714287;
#SELECTABLE:YES;
#DISPLAYBPM:140.000000;
#BPMS:0.000000=140.000000
,211.500000=180.000000
,212.000000=139.990005
;
#STOPS:
;
#BGCHANGES:0.000=Glitter (Starving Trancer Remix).avi=1.000=0=0=0=StretchNoLoop====,
99999=-nosongbg-=1.000=0=0=0 // don't automatically add -songbackground-
;
#KEYSOUNDS:;
#ATTACKS:;

//---------------dance-single - ----------------
#NOTES:
     dance-single:
     :
     Hard:
     9:
     0.319878,0.441483,0.362614,0.262895,0.004533,247.000000,207.000000,40.000000,29.000000,0.000000,0.000000,0.319878,0.441483,0.362614,0.262895,0.004533,247.000000,207.000000,40.000000,29.000000,0.000000,0.000000:
0000
0000
0000
0000
,
0000
0000
0000
0000
,
0000
0000
0000
0000
,
0000
0000
0000
0000
,
0000
0000
0000
0000
,
0000
0000
0000
0000
,
0020
0000
0000
0002
0000
0033
0000
0000
,
0200
0000
0000
2000
0000
3300
0000
0000
,
0002
0003
2000
3000
,
2002
0000
0000
3003
,
0220
0000
0000
0330
,
1001
0000
0000
0001
0000
1000
0000
0200
,
0000
0300
0000
1000
0000
0001
0000
0000
,
1000
0000
0001
0100
0000
0001
0010
0100
,
0000
0001
1000
0001
,
1001
0000
0000
1000
0000
0001
0000
0200
,
0000
0300
0000
0001
0000
1000
0000
0000
,
0001
0000
1000
0100
0000
1000
0010
0100
,
0000
0001
1000
0001
,
1001
0000
0001
0100
0000
0010
0000
0020
,
0000
0000
0000
0030
,
1001
0000
1000
0100
0000
1000
0001
2000
,
0000
0000
0000
3000
,
0101
0000
0100
0010
0000
0010
0000
2002
,
0000
0000
0000
0000
0000
3003
0000
0000
,
1010
0000
0010
0100
0000
0010
0000
2002
,
0000
0000
0000
3003
,
0001
0000
0100
0001
0000
1001
0000
1000
,
0100
1100
0001
0101
,
1000
0000
0010
0100
0000
0001
1000
0100
,
1000
0101
1000
0110
,
1001
0000
0010
0100
0000
0001
0000
1000
,
0100
1100
0001
0011
,
0110
0000
0001
1000
0000
0110
0000
1000
,
0002
0000
0000
0000
0003
0000
0100
0000
0010
0000
0000
0010
0000
0000
1000
0000
,
0002
0003
2000
0000
,
3000
0020
0000
0030
,
0110
0000
0001
0100
0000
0001
0100
0010
,
1000
0000
0001
1000
0000
0010
1000
0100
,
1000
0000
0001
1000
0000
0001
1000
0100
,
0000
1001
1100
0101
,
0110
0000
0001
1000
0000
0010
1000
0010
,
0100
0000
0001
1000
0000
0010
0000
0100
,
0001
0000
1000
0100
0000
0010
0001
0100
,
0000
1010
0101
1010
,
1001
0000
0010
0100
0000
0001
1000
0000
,
0110
0000
1000
0001
0000
0100
0010
0000
,
1100
0000
0001
0010
0000
0001
0100
0001
,
0100
0011
1100
0110
,
1001
0000
0010
1000
0000
1001
0000
0000
,
1001
0000
0010
0001
0000
1001
0000
0000
,
0110
0000
0001
1000
0000
0110
0000
2000
,
0002
0000
0000
3003
,
0020
0000
0000
0001
0000
0031
0000
0000
,
2000
0000
0000
0100
0000
3100
0000
0000
,
0001
0000
0100
0001
0000
1000
0001
0100
,
0002
0000
0000
1000
0000
0000
1003
0000
,
0020
0000
0000
0100
0000
0130
0000
0000
,
0002
0000
0000
0100
0000
0103
0000
0000
,
0001
0000
1000
0100
0000
1000
0010
1000
,
0001
0000
0000
0100
0000
0010
1000
0010
;

//---------------dance-double - ----------------
#NOTES:
     dance-double:
     :
     Hard:
     9:
     0.334123,0.441483,0.507660,0.145046,0.000000,258.000000,202.000000,56.000000,16.000000,0.000000,0.000000,0.334123,0.441483,0.507660,0.145046,0.000000,258.000000,202.000000,56.000000,16.000000,0.000000,0.000000:
00000000
00000000
00000000
00000000
,
00000000
00000000
00000000
00000000
,
00000000
00000000
00000000
00000000
,
00000000
00000000
00000000
00000000
,
00000000
00000000
00000000
00000000
,
00000000
00000000
00000000
00000000
,
10000000
00000000
00000000
00010000
00000000
01000000
00000000
00000000
,
00001000
00000000
00000000
00010000
00000000
00000100
00000000
00000000
,
00001000
00000000
00000001
00001000
00000000
00000010
00000100
00000020
,
00000000
00000000
00000000
00000030
,
00002200
00000000
00000000
00003300
,
00011000
00000000
00000000
01000000
00000000
00010000
00000000
00000000
,
10010000
00000000
00000000
00010000
00000000
00100000
00000000
00000000
,
00011000
00000000
00010000
00000100
00000000
00001000
00000010
00000200
,
00000000
00000001
00000000
00000301
,
00000101
00000000
00000000
00001000
00000000
00000100
00000000
00000000
,
00011000
00000000
00000000
00001000
00000000
01000000
00000000
00000000
,
10010000
00000000
00100000
10000000
00000000
00100000
10000000
02000000
,
00000000
10000000
00000000
13000000
,
10010000
00000000
00000000
10000000
00000000
00010000
00000000
02000000
,
00000000
00000000
00000000
03000000
,
00011000
00000000
00000000
00000010
00000000
00001000
00000000
00000200
,
00000000
00000000
00000000
00000300
,
00001001
00000000
00000000
00000100
00000000
00010000
00000000
00002000
,
00000000
00000000
00000000
00003000
,
01010000
00000000
00000000
00100000
00000000
10000000
01000000
20000000
,
00000000
00000000
00000000
30000000
,
10010000
00000000
10000000
00010000
00000000
01000000
00001000
00000000
,
00011000
00000000
00010000
00000100
00000000
00001000
00000001
00000000
,
00001001
00000000
00000010
00010000
00000000
00001000
00010000
00000000
,
00011000
00000000
00100000
00010000
00000000
10000000
00010000
00000000
,
10100000
00000000
00010000
10000000
00000000
00010000
00100000
00000000
,
00101000
00000000
00001000
00010000
00000000
00000010
00010000
00000000
,
00001010
00000000
00001000
00000001
00000000
00001000
00000100
00000000
,
00010100
00000000
00000000
00010000
00001000
00000000
00101000
00000000
,
02002000
03003000
02200000
00000000
,
03300000
20000000
00000000
30000000
,
10010000
00000000
10000000
01000000
00000000
10010000
00000000
00000000
,
00110000
00000000
01000000
00001000
00000000
00011000
00000000
00000000
,
00010100
00000000
00001000
00000010
00000000
00000100
00000001
00001000
,
00000000
00001010
00001100
00001010
,
00001001
00000000
00001000
00000100
00000000
00010100
00000000
00000000
,
00011000
00000000
00001000
01000000
00000000
01010000
00000000
00000000
,
01100000
00000000
00010000
10000000
00000000
01000000
10000000
00100000
,
01000000
01010000
11000000
01010000
,
01100000
00000000
01000000
00001000
00000000
00011000
00000000
00000000
,
00001100
00000000
00001000
00000010
00000000
00000110
00000000
00000000
,
00001001
00000000
00000100
00010000
00000000
00001000
00100000
00010000
,
00000000
01010000
10100000
01010000
,
10010000
00000000
10000000
00100000
00000000
01000000
00010000
00000000
,
01010000
00000000
00001000
00010000
00000000
00000100
00001000
00000000
,
00001001
00000000
00001000
00000100
00000000
00010000
00000000
00001000
,
02000000
00100000
00010000
03000000
,
10010000
00000000
00000000
01000000
00000000
00010000
00100000
00010000
,
00000000
00000000
00000000
00010100
00000000
00001100
00000000
00000000
,
00001001
00000000
00000100
00001000
00000000
00000100
00010000
00002000
,
00000000
00000000
00000000
01000000
00000000
00000000
01003000
00000000
,
01010000
00000000
00000000
10000000
00000000
00100000
00000000
00000000
,
01001000
00000000
00000000
00010000
00000000
00000100
00000000
00000000
,
00001001
00000000
00001000
00000100
00000000
00001000
00000100
00010000
,
00000000
00000000
00010000
00001000
00000000
00100000
00010000
01000000
;

//---------------dance-double - ----------------
#NOTES:
     dance-double:
     :
     Medium:
     6:
     0.225339,0.330432,0.281026,0.135980,0.000000,174.000000,143.000000,31.000000,15.000000,0.000000,0.000000,0.225339,0.330432,0.281026,0.135980,0.000000,174.000000,143.000000,31.000000,15.000000,0.000000,0.000000:
00000000
00000000
00000000
00000000
,
00000000
00000000
00000000
00000000
,
00000000
00000000
00000000
00000000
,
00000000
00000000
00000000
00000000
,
00000000
00000000
00000000
00000000
,
00000000
00000000
00000000
00000000
,
20000000
00000000
00000000
30000000
,
00020000
00000000
00000000
00030000
,
01000000
00000000
00001000
00000000
,
00022000
00000000
00000000
00033000
,
00011000
00000000
00000000
00000000
,
00000010
00001000
00000100
00001000
,
00000010
00000001
00000100
00000001
,
00001000
00000100
00010000
00001000
,
01000000
00010000
00100000
00010000
,
10000000
01000000
00100000
00010000
,
01000000
00010000
00100000
00001000
,
00010000
00000100
00010000
00000010
,
00010000
00000100
00001000
00000010
,
00000200
00000000
00000000
00000300
,
00000002
00000000
00000000
00000003
,
00000020
00000000
00000000
00000030
,
00002000
00000000
00000000
00003000
,
00020000
00000000
00000000
00030000
,
02000000
00000000
00000000
03000000
,
20000000
00000000
00000000
30000000
,
00200000
00000000
00000000
00300000
,
10010000
11000000
00100000
01000000
,
00001000
00010000
00000010
00000100
,
00000101
00001010
00000010
00001000
,
00000100
00010000
00001000
01000000
,
01010000
00110000
00010000
01000000
,
00001000
00010000
00000100
00001000
,
00001010
00001001
00000100
00001000
,
00010000
00000000
00110000
00000000
,
10010000
00000000
02200000
00000000
,
03300000
00000000
00000000
00000000
,
10010000
00000000
00000000
10000000
00000000
00100000
00000000
00000000
,
01010000
00000000
00000000
00100000
00000000
00001000
00000000
00000000
,
00010100
00000000
00000000
00000010
00000000
00001000
00000000
00000100
,
00000000
00001001
00000000
00001001
,
00000010
00000000
00000000
00001000
00000000
00000100
00000000
00000000
,
00010000
00000000
00000000
00001000
00000000
01000000
00000000
00000000
,
10010000
00000000
00000000
00100000
00000000
01000000
00000000
00010000
,
00000000
10010000
00000000
10010000
,
01000000
00000000
00000000
00100000
00000000
10000000
00000000
00000000
,
01010000
00000000
00000000
00100000
00000000
00001000
00000000
00000000
,
00011000
00000000
00000000
00010000
00000000
00000010
00000000
00000100
,
00000000
00001001
00000000
00001001
,
00000010
00000000
00000000
00001000
00000000
00000100
00000000
00000000
,
00011000
00000000
00000000
00100000
00000000
00010000
00000000
00000000
,
01010000
00000000
00000000
10000000
00000000
00100000
00000000
01000000
,
00000000
10010000
00000000
10010000
,
00000000
00000000
00000000
00100000
00000000
10000000
00000000
00000000
,
00010000
00000000
00000000
00100000
00000000
00001000
00000000
00000000
,
00010000
00000000
00000100
00000000
,
00000010
00000000
00000000
00000000
,
00001001
00000000
00000000
00000100
00000000
00010000
00000000
00000000
,
10010000
00000000
00000000
01000000
00000000
00010000
00000000
00000000
,
00001000
00000000
00010000
00000000
,
00000020
00000000
00000000
00000030
;

//---------------dance-double - ----------------
#NOTES:
     dance-double:
     :
     Easy:
     3:
     0.133390,0.220288,0.090654,0.217569,0.000000,103.000000,93.000000,10.000000,24.000000,0.000000,0.000000,0.133390,0.220288,0.090654,0.217569,0.000000,103.000000,93.000000,10.000000,24.000000,0.000000,0.000000:
00000000
00000000
00000000
00000000
,
00000000
00000000
00000000
00000000
,
00000000
00000000
00000000
00000000
,
00000000
00000000
00000000
00000000
,
00000000
00000000
00000000
00000000
,
00000000
00000000
00000000
00000000
,
20000000
00000000
00000000
30000000
,
00020000
00000000
00000000
00030000
,
01000000
00000000
00001000
00000000
,
00022000
00000000
00000000
00033000
,
00011000
00000000
00000000
00000000
,
00000010
00000000
00000100
00000000
,
00000010
00000000
00000100
00000000
,
00000001
00000000
00000100
00000000
,
00001000
00000000
00000000
00000000
,
00100000
00000000
01000000
00000000
,
00100000
00000000
01000000
00000000
,
10000000
00000000
01000000
00000000
,
00010000
00000000
00000100
00000000
,
00000020
00000000
00000000
00000030
,
00000002
00000000
00000000
00000003
,
00000200
00000000
00000000
00000300
,
00002000
00000000
00000000
00003000
,
00020000
00000000
00000000
00030000
,
02000000
00000000
00000000
03000000
,
20000000
00000000
00000000
30000000
,
00200000
00000000
00000000
00300000
,
00010000
01000000
00100000
00000000
,
00001000
00010000
00000010
00000000
,
00000001
00001000
00000010
00000000
,
00001000
00000100
00010000
00000000
,
01000000
00010000
00100000
00000000
,
00001000
00010000
00000100
00000000
,
00001000
00000100
00010000
00000000
,
01000000
00000000
10010000
00000000
,
01100000
00000000
20020000
00000000
,
30030000
00000000
00000000
00000000
,
10010000
00000000
00100000
00000000
,
00010000
00000000
00100000
00000000
,
00001000
00000000
00010000
00000000
,
00000010
00000000
00001001
00000000
,
00000001
00000000
00001000
00000000
,
00000100
00000000
00010000
00000000
,
00001000
00000000
01000000
00000000
,
00010000
00000000
10010000
00000000
,
10000000
00000000
00100000
00000000
,
01000000
00000000
00001000
00000000
,
00010000
00000000
00000010
00000000
,
00000100
00000000
00001001
00000000
,
00000010
00000000
00001000
00000000
,
00010000
00000000
00100000
00000000
,
01000000
00000000
10000000
00000000
,
20020000
00000000
30030000
00000000
,
00200000
00000000
00300000
00000000
,
00002000
00000000
00003000
00000000
,
00020000
00000000
00030000
00000000
,
00000200
00000000
00000300
00000000
,
00020000
00000000
00030000
00000000
,
00002000
00000000
00003000
00000000
,
00200000
00000000
00300000
00000000
,
02000000
00000000
00000000
03000000
;

//---------------dance-single - ----------------
#NOTES:
     dance-single:
     :
     Medium:
     6:
     0.234404,0.385504,0.407941,0.217569,0.000000,181.000000,136.000000,45.000000,24.000000,0.000000,0.000000,0.234404,0.385504,0.407941,0.217569,0.000000,181.000000,136.000000,45.000000,24.000000,0.000000,0.000000:
0000
0000
0000
0000
,
0000
0000
0000
0000
,
0000
0000
0000
0000
,
0000
0000
0000
0000
,
0000
0000
0000
0000
,
0000
0000
0000
0000
,
0020
0000
0000
0030
,
0200
0000
0000
0300
,
0002
0003
2000
3000
,
2002
0000
0000
3003
,
0220
0000
0000
0330
,
1001
0000
1001
0000
,
0100
0010
1001
0000
,
1000
0001
0100
0000
,
0001
1000
0100
0000
,
1001
0000
1001
0000
,
0010
0100
1001
0000
,
0001
1000
0100
0000
,
1000
0001
0100
0000
,
1001
0000
1000
0001
0000
0100
0000
0020
,
0000
0000
0000
0030
,
1001
0000
0001
1000
0000
0100
0000
0200
,
0000
0000
0000
0300
,
1001
0000
0100
0010
0000
1000
0000
0002
,
0000
0000
0000
0003
,
1001
0000
0010
0100
0000
0001
0000
2000
,
0000
0000
0000
3000
,
0100
0001
1001
1100
,
0100
1000
1001
0101
,
0010
0100
1001
1100
,
0100
0010
1001
0101
,
0010
0100
0001
1000
,
0010
0100
1000
0001
,
0010
1000
0100
0001
,
0010
0000
0110
0000
,
1001
0000
0220
0000
,
0330
0000
0000
0000
,
0110
0001
0100
0000
,
1010
0001
1000
0000
,
1100
0001
1000
0000
,
0100
1001
1100
0000
,
0110
0001
1000
0000
,
0110
1000
0001
0000
,
0101
1000
0100
0000
,
0100
1010
0101
0000
,
1001
0010
0100
0000
,
0110
1000
0001
0000
,
1100
0001
0010
0000
,
1001
0011
1010
0000
,
1001
0010
1000
0000
,
1001
0010
0001
0000
,
0110
0000
0110
0000
,
2002
0000
3003
0000
,
0020
0000
0000
0030
,
2000
0000
0000
3000
,
0100
0000
0001
0000
,
2002
0000
3003
0000
,
0020
0000
0000
0030
,
0002
0000
0000
0003
,
0001
0000
0100
0000
,
2000
0000
0020
3030
;

//---------------dance-single - ----------------
#NOTES:
     dance-single:
     :
     Easy:
     4:
     0.157996,0.246804,0.145046,0.181307,0.000000,122.000000,106.000000,16.000000,20.000000,0.000000,0.000000,0.157996,0.246804,0.145046,0.181307,0.000000,122.000000,106.000000,16.000000,20.000000,0.000000,0.000000:
// measure 0
0000
0000
0000
0000
,  // measure 1
0000
0000
0000
0000
,  // measure 2
0000
0000
0000
0000
,  // measure 3
0000
0000
0000
0000
,  // measure 4
0000
0000
0000
0000
,  // measure 5
0000
0000
0000
0000
,  // measure 6
0020
0000
0000
0030
,  // measure 7
0200
0000
0000
0300
,  // measure 8
0002
0003
2000
3000
,  // measure 9
2002
0000
0000
3003
,  // measure 10
1001
0000
0000
0000
,  // measure 11
0010
0000
0100
0000
,  // measure 12
0010
0000
0100
0000
,  // measure 13
1000
0000
0001
0000
,  // measure 14
1000
0000
0000
0000
,  // measure 15
0010
0000
0100
0000
,  // measure 16
0010
0000
0100
0000
,  // measure 17
0001
0000
1000
0000
,  // measure 18
0001
0000
0000
0000
,  // measure 19
1001
0000
0000
0000
,  // measure 20
0020
0000
0000
0030
,  // measure 21
1001
0000
0000
0000
,  // measure 22
0200
0000
0000
0300
,  // measure 23
1001
0000
0000
0000
,  // measure 24
0002
0000
0000
0003
,  // measure 25
1001
0000
0000
0000
,  // measure 26
2000
0000
0000
3000
,  // measure 27
1000
0001
1000
0000
,  // measure 28
0100
1000
0001
0000
,  // measure 29
0001
1000
0001
0000
,  // measure 30
0100
0001
1000
0000
,  // measure 31
0010
0100
0001
0000
,  // measure 32
0010
0100
1000
0000
,  // measure 33
0010
1000
0100
0000
,  // measure 34
0010
0001
0100
0000
,  // measure 35
1001
0000
0220
0000
,  // measure 36
0330
0000
0000
0000
,  // measure 37
0100
0001
0100
0000
,  // measure 38
0100
1000
0100
0000
,  // measure 39
0010
0001
0010
0000
,  // measure 40
0010
1000
0010
0000
,  // measure 41
0010
0001
1000
0000
,  // measure 42
0010
1000
0001
0000
,  // measure 43
0001
1000
0100
0000
,  // measure 44
1000
0001
0100
0000
,  // measure 45
1001
0000
0100
0000
,  // measure 46
1001
0000
0100
0000
,  // measure 47
1000
0100
0010
0000
,  // measure 48
0001
0010
0100
0000
,  // measure 49
1001
0000
0010
0000
,  // measure 50
1001
0000
0010
0000
,  // measure 51
0110
0000
0110
0000
,  // measure 52
2002
0000
3003
0000
,  // measure 53
0020
0000
0000
0030
,  // measure 54
2000
0000
0000
3000
,  // measure 55
0100
0000
0001
0000
,  // measure 56
2002
0000
3003
0000
,  // measure 57
0020
0000
0000
0030
,  // measure 58
0002
0000
0000
0003
,  // measure 59
0010
0000
0100
0000
,  // measure 60
0010
0000
0100
0000
;

//---------------dance-single - ----------------
#NOTES:
     dance-single:
     :
     Beginner:
     1:
     0.093244,0.135980,0.054392,0.009065,0.000000,72.000000,66.000000,6.000000,1.000000,0.000000,0.000000,0.093244,0.135980,0.054392,0.009065,0.000000,72.000000,66.000000,6.000000,1.000000,0.000000,0.000000:
// measure 0
0000
0000
0000
0000
,  // measure 1
0000
0000
0000
0000
,  // measure 2
0000
0000
0000
0000
,  // measure 3
0000
0000
0000
0000
,  // measure 4
0000
0000
0000
0000
,  // measure 5
0000
0000
0000
0000
,  // measure 6
0010
0000
0000
0000
,  // measure 7
0100
0000
0000
0000
,  // measure 8
0001
0000
0000
0000
,  // measure 9
1000
0000
0000
0000
,  // measure 10
1001
0000
0000
0000
,  // measure 11
0010
0000
0000
0000
,  // measure 12
0001
0000
0000
0000
,  // measure 13
0100
0000
0000
0000
,  // measure 14
1000
0000
0000
0000
,  // measure 15
0010
0000
0000
0000
,  // measure 16
1000
0000
0000
0000
,  // measure 17
0100
0000
0000
0000
,  // measure 18
0001
0000
0000
0000
,  // measure 19
1001
0000
0000
0000
,  // measure 20
0010
0000
0000
0000
,  // measure 21
1001
0000
0000
0000
,  // measure 22
0100
0000
0000
0000
,  // measure 23
1001
0000
0000
0000
,  // measure 24
0001
0000
0000
0000
,  // measure 25
1001
0000
0000
0000
,  // measure 26
1000
0000
0000
0000
,  // measure 27
0010
0000
0010
0000
,  // measure 28
0010
0000
0000
0000
,  // measure 29
0100
0000
0100
0000
,  // measure 30
0100
0000
0000
0000
,  // measure 31
0010
0000
0010
0000
,  // measure 32
0010
0000
0000
0000
,  // measure 33
0100
0000
0100
0000
,  // measure 34
0100
0000
0000
0000
,  // measure 35
0001
0000
1000
0000
,  // measure 36
0000
0000
0000
0000
,  // measure 37
0001
0000
0000
0000
,  // measure 38
0001
0000
0000
0000
,  // measure 39
0001
0000
0001
0000
,  // measure 40
0001
0000
0000
0000
,  // measure 41
1000
0000
0000
0000
,  // measure 42
1000
0000
0000
0000
,  // measure 43
1000
0000
1000
0000
,  // measure 44
1000
0000
0000
0000
,  // measure 45
0010
0000
0000
0000
,  // measure 46
0010
0000
0000
0000
,  // measure 47
0100
0000
0000
0000
,  // measure 48
0100
0000
0000
0000
,  // measure 49
0010
0000
0010
0000
,  // measure 50
0010
0000
0010
0000
,  // measure 51
0100
0000
0100
0000
,  // measure 52
0200
0000
0300
0000
,  // measure 53
1001
0000
0000
0000
,  // measure 54
0000
0000
0000
0000
,  // measure 55
0010
0000
0010
0000
,  // measure 56
0010
0000
0000
0000
,  // measure 57
0100
0000
0100
0000
,  // measure 58
0100
0000
0000
0000
,  // measure 59
0010
0000
0100
0000
,  // measure 60
0010
0000
0000
0000
;
