#TITLE:Flyaway;
#SUBTITLE:;
#ARTIST:XeoN;
#TITLETRANSLIT:;
#SUBTITLETRANSLIT:;
#ARTISTTRANSLIT:;
#GENRE:;
#CREDIT:;
#MENUCOLOR:;
#METERTYPE:DDR;
#BANNER:Flyaway.png;
#BACKGROUND:Flyaway-bg.png;
#LYRICSPATH:;
#CDTITLE:;
#MUSIC:Flyaway.ogg;
#OFFSET:-2.987;
#SAMPLESTART:100.700;
#SAMPLELENGTH:16.000;
#SELECTABLE:YES;
#LISTSORT:;
#BPMS:0.000=140.000;
#STOPS:;
#BGCHANGES:-7.000=Flyaway.avi=1.000=0=0=0,
300.000=Flyaway.avi=0.000=0=0=1,
99999=-nosongbg-=1.000=0=0=0 // don't automatically add -songbackground-
;
#ATTACKS:;

//---------------dance-single - ----------------
#NOTES:
     dance-single:
     :
     Hard:
     13:
     0.559,0.587,0.082,0.313,0.235:
0000
0000
0000
0000
,
0000
0000
0000
0000
,
0000
0000
0000
0000
,
0000
0000
0000
0000
,
0000
0000
0000
0000
,
0000
0000
0000
0000
,
0000
0000
0000
0000
,
0010
1000
0001
2000
0000
0000
3001
0000
,
0100
1000
0001
2000
0000
0000
3000
0000
,
0010
0001
1000
0002
0000
0000
1003
0000
,
0100
1000
0001
2000
0000
0000
3000
0000
,
0010
1000
0001
2000
0000
0000
3010
0000
,
0001
1000
0001
0200
0000
0000
0301
0000
,
1000
0100
1000
0002
0000
0000
1003
0000
,
0001
0100
0001
2000
0000
0000
3001
0000
,
0110
0000
0000
0000
1000
0000
0001
0000
1000
0000
0001
0000
1000
0100
1000
0100
,
1000
0000
0001
0000
1000
0000
0001
0000
1000
0000
0000
0100
0000
0000
0010
0000
,
0001
0010
0000
0010
0000
0000
0001
0000
0000
0000
1000
0001
0000
0000
0100
0000
,
0001
0000
1000
0100
1000
0000
0001
0000
0100
0000
0000
0010
0000
0000
0010
0000
,
1000
0100
0000
1000
0000
0000
0010
0000
0100
0000
0001
0100
0001
0000
0100
0000
,
0010
0000
1000
0100
1000
0000
0010
0000
0100
0000
0001
0100
0000
0000
0001
0000
,
1000
0000
0010
1000
0010
0000
0100
0000
0001
0000
1000
0001
0000
0000
1000
0000
,
0001
0000
0100
0010
0100
0000
0001
0000
1000
0000
0000
0100
0000
0000
1000
0000
,
0001
0000
0100
0000
0010
0000
1000
0000
0001
0100
0001
0000
1000
0000
0100
0000
,
2000
0000
0000
3002
0000
0000
0103
0010
,
0200
0000
0000
0302
0000
1003
0100
0010
,
0002
0000
1003
0200
0000
1300
0010
0100
,
0002
0000
0103
0020
0000
1030
0001
1000
,
0002
0000
0103
0020
0000
0130
0001
0100
,
0020
0000
1030
0002
0000
1003
0100
1000
,
0002
0000
1003
0200
0000
1300
0001
1000
,
0010
0100
0010
0100
0000
0000
2002
3003
,
1000
0000
0001
0000
1000
0000
0001
1000
0000
1000
0010
0000
0100
0000
0001
0000
,
0100
0000
0010
0000
1000
0000
0010
1000
0000
0001
1000
0000
0010
0000
0100
0000
,
0001
0000
1000
0000
0100
0000
1000
0010
0000
1000
0001
0000
0100
0000
0010
0000
,
1000
0000
0001
0000
0100
0000
0001
0010
0000
0001
0010
0000
0001
0000
0100
0000
,
0010
0000
1000
0000
0100
0000
1000
0010
0000
1000
0010
0000
0100
0010
0100
0000
,
0001
0000
0100
0000
0010
0000
1000
0001
0000
1000
0001
0000
1000
0010
1000
0000
,
0001
0000
0100
0000
0010
0000
0100
0001
0000
0100
0010
0000
1000
0001
0100
0000
,
0010
1000
0010
0100
0001
0100
1000
0000
,
1000
0000
0010
0000
1000
0000
0001
0000
1000
0000
0010
0000
1000
0000
0001
0100
,
0001
0000
0100
0000
0010
0000
1000
0000
0010
0000
0100
0000
0001
0000
1000
0001
,
1000
0000
0010
0000
0100
0000
0001
0000
0100
0000
0000
0010
0000
0000
0100
0000
,
0001
0000
1000
0010
0000
0000
0100
0010
0000
0000
1000
0100
1000
0000
0010
0000
,
0100
0001
0100
0001
1000
0001
1000
0001
,
1000
0100
1000
0100
1000
0001
1000
0001
,
1000
0000
0010
1000
0010
0000
1000
0001
1000
0000
0001
0100
0001
0000
1000
0001
,
1000
0010
0100
0001
1000
0100
0010
0001
,
0100
0000
0100
0000
0110
0000
0000
0000
0001
1000
0000
0000
0010
0000
0100
0000
,
1000
0000
1000
0000
1001
0000
0000
0000
1000
0000
0000
0100
0000
0000
0010
0000
,
0100
0000
0100
0000
0110
0000
0000
0000
0001
0100
0000
0000
0010
0000
1000
0000
,
0100
0000
0100
0000
0101
0000
0000
0000
1001
0000
0000
1000
0000
0000
0001
0000
,
1001
0000
0000
0000
1000
0100
0000
0000
1000
0010
0000
0000
1000
0000
0100
0000
,
0010
0000
0001
0000
0100
0000
0000
0000
0101
0000
0000
0100
0000
0000
1000
0000
,
1100
0000
0000
0000
0001
0100
0000
0000
0001
0100
0000
0010
0100
0000
0001
0000
,
1000
0000
0000
1000
0000
0000
0001
0000
0000
0001
0000
0000
0100
0000
0100
0000
,
0010
0100
0000
0010
0100
0000
0010
0100
0000
0010
0100
0000
0001
0000
1000
0000
,
0200
0000
0000
0302
0000
0000
1003
0010
,
2000
0000
3001
0200
0000
0310
1000
0100
,
0002
0000
0103
0020
0000
1030
0100
1000
,
0002
0000
0103
0002
0000
1003
0100
0010
,
0002
0000
0103
0020
0000
1030
0100
1000
,
0200
0000
0301
0020
0000
1030
0100
0001
,
2000
0000
3001
0200
0000
0301
0010
0100
,
2000
0000
3010
0200
0000
0301
1000
0000
,
0001
0100
1000
0100
0000
1000
0100
0010
,
1000
0100
0001
0100
0000
0001
0010
0100
,
0001
0010
1000
0010
0000
1000
0001
0100
,
1000
0010
0001
0010
0000
1000
0100
1000
,
0001
0000
0100
0000
0001
0000
0100
0000
0000
0000
1000
0010
1000
0000
0001
0000
,
0100
0000
0010
0000
0100
0000
0010
0000
0000
0000
1000
0001
1000
0000
0010
0000
,
0100
0100
0010
0010
1000
1000
0001
0001
,
1000
0100
0010
0001
1000
0001
0100
0010
,
0011
0001
2000
0002
0000
0000
0000
0000
,
0000
0000
0000
0000
,
3003
0000
0000
0000
;

//---------------dance-double - ----------------
#NOTES:
     dance-double:
     :
     Hard:
     13:
     0.521,0.587,0.075,0.134,0.179:
00000000
00000000
00000000
00000000
,
00000000
00000000
00000000
00000000
,
00000000
00000000
00000000
00000000
,
00000000
00000000
00000000
00000000
,
00000000
00000000
00000000
00000000
,
00000000
00000000
00000000
00000000
,
00000000
00000000
00000000
00000000
,
01000000
10000000
01000000
10000000
00000000
00000000
00100000
00000000
,
00010000
00001000
00010000
00001000
00000000
00000000
00000100
00000000
,
00000001
00000010
00000001
00000010
00000000
00000000
00001000
00000000
,
00010000
00000100
00010000
00000100
00000000
00000000
00010000
00000000
,
01000000
00100000
01000000
00100000
00000000
00000000
10000000
00000000
,
00010000
01000000
00010000
01000000
00000000
00000000
00001000
00000000
,
00010000
00000100
00010000
00000100
00000000
00000000
00001000
00000000
,
00000010
00000100
00000010
00000100
00000000
00000000
00000001
00000000
,
00002002
00000000
00000000
00003003
,
00000010
00000000
00001000
00000000
00000100
00000000
00001000
00000000
00000100
00000000
00000000
00010000
00000000
00000000
00001000
00000000
,
01000000
00000000
00010000
00000000
01000000
00000000
00010000
00000000
01000000
00000000
00100000
01000000
00000000
00000000
00100000
00000000
,
10000000
00000000
01000000
00000000
10000000
00000000
00100000
00000000
10000000
00000000
00000000
01000000
00000000
00000000
00100000
00000000
,
00001000
00000000
00010000
00000000
00001000
00000000
00010000
00000000
00000000
00000000
00000100
00010000
00000000
00000000
00000100
00000000
,
00001000
00000000
00000010
00000000
00000100
00000000
00000001
00000000
00001000
00000000
00000000
00000001
00000000
00000000
00001000
00000000
,
00000010
00000000
00010000
00000000
00000100
00000000
00010000
00000000
00001000
00000000
01000000
00001000
00000000
00000000
01000000
00000000
,
00010000
00000000
10000000
00000000
01000000
00000000
00100000
00000000
00010000
00000000
00000000
01000000
00000000
00000000
00100000
00000000
,
10000000
00000000
01000000
00100000
01000000
00000000
00010000
00000000
00000000
10000000
00000000
00000000
10010000
00000000
00000000
00000000
,
10000000
00100000
01000000
00020000
00000000
00000000
00031000
00010000
,
00000100
00001000
00000010
00000200
00000000
00000301
00000010
00000100
,
00001000
00000010
00001000
00000200
00000000
00010300
00001000
00010000
,
00001000
01000000
00010000
00100000
00000000
01000000
00100000
10000000
,
00010000
01000000
00100000
10000000
00000000
00010000
00100000
00010000
,
00001000
00010000
00000100
00001000
00000000
00000010
00001000
00000100
,
00000001
00000010
00001000
00000200
00000000
00010300
00001000
01000000
,
00010000
00100000
01000000
20000000
00000000
30100000
00100000
00000000
,
10000000
00000000
01000000
00000000
10000000
00000000
00100000
10000000
00000000
00100000
10000000
00000000
00010000
00000000
00000000
00000000
,
00100000
00000000
00001000
00000000
00100000
00000000
00001000
00010000
00000000
00001000
00010000
00000000
00010000
00000000
00000100
00000000
,
00001000
00000000
00000010
00000000
00000100
00000000
00000001
00000100
00000000
00000001
00000100
00000000
00000001
00000000
00001000
00000000
,
00000100
00000000
00010000
00000000
00000100
00000000
00010000
00001000
00000000
00010000
00001000
00000000
01000000
00000000
00010000
00000000
,
10000000
00000000
00100000
00000000
10000000
00000000
01000000
00100000
00000000
01000000
00100000
00000000
10000000
00010000
10000000
00000000
,
00010000
00000000
01000000
00000000
00010000
00000000
01000000
00001000
00000000
01000000
00001000
00000000
00010000
00001000
00010000
00000000
,
00000100
00000000
00001000
00000000
00000010
00000000
00000100
00000001
00000000
00000100
00000001
00000000
00000100
00000000
00000010
00000000
,
00001000
00000000
00000100
00000000
00010000
00000000
00001000
01000000
00000000
00001000
01000000
00000000
00020000
00000000
00000000
00000000
,
10030000
00010000
10000000
01000000
10000000
00010000
01000000
00010000
,
01000000
00001000
00010000
00001000
00010000
00000100
00001000
00000100
,
00001000
00000000
00000001
00000000
00000010
00000000
00000100
00000000
00001000
00000000
00000001
00001000
00000000
00000001
00001000
00000000
,
00000001
00001000
00000100
00001000
00000100
00010000
00001000
01000000
,
00010000
01000000
00100000
10000000
01000000
10000000
00100000
01000000
,
00010000
00100000
00001000
00100000
00001000
00010000
00001000
00010000
,
00000010
00001000
00000010
00000100
00000010
00001000
00000100
00001000
,
00000001
00001000
00000100
00010000
00001000
01000000
00010000
10000000
,
01000000
00000000
00000000
00000000
10000000
00010000
00000000
00000000
10000000
00010000
00000000
00000000
01000000
00000000
00100000
00000000
,
10000000
00000000
00000000
00000000
11000000
00000000
00000000
00000000
01000000
00000000
00000000
00010000
00000000
00000000
00100000
00000000
,
00101000
00000000
00000000
00000000
00001000
00010000
00000000
00000000
00001000
00010000
00000000
00000000
00000100
00000000
00001000
00000000
,
00000010
00000000
00000000
00000000
00000110
00000000
00000001
00000000
00000100
00000000
00000000
00001010
00000000
00000000
00001000
00000000
,
00000100
00000000
00000000
00000000
00000100
00010000
00000000
00000000
00000100
00010000
00000000
00000000
00001000
00000000
00010000
00000000
,
00001000
00000000
00000000
00000000
01000000
00000000
00001000
00000000
01000000
00000000
00000000
01000000
00000000
00000000
00100000
00000000
,
10010000
00000000
00000000
00000000
10000000
01000000
00000000
00000000
01000000
00100000
00000000
00000000
10000000
00000000
00100000
00000000
,
01000000
00000000
00000000
01000000
00000000
00000000
01000000
00000000
00000000
00001000
00000000
00000000
00010000
00000000
00000100
00000000
,
00001000
00000010
00000000
00001000
00000010
00000000
00001000
00000001
00000000
00001000
00000001
00000000
00001000
00000000
00000100
00000000
,
00010000
00001000
01000000
00020000
00000000
00000000
10030000
00100000
,
01000000
00010000
10000000
00200000
00000000
01300000
00001000
00010000
,
00000100
00001000
00000010
00000200
00000000
00000301
00000010
00000100
,
00001000
00000100
00010000
00002000
00000000
01003000
00010000
01000000
,
00010000
10000000
00100000
02000000
00000000
03010000
00100000
01000000
,
10000000
00100000
01000000
00020000
00000000
00130000
00001000
00010000
,
00000100
00001000
00000010
00000200
00000000
00000301
00001000
00000100
,
00001000
00000001
00000100
00000020
00000000
00001030
00000100
00000000
,
00001100
00000000
00001000
00010000
00000000
00001000
00010000
01000000
,
00100000
00000000
10000000
01000000
00000000
10000000
00100000
01000000
,
00001000
00000000
00010000
00001000
00000000
00010000
00000010
00000100
,
00001000
00000000
00000001
00000100
00000000
00000001
00001000
00000100
,
00010000
00001000
00010000
00001000
00000000
00100000
01100000
00000000
,
00010000
10000000
00010000
10000000
00000000
01000000
11000000
00000000
,
10000000
01000000
00100000
00010000
00000000
00000100
00010000
00001000
,
00000100
00000000
00001000
00000000
00000010
00000000
00000100
00000000
00000001
00000000
00001000
00000001
00000000
00001000
00000001
00000000
,
00001000
00000100
00020000
00002000
00000000
00000000
00000000
00000000
,
00000000
00000000
00000000
00000000
,
00033000
00000000
00000000
00000000
;

//---------------dance-double - ----------------
#NOTES:
     dance-double:
     :
     Medium:
     8:
     0.326,0.447,0.075,0.276,0.019:
00000000
00000000
00000000
00000000
,
00000000
00000000
00000000
00000000
,
00000000
00000000
00000000
00000000
,
00000000
00000000
00000000
00000000
,
00000000
00000000
00000000
00000000
,
00000000
00000000
00000000
00000000
,
00000000
00000000
00000000
00000000
,
20000000
00000000
00000000
30000000
,
00020000
00000000
00000000
00030000
,
00002000
00000000
00000000
00003000
,
00000002
00000000
00000000
00000003
,
00000200
00000000
00000000
00000300
,
00002000
00000000
00000000
00003000
,
00020000
00000000
00000000
00030000
,
02000000
00000000
00000000
03000000
,
20020000
00000000
00000000
30030000
,
10000000
01000000
10000000
01000000
00000000
00000000
00000000
00000000
,
00100000
00010000
00100000
00010000
00000000
00000000
00000000
00000000
,
00001000
00000100
00001000
00000100
00000000
00000000
00000000
00000000
,
00000010
00000001
00000010
00000001
00000000
00000000
00000000
00000000
,
00001000
00000100
00000010
00000001
00000000
00000000
00000000
00000000
,
00000100
00001000
00000100
00001000
00000000
00000000
00000000
00000000
,
00100000
00010000
00100000
00010000
00000000
00000000
00000000
00000000
,
10000000
01000000
00100000
00010000
00000000
00000000
00000000
00000000
,
02000000
00000000
00000000
03000000
00000000
00000000
00100000
10000000
,
02000000
00000000
00000000
03000000
00000000
00100000
00010000
01000000
,
00020000
00000000
00000000
00030000
00000000
00100000
00001000
00010000
,
00000000
00001000
00010000
00001000
00000000
00010000
00000100
00000000
,
00001000
00000000
00000000
00000010
00000000
00001000
00000100
00000000
,
00000010
00000000
00000000
00000001
00000000
00000100
00000001
00000000
,
00000010
00000000
00000000
00001000
00000000
00000100
00001000
00000000
,
00020000
00000000
00000000
00032000
00000000
00000000
00003000
00000000
,
00100000
00000000
00010000
00000000
01000000
00010000
01000000
00000000
,
00100000
00000000
10000000
00000000
01000000
10000000
01000000
00000000
,
10000000
00000000
00100000
00000000
00010000
00100000
00010000
00000000
,
00001000
00000000
00000100
00000000
00001000
00000010
00001000
00000000
,
00000001
00000000
00000100
00000000
00001000
00000100
00001000
00000000
,
00000100
00000000
00010000
00000000
00001000
01000000
00001000
00000000
,
01000000
00000000
00010000
00000000
10000000
01000000
00100000
00000000
,
02000000
00000000
00200000
03300000
,
10000000
00010000
01000000
00010000
,
00100000
00001000
00010000
00001000
,
00000100
00001000
00000010
00001000
,
00000001
00000100
00000001
00000010
,
00000001
00000100
00000001
00000000
00001000
00000000
00001100
00000000
,
00000100
00010000
00000100
00000000
00010000
00000000
00011000
00000000
,
01000000
00001000
01000000
00000000
00010000
00000000
01100000
00000000
,
10000000
01000000
10000000
00000000
00010000
00000000
01010000
00000000
,
20000000
32000000
03200000
00320000
,
00130000
00002000
00023000
00030200
,
00001300
00000020
00000230
00000302
,
00001003
00000020
00002030
00003200
,
00010300
00000000
00001000
00000000
00100000
00010000
00100000
00010000
,
00100000
00000000
00000000
00000000
00010000
00000000
00000000
00000000
10000000
00000000
00000000
10000000
00000000
00000000
01000000
00000000
,
10000000
00000000
00100000
00000000
01000000
00010000
01000000
00010000
,
01000000
00000000
00000000
01000000
00000000
00000000
00100000
00000000
00000000
00100000
00000000
00000000
10010000
00000000
00000000
00000000
,
10000000
00000000
00000000
01000000
00000000
00000000
00100000
00000000
00000000
00000000
10000000
00000000
00010000
00000000
00000000
00000000
,
02000000
00000000
00000000
03000000
00000000
00000000
00100000
10000000
,
02000000
00000000
00000000
03000000
00000000
00100000
00010000
01000000
,
00020000
00000000
00000000
00030000
00000000
00100000
00001000
00010000
,
00000000
00001000
00010000
00001000
00000000
00010000
00000100
00000000
,
00001000
00000000
00000000
00000010
00000000
00001000
00000100
00000000
,
00000010
00000000
00000000
00000001
00000000
00000100
00000001
00000000
,
00000010
00000000
00000000
00001000
00000000
00000100
00001000
00000000
,
00020000
00000000
00000000
00032000
00000000
00000000
00003000
00000000
,
00100000
00010000
00100000
00010000
00000000
00000000
10000000
01000000
,
10000000
00000000
00100000
01000000
00000000
00000000
00010000
00000000
,
00100000
00000000
00001000
00010000
00000000
00000100
00010000
00000000
,
00000100
00000000
00001000
00000010
00000000
00000100
00000001
00000000
,
00001000
00000001
00001000
00000001
00000000
00000000
00001100
00000000
,
00010000
00001000
00010000
00001000
00000000
00000000
00110000
00000000
,
10000000
00010000
10000000
00010000
00000000
00000000
01010000
00000000
,
00001000
00010000
00001000
00010000
00000000
00000100
00010000
00000000
,
00000000
00022000
00000000
00000000
00000000
00000000
00000000
00000000
00000000
00000000
00000000
00000000
00000000
00000000
00000000
00000000
00000000
00000000
00000000
00000000
00000000
00000000
00000000
00000000
00000000
00000000
00000000
00000000
00000000
00000000
00000000
00000000
00000000
00000000
00000000
00000000
00000000
00000000
00000000
00000000
00000000
00000000
00000000
00000000
00000000
00000000
00000000
00000000
00000000
00000000
00000000
00000000
00000000
00000000
00000000
00000000
00000000
00000000
00000000
00000000
00000000
00000000
00000000
00000000
00000000
00000000
00000000
00000000
00000000
00000000
00000000
00000000
00000000
00000000
00000000
00000000
00000000
00000000
00000000
00000000
00000000
00000000
00000000
00000000
00000000
00000000
00000000
00000000
00000000
00000000
00000000
00000000
00000000
00000000
00000000
00000000
00000000
00000000
00000000
00000000
00000000
00000000
00000000
00000000
00000000
00000000
00000000
00000000
00000000
00000000
00000000
00000000
00000000
00000000
00000000
00000000
00000000
00000000
00000000
00000000
00000000
00000000
00000000
00000000
00000000
00000000
00000000
00000000
00000000
00000000
00000000
00000000
00000000
00000000
00000000
00000000
00000000
00000000
00000000
00000000
00000000
00000000
00000000
00000000
00000000
00000000
00000000
00000000
00000000
00000000
00000000
00000000
00000000
00000000
00000000
00000000
00000000
00000000
00000000
00000000
00000000
00000000
00000000
00000000
00000000
00000000
00000000
00000000
00000000
00000000
00000000
00000000
00000000
00000000
00000000
00000000
00000000
00000000
00000000
00000000
00000000
00000000
00000000
00000000
00000000
00000000
00000000
00000000
00000000
00000000
00000000
00000000
,
00000000
00000000
00000000
00000000
,
00033000
00000000
00000000
00000000
;

//---------------dance-single - ----------------
#NOTES:
     dance-single:
     :
     Medium:
     8:
     0.374,0.419,0.082,0.388,0.026:
0000
0000
0000
0000
,
0000
0000
0000
0000
,
0000
0000
0000
0000
,
0000
0000
0000
0000
,
0000
0000
0000
0000
,
0000
0000
0000
0000
,
0000
0000
0000
0000
,
0020
0000
0000
2030
0000
0000
3000
0000
,
0020
0000
0000
0032
0000
0000
0003
0000
,
0200
0000
0000
2300
0000
0000
3000
0000
,
0200
0000
0000
0302
0000
0000
0003
0000
,
1000
0001
1000
0002
0000
0000
0003
0000
,
0001
1000
0001
2000
0000
0000
3000
0000
,
0010
0100
0010
0200
0000
0000
0300
0000
,
0200
0000
0300
0000
,
2000
0000
0000
3000
,
0001
0100
0001
0100
0000
0000
1001
0000
,
1000
0100
1000
0100
0000
0000
1001
0000
,
0010
0100
0010
0100
0000
0000
1001
0000
,
0100
0010
0100
0010
0000
0000
1001
0000
,
1000
0100
1000
0100
1000
0000
0101
0000
,
0001
0100
0001
0100
0001
0000
1100
0000
,
1000
0010
1000
0010
1000
0000
0011
0000
,
0001
0010
0001
0020
0000
0000
0030
0000
,
2000
0000
0000
0000
3000
0000
0001
0100
,
0002
0000
0000
0003
0000
1000
0010
1000
,
0200
0000
0000
0300
0000
1000
0010
1000
,
0100
0000
1000
0001
0000
0100
0001
0010
,
0002
0000
0000
0103
0000
0010
1000
0010
,
0100
0000
0000
0010
0000
0000
0000
0000
,
0002
0000
0000
2003
0000
0000
3100
0000
,
2000
0000
0000
3002
0000
0000
0103
0000
,
0010
1000
0010
0100
,
0010
1000
0010
0000
0100
0010
0100
0000
,
0010
0001
0100
0001
,
0010
0001
0010
0000
0001
0100
0001
0000
,
0100
1000
0010
1000
,
0100
1000
0100
0000
1000
0010
1000
0000
,
0010
0001
0100
0001
,
0010
0001
0100
0000
1000
0000
1001
0000
,
0020
0130
1000
0001
,
0200
0310
0001
1000
,
0002
0000
0103
0000
1000
0100
0001
0000
,
0200
0000
1300
0000
1000
0100
0001
0000
,
0020
1030
0200
1300
,
0002
0000
0103
0000
0001
0010
0001
0000
,
2000
3010
0200
0310
,
0200
0000
0301
0000
1000
0001
1000
0000
,
0020
0000
1030
0000
0100
1000
0100
0000
,
0020
0000
0000
0000
0031
0000
0000
0000
0100
0000
0000
0100
0000
0000
0100
0000
,
0020
1030
0002
0103
,
0020
0000
0000
0000
1030
0000
0000
0000
0001
0000
0000
0100
0000
0000
0001
0000
,
0200
0310
2000
3100
,
0002
0000
0000
0000
0103
0000
0000
0000
0010
0000
0000
0010
0000
0000
0010
0000
,
2000
3100
0002
0103
,
0010
0000
0000
0100
0000
0000
0010
0000
0000
0100
0000
0000
0010
0000
0000
0000
,
1000
0000
0000
1000
0000
0000
0001
0000
0000
0001
0000
0000
1000
0000
0000
0000
,
2000
0000
0000
0000
3000
0000
0001
0100
,
0002
0000
0000
0003
0000
1000
0010
1000
,
0200
0000
0000
0300
0000
1000
0010
1000
,
0100
0000
1000
0001
0000
0100
0001
0010
,
0002
0000
0000
0103
0000
0010
1000
0010
,
0100
0000
0000
0010
0000
0000
0000
0000
,
0002
0000
0000
2003
0000
0000
3100
0000
,
2000
0000
0000
3002
0000
0000
0103
0000
,
1000
0100
1000
0100
0000
0000
1001
0000
,
0001
0100
0001
0100
0000
0000
1001
0000
,
0100
0010
0100
0010
0000
1000
0001
0000
,
1000
0100
1000
0100
0000
0001
1000
0000
,
0001
0010
0001
0010
0000
0100
1000
0000
,
0010
1000
0010
1000
0000
0001
0100
0000
,
1000
0100
1000
0100
0000
0001
0100
0000
,
0010
0100
0010
0100
0000
1000
0001
0000
,
2002
0000
0000
0000
,
0000
0000
0000
0000
,
3003
0000
0000
0000
;

//---------------dance-double - ----------------
#NOTES:
     dance-double:
     :
     Easy:
     4:
     0.207,0.252,0.089,0.171,0.000:
00000000
00000000
00000000
00000000
,
00000000
00000000
00000000
00000000
,
00000000
00000000
00000000
00000000
,
00000000
00000000
00000000
00000000
,
00000000
00000000
00000000
00000000
,
00000000
00000000
00000000
00000000
,
00000000
00000000
00000000
00000000
,
10000000
00000000
00000000
00000000
,
00010000
00000000
00000000
00000000
,
00001000
00000000
00000000
00000000
,
00000001
00000000
00000000
00000000
,
00000001
00000000
00000000
00000000
,
00001000
00000000
00000000
00000000
,
00010000
00000000
00000000
00000000
,
10000000
00000000
00000000
00000000
,
00200000
00000000
00000000
00300000
,
10000000
00010000
00000000
00000000
,
00010000
00001000
00000000
00000000
,
00001000
00000001
00000000
00000000
,
00000001
00001000
00000000
00000000
,
00001000
01000000
00000000
00000000
,
10000000
01000000
00000000
00000000
,
00010000
00001000
00000000
00000000
,
00000100
00000001
00000000
00000000
,
00000020
00000000
00000030
00000000
,
00000200
00000000
00000300
00000000
,
00000002
00000000
00000003
00000000
,
00002000
00000000
00003000
00000000
,
00200000
00000000
00300000
00000000
,
02000000
00000000
03000000
00000000
,
00020000
00000000
00030000
00000000
,
20000000
00000000
30000000
00000000
,
01000000
10000000
00000000
10000000
,
01000000
00010000
00000000
00010000
,
00000100
00001000
00000000
00001000
,
00000100
00000001
00000000
00000001
,
00000010
00000001
00000000
00000100
,
00000010
00001000
00000000
00010000
,
00100000
00010000
00000000
01000000
,
00100000
10000000
00000000
01000000
,
10000000
10000000
00010000
00010000
,
10000000
00010000
10000000
00000000
,
01000000
00000000
00100000
00000000
,
01000000
00001000
00010000
00000000
,
00000100
00000000
00001000
00000000
,
00000001
00001000
00000001
00000000
,
00001000
00001000
00000001
00000001
,
00001000
00000100
00001000
00000000
,
00000000
00001001
00000000
00001001
,
00000000
00001001
00000100
00000010
,
00000000
00011000
00000000
00011000
,
00000000
00011000
00010000
01000000
,
00000000
10010000
00000000
10010000
,
00000000
10010000
01000000
00100000
,
00000000
10010000
00000000
10010000
,
20000000
30000000
00020000
00030000
,
20000000
00000000
00020000
30030000
,
02000000
00100000
00000000
03100000
,
20000000
00010000
00000000
30010000
,
00200000
00001000
00000000
00301000
,
00020000
00000010
00000000
00030010
,
00002000
00000100
00000000
00003100
,
00000002
00000100
00000000
00000103
,
00000020
00001000
00000000
00001030
,
00000200
00010000
00000000
00010300
,
00001000
00100000
00010000
00100000
,
10000000
00100000
10000000
01000000
,
00010000
01000000
00001000
00010000
,
00000100
00001000
00000100
00000001
,
00001000
00000100
00001000
00000010
,
00001000
00000100
00010000
00001000
,
01000000
00010000
01000000
00100000
,
10000000
00100000
01000000
00001000
,
00022000
00000000
00000000
00000000
,
00000000
00000000
00000000
00000000
,
00033000
00000000
00000000
00000000
;

//---------------dance-single - ----------------
#NOTES:
     dance-single:
     :
     Easy:
     4:
     0.202,0.252,0.089,0.171,0.000:
0000
0000
0000
0000
,
0000
0000
0000
0000
,
0000
0000
0000
0000
,
0000
0000
0000
0000
,
0000
0000
0000
0000
,
0000
0000
0000
0000
,
0000
0000
0000
0000
,
1000
0000
0000
0000
,
0001
0000
0000
0000
,
1000
0000
0000
0000
,
0001
0000
0000
0000
,
0100
0000
0000
0000
,
0010
0000
0000
0000
,
0100
0000
0000
0000
,
0010
0000
0000
0000
,
0200
0000
0300
0000
,
1000
0100
0000
0000
,
1000
0100
0000
0000
,
0001
0100
0000
0000
,
0001
0100
0000
0000
,
1000
0010
0000
0000
,
1000
0010
0000
0000
,
0001
0010
0000
0000
,
0001
0010
0000
0000
,
0020
0000
0030
0000
,
0200
0000
0300
0000
,
0002
0000
0003
0000
,
2000
0000
3000
0000
,
0020
0000
0030
0000
,
0200
0000
0300
0000
,
0002
0000
0003
0000
,
2000
0000
3000
0000
,
0100
1000
0000
1000
,
0100
0001
0000
0001
,
0100
1000
0000
1000
,
0100
0001
0000
0001
,
0010
1000
0000
1000
,
0010
0001
0000
0001
,
0010
1000
0000
1000
,
0010
0001
0000
0001
,
1000
1000
0001
0001
,
1000
0001
1000
0000
,
0001
0001
1000
1000
,
0001
1000
0001
0000
,
1000
0100
0001
0001
,
1000
0100
0001
0000
,
0001
0001
0100
1000
,
0001
0100
1000
0000
,
0000
1001
0000
1001
,
0000
1001
0100
0010
,
0000
1001
0000
1001
,
0000
1001
0010
0100
,
0000
1001
0000
1001
,
0000
1001
0100
0010
,
0000
1001
0000
1001
,
2000
3000
0002
0003
,
2000
0000
0002
3003
,
0200
0010
0000
0310
,
2000
0001
0000
3001
,
0020
1000
0000
1030
,
0002
0010
0000
0013
,
2000
0100
0000
3100
,
0002
0100
0000
0103
,
0020
1000
0000
1030
,
0020
0001
0000
0031
,
1000
0010
1000
0000
,
0001
0010
0001
0000
,
1000
0100
1000
0000
,
0001
0100
0001
0000
,
1000
0001
1000
0000
,
0001
1000
0001
0000
,
0010
0100
0010
0000
,
0100
0010
0100
0000
,
2002
0000
0000
0000
,
0000
0000
0000
0000
,
3003
0000
0000
0000
;

//---------------dance-single - ----------------
#NOTES:
     dance-single:
     :
     Beginner:
     2:
     0.133,0.168,0.015,0.045,0.000: // measure 1
0000
0000
0000
0000
,  // measure 2
0000
0000
0000
0000
,  // measure 3
0000
0000
0000
0000
,  // measure 4
0000
0000
0000
0000
,  // measure 5
0000
0000
0000
0000
,  // measure 6
0000
0000
0000
0000
,  // measure 7
0000
0000
0000
0000
,  // measure 8
1000
0000
0000
0000
,  // measure 9
0001
0000
0000
0000
,  // measure 10
1000
0000
0000
0000
,  // measure 11
0001
0000
0000
0000
,  // measure 12
1000
0000
0000
0000
,  // measure 13
1000
0000
0000
0000
,  // measure 14
0001
0000
0000
0000
,  // measure 15
0001
0000
0000
0000
,  // measure 16
1001
0000
0000
0000
,  // measure 17
1000
1000
0000
0000
,  // measure 18
0001
0001
0000
0000
,  // measure 19
1000
1000
0000
0000
,  // measure 20
0001
0001
0000
0000
,  // measure 21
0100
0100
0000
0000
,  // measure 22
0001
0001
0000
0000
,  // measure 23
1000
1000
0000
0000
,  // measure 24
0100
0100
0000
0000
,  // measure 25
1000
0000
1000
0000
,  // measure 26
0001
0000
0001
0000
,  // measure 27
0100
0000
0100
0000
,  // measure 28
0010
0000
0010
0000
,  // measure 29
0001
0000
0001
0000
,  // measure 30
1000
0000
1000
0000
,  // measure 31
0010
0000
0010
0000
,  // measure 32
0100
0000
0100
0000
,  // measure 33
0000
1000
0000
0001
,  // measure 34
0000
1000
0000
0001
,  // measure 35
0000
0100
0000
1000
,  // measure 36
0000
0100
0000
1000
,  // measure 37
0000
0001
0000
1000
,  // measure 38
0000
0001
0000
1000
,  // measure 39
0000
0100
0000
0001
,  // measure 40
0000
0100
0000
0001
,  // measure 41
0001
0000
1000
0000
,  // measure 42
0001
0000
0100
0000
,  // measure 43
1000
0000
0001
0000
,  // measure 44
1000
0000
0100
0000
,  // measure 45
0001
0000
1000
0000
,  // measure 46
0010
0000
0001
0000
,  // measure 47
1000
0000
0001
0000
,  // measure 48
0010
0000
1000
0000
,  // measure 49
0000
0001
0000
0001
,  // measure 50
0000
0002
0000
0003
,  // measure 51
0000
1000
0000
1000
,  // measure 52
0000
2000
0000
3000
,  // measure 53
0000
0001
0000
0100
,  // measure 54
0000
0002
0000
0003
,  // measure 55
0000
1000
0000
0100
,  // measure 56
0000
1000
0000
0100
,  // measure 57
0200
0000
0300
0000
,  // measure 58
1000
0000
0000
0000
,  // measure 59
0001
0000
0000
0000
,  // measure 60
0100
0000
0000
0000
,  // measure 61
0010
0000
0000
0000
,  // measure 62
0000
1000
0000
1000
,  // measure 63
0000
0001
0000
0001
,  // measure 64
0000
0100
0000
0100
,  // measure 65
0000
0010
0000
0000
,  // measure 66
1000
0000
1000
0000
,  // measure 67
0001
0000
0001
0000
,  // measure 68
0100
0000
0100
0000
,  // measure 69
0010
0000
0010
0000
,  // measure 70
1000
0000
0001
0000
,  // measure 71
0100
0000
0010
0000
,  // measure 72
1000
1000
1000
0000
,  // measure 73
0001
0001
0001
0000
,  // measure 74
2002
0000
0000
0000
,  // measure 75
0000
0000
0000
0000
,  // measure 76
3003
0000
0000
0000
;
