#TITLE:Far East Princess;
#SUBTITLE:;
#ARTIST:nauts;
#TITLETRANSLIT:;
#SUBTITLETRANSLIT:;
#ARTISTTRANSLIT:;
#GENRE:;
#CREDIT:;
#MENUCOLOR:;
#METERTYPE:DDR;
#BANNER:Far East Princess.png;
#BACKGROUND:Far East Princess-bg.png;
#LYRICSPATH:;
#CDTITLE:;
#MUSIC:Far East Princess.ogg;
#OFFSET:-0.080;
#SAMPLESTART:87.804;
#SAMPLELENGTH:15.000;
#SELECTABLE:YES;
#LISTSORT:;
#DISPLAYBPM:102.000;
#BPMS:0.000=102.000;
#STOPS:227.000=0.570
;
#BGCHANGES:0.000=Far East Princess.avi=1.000=1=1=0,
99999=-nosongbg-=1.000=0=0=0 // don't automatically add -songbackground-
;
#ATTACKS:;

//---------------dance-single - ----------------
#NOTES:
     dance-single:
     :
     Hard:
     13:
     0.561,0.671,0.207,0.186,0.440:
0000
0000
0000
0000
,
0000
0000
0000
0000
,
0000
0000
0000
0000
,
0000
0000
0000
0000
,
0000
0000
0000
0000
,
0000
0000
0000
0000
,
0000
0000
0000
0000
,
0000
0000
1000
0001
0001
1000
0001
0001
,
1000
0100
0010
0001
0100
0100
0001
1000
,
1000
0001
1000
1000
0001
0010
0100
1000
,
0010
0010
0100
0001
0001
1000
0010
0100
,
0001
0100
0010
1000
0001
0010
0100
0100
,
0001
0000
0010
0000
0010
0000
0001
0000
0100
0000
0001
0000
0001
0100
0001
0100
,
0010
0100
0010
0100
0010
0000
1000
0100
1000
0000
1001
0000
0001
0010
0001
0000
,
1001
0000
1000
0100
1000
0000
0010
0000
0110
0000
0110
0000
1000
0000
0001
0100
,
0001
0000
1001
0000
0010
0100
0010
0000
1001
0000
1000
0100
1000
0000
0010
0000
,
0110
0000
0110
0000
0110
0000
0001
0010
0001
0100
0001
0000
1000
0010
1000
0100
,
1000
0000
0001
0010
0001
0100
0001
0000
0100
0000
0010
0000
1000
0100
1000
0010
,
1000
0000
0001
0100
0001
0010
0001
0000
1000
0000
0001
0100
0001
0000
0010
0001
,
0100
0001
0010
0001
0200
0000
0010
0000
0310
0000
2000
0000
0001
0000
3001
0000
,
1000
0100
0010
0002
0100
0103
0020
0100
,
0130
0002
1000
1003
0001
0100
0010
2000
,
0100
3100
2000
0001
3001
0200
0010
0310
,
0001
1000
0010
0200
0010
0310
2000
3100
,
0010
0000
0002
0000
0103
0000
0010
0000
2000
0000
3000
0001
0010
0100
1000
0001
,
1000
0010
1000
0100
1000
0000
0001
1000
0001
0000
1000
0000
0010
0100
0010
0000
,
1000
0000
0100
0000
0010
0000
0001
0000
0100
0010
0100
0000
0001
0000
1000
0100
,
1000
0000
0001
0000
1000
0010
1000
0000
0001
0000
0100
0000
0010
0000
1000
0000
,
0001
0100
0001
0000
1000
0000
0010
0100
0010
0000
1000
0000
0100
0000
0010
0000
,
0001
0000
0010
0000
0100
0000
1000
0000
0001
0100
0001
0000
1000
0000
0010
0100
,
0010
0000
1000
0000
0001
0100
0001
0000
1000
0000
0100
0000
0010
0000
0001
0000
,
0100
0010
2001
0000
0000
3002
0000
0000
,
0103
0010
0100
0020
0000
0000
2030
0000
,
3001
0000
0020
0000
0000
0000
0130
0000
2000
0000
0000
3002
0000
0000
2003
0000
,
0000
3002
0000
0000
1003
0000
0001
0100
0001
0100
0001
0000
1000
0100
1000
0100
,
1000
0000
0010
0000
0100
0000
0001
0000
1000
0001
1000
0001
1000
0000
0010
0100
,
0010
0100
0010
0000
1000
0000
0100
0000
0001
0010
0001
0010
0001
0100
0001
0100
,
0001
1000
0001
1000
0001
0000
1000
0100
1000
0100
1000
0000
0010
0000
0100
0000
,
0001
0000
0100
0001
0100
0010
0100
0000
0010
0000
0100
0000
0001
0000
1000
0100
,
1000
0100
1000
0000
1000
0001
0000
0001
0100
0000
0000
0001
0100
0001
0100
0010
,
0100
0010
1000
0010
1000
0000
0001
0100
0001
0100
0001
0000
0010
0000
0001
0000
,
0100
0000
0010
0100
0010
0100
0010
0000
1000
0000
0001
0000
1001
0000
0001
0100
,
0000
0100
1000
0000
1000
0100
0000
0100
0001
0000
0001
1000
0001
1000
0010
0100
,
0010
0100
0001
1000
0001
0000
1000
0100
1000
0100
1000
0000
0010
0000
0100
0000
,
0001
0000
0010
0001
0010
0001
0010
0000
0001
0000
0100
0000
0010
0000
1000
0100
,
1000
0100
1000
0000
0010
0100
0000
0100
0001
0000
0001
1000
0100
1000
0001
0100
,
0001
0010
0001
0100
0010
0000
1000
0100
1000
0010
0100
0000
0001
0000
0010
0000
,
0001
0100
0001
0010
0001
0100
0010
0000
1000
0000
0100
0000
0001
0000
0001
0000
,
0100
0000
1000
0000
1000
0000
0100
0000
0002
0000
0000
0103
0001
0100
0010
0100
,
0010
1000
0010
0100
0001
0000
1000
0100
1000
0000
0010
0000
0100
0001
0100
0000
,
1000
0000
0010
0100
0010
0000
1000
0000
0101
0000
1001
0000
1000
0000
0100
0000
,
0010
0000
0011
0000
0101
0000
1001
0000
0110
0000
0001
1000
0001
0000
1000
0100
,
1000
0010
0100
0001
0020
0000
0000
0000
0030
0000
0002
0000
0000
0000
0003
0000
,
0200
0000
0300
2000
3000
0010
0100
1100
,
1100
0101
0101
0101
1010
1010
1010
0011
,
0011
0000
0011
0000
1000
0010
1000
0010
1000
0010
0100
0001
0100
0001
0100
0001
,
1000
0100
0010
0001
0100
0010
1000
0100
0010
0001
0100
0010
0000
0000
1001
0000
;

//---------------dance-double - ----------------
#NOTES:
     dance-double:
     :
     Hard:
     13:
     0.541,0.671,0.286,0.307,0.275:
00000000
00000000
00000000
00000000
,
00000000
00000000
00000000
00000000
,
00000000
00000000
00000000
00000000
,
00000000
00000000
00000000
00000000
,
00000000
00000000
00000000
00000000
,
00000000
00000000
00000000
00000000
,
00000000
00000000
00000000
00000000
,
00000000
00000000
20000000
01000000
31000000
00200000
00010000
00310000
,
00001000
00000100
00000010
00000002
00000100
00000103
00000002
00000010
,
00000013
00000200
00001000
00001300
00000100
00010000
00001000
02000000
,
00010000
03010000
00200000
10000000
10300000
01000000
00100000
00010000
,
01000000
00001000
00010000
00000010
00000000
00001000
00000002
00001000
,
00001003
00000000
00000020
00000000
00000100
00000000
00000130
00000000
00000001
00000000
00000000
00001000
00000010
00001000
00000100
00001000
,
00000010
00001000
00000001
00001000
00000100
00000000
00001000
00000010
00001000
00000000
00000100
00000000
00010000
00001000
00010000
00000000
,
00001000
00000000
01000000
00010000
01000000
00000000
00100000
00000000
10010000
00000000
10010000
00000000
10000000
00000000
01000000
10000000
,
01000000
00000000
10000000
00000000
00010000
00100000
00010000
00000000
00100000
00000000
00001000
00010000
00001000
00000000
00010000
00000000
,
00010100
00000000
00010100
00000000
00001000
00000000
00000010
00001000
00000010
00000000
00000100
00000000
00000001
00001000
00000001
00000000
,
00001000
00000000
00000010
00000100
00000010
00000000
00001000
00000000
00000100
00000000
00001000
00000000
00010000
00000000
01000000
00000000
,
00100000
00000000
10000000
00000000
01000000
00000000
00100000
00000000
00010000
00000000
00001000
00010000
00001000
00000000
00010000
00000000
,
00011000
00011000
00020000
00000100
00030100
00000200
00001000
00001300
,
00000010
00000100
00001000
00000002
00000100
00000103
00002000
00000100
,
00003100
00020000
00001000
00031000
00001000
01000000
00010000
02000000
,
00100000
03100000
20000000
01000000
31000000
00200000
00010000
00310000
,
00100000
00001000
00010000
00000200
00001000
00001300
00000020
00000130
,
00000002
00000000
00001000
00000000
00001003
00000000
00000020
00000000
00000130
00000000
00000000
00000001
00000010
00000100
00001000
00000010
,
00000100
00000001
00000010
00000100
00001000
00000000
00000010
00001000
00000010
00000000
00001000
00000000
00000100
00010000
00000100
00000000
,
00010000
00000000
00001000
00000000
01000000
00000000
00010000
00000000
01000000
00100000
01000000
00000000
00100000
00000000
10000000
01000000
,
10000000
00000000
00100000
00000000
01000000
00010000
01000000
00000000
00010000
00000000
00100000
00000000
00001000
00000000
00010000
00000000
,
00000100
00001000
00000100
00000000
00001000
00000000
00000001
00000100
00000001
00000000
00001000
00000000
00000100
00000000
00010000
00000000
,
00001000
00010000
01000000
10000000
01000000
00010000
00001000
00010000
,
00000100
00001000
00000001
00001000
00000100
00000001
00001000
00001001
,
00000010
00001000
00000010
00001000
00000020
00000000
00000100
00000000
00000130
00000000
00002000
00000000
00000100
00000000
00003100
00000000
,
00000100
00010000
00001000
02000000
00010000
03010000
00200000
00000000
,
10300000
00000000
02000000
00000000
00000000
00000000
03010000
00000000
20000000
00000000
00000000
30020000
00000000
00000000
20030000
00000000
,
00000000
30020000
00000000
00000000
10030000
00000000
01000000
00000000
10000000
00000000
00100000
00000000
01000000
00000000
00001000
00000000
,
00010000
00000100
00001000
00000001
00000100
00001000
00000100
00000001
,
00000010
00000000
00002000
00000000
00000000
00000000
00003100
00000000
00000020
00000000
00000000
00001030
00000001
00001000
00000001
00001000
,
00000100
00001000
00000100
00001000
00000100
00000000
00010000
00001000
00010000
00001000
00010000
00000000
00001000
00000000
01000000
00000000
,
00100000
00000000
10000000
00010000
10000000
00010000
10000000
00000000
00100000
00000000
01000000
00000000
00001000
00000000
00010000
00001000
,
00010000
00001000
00010000
00000000
00000000
00001100
00000000
00000000
00000010
00000000
00000000
00001000
00000001
00001000
00000010
00001000
,
00000100
00001000
00000100
00010000
00001000
00000000
01000000
00001000
01000000
00001000
01000000
00000000
00010000
00000000
01000000
00000000
,
00100000
00000000
10000000
00010000
10000000
00010000
10000000
00000000
00100000
00000000
01000000
00000000
10010000
00000000
10000000
01000000
,
00000000
01000000
00100000
00000000
00100000
00001000
00000000
00001000
00010000
00000000
00000000
00010000
00000100
00010000
00001000
00000000
,
00010000
00000000
00000100
00000000
00001000
00000000
00000010
00000100
00000010
00000100
00000010
00000000
00000001
00000000
00001000
00000000
,
00000100
00000000
00010000
00001000
00010000
00001000
00010000
00000000
00001000
00000000
01000000
00000000
00010000
00000000
10000000
00010000
,
10000000
00010000
10000000
00000000
00000000
10010000
00000000
00000000
00100000
00000000
00000000
10000000
00100000
10000000
00010000
01000000
,
00010000
10000000
01000000
00100000
00010000
00000000
01000000
00000000
00001000
00000000
00020000
00000000
00000100
00000000
00030100
00000000
,
00001000
00000100
00000010
00000002
00000100
00000103
00000010
00001000
,
00000100
00000000
00000010
00000000
00000001
00000000
00000100
00000000
00002000
00000000
00003100
00000000
00001000
00000000
00000100
00010000
,
00000100
00010000
00000100
00010000
00000100
00000000
00010000
00001000
01000000
00000000
00010000
00000000
01000000
00000000
00010000
00000000
,
10000000
00000000
01000000
10000000
00010000
00000000
01000000
00000000
00010000
00000000
00100000
00000000
00001000
00000000
00010000
00000000
,
00000010
00000000
00001000
00000000
00001010
00000000
00001001
00000000
00000101
00000000
00000001
00000010
00000001
00000100
00000001
00000000
,
00001000
00001100
00002002
00000000
00003003
00002200
00000000
00003300
,
00022000
00000000
00033000
00220000
00330000
00010000
01000000
10000000
,
10000000
10010000
10010000
10010000
00110000
00110000
00110000
00011000
,
00011000
00011000
00010100
00010100
00010100
00001100
00001100
00001100
,
00001001
00001001
00001001
00011000
00011000
00011000
00000000
10010000
;

//---------------dance-double - ----------------
#NOTES:
     dance-double:
     :
     Medium:
     7:
     0.269,0.305,0.043,0.300,0.000:
00000000
00000000
00000000
00000000
,
00000000
00000000
00000000
00000000
,
00000000
00000000
00000000
00000000
,
00000000
00000000
00000000
00000000
,
00000000
00000000
00000000
00000000
,
00000000
00000000
00000000
00000000
,
00000000
00000000
00000000
00000000
,
00000000
00000000
10000000
00000000
00000000
00100000
00000000
00000000
,
10000000
10000000
00010000
00010000
00000000
00000000
00100000
00000000
,
00000000
00001000
00000000
00000000
00010000
00010000
00001000
00001000
,
00000000
00000000
00000100
00000000
00000000
00001000
00000000
00000000
,
00000001
00000001
00001000
00001000
00000000
00000000
00000010
00000000
,
00000000
00001000
00000000
00000000
00000100
00000100
00010000
00010000
,
00000000
00000000
00000000
00001000
00001000
00000000
00010000
00010000
,
00000000
01000000
01000000
00000000
10000000
10000000
00000000
01000000
,
01000000
00000000
00010000
00010000
00000000
00001000
00001000
00000000
,
00000100
00000100
00000000
00000001
00000010
00000000
00000010
00001000
,
00000000
00001000
00010000
00000000
00010000
00000000
00100000
00010000
,
01000000
00010000
00000000
00100000
01000000
00000000
00000000
10010000
,
00000000
00000000
20000000
00000000
30000000
00020000
00000000
00030000
,
10000000
01000000
00100000
00010000
00000000
00000000
00002000
00000000
,
00003000
00020000
00000000
00030000
00001000
00000100
00000010
00000001
,
00000000
00000000
00000200
00000000
00000300
00000020
00000000
00000030
,
00000001
00000100
00000010
00001000
00000000
00000000
00000100
00000000
,
00010000
00001000
00000000
00010000
00001000
00000000
00010000
00010000
,
00000000
00000000
02000000
00000000
03000000
00200000
00000000
00300000
,
10000000
01000000
00100000
00010000
00000000
00000000
00000200
00000000
,
00000300
00000020
00000000
00000030
00000001
00000010
00000100
00001000
,
00000000
00000000
00020000
00000000
00030000
00001000
00010000
00001000
,
01000000
00001000
01000000
00001000
00000000
01000000
01000000
00000000
,
00100000
00100000
00000000
00000000
10000000
01000000
00100000
00010000
,
00000000
00000000
20000000
00000000
30000000
00020000
00000000
00030000
,
02000000
00000000
03000000
00200000
00000000
00300000
20000000
00000000
,
30000000
02000000
00000000
03000000
00020000
00000000
00000000
00030000
,
00000000
00000000
00200000
00000000
00300000
00002000
00000000
00003000
,
00020000
00000000
00030000
00000020
00000000
00000030
00002000
00000000
,
00003000
00000002
00000000
00000003
00000200
00000000
00000000
00000000
,
00000000
00000300
00000000
00000010
00000010
00001000
00001000
00001000
,
00000001
00000010
00000100
00001000
00000000
00000000
00000000
00010000
,
00001000
00020000
00000000
00030000
00002000
00000000
00003000
01000000
,
01000000
01000000
00000000
00100000
00100000
10000000
10000000
10000000
,
00010000
01000000
00010000
01000000
00000000
00000000
20200000
00000000
,
30300000
02020000
00000000
03030000
20000000
00000000
00000000
30020000
,
00000000
00000000
00030000
10000000
10000000
00010000
00010000
00010000
,
00100000
01000000
00100000
01000000
00000000
00000000
00000000
00001000
,
00001000
00020000
00000000
00030000
00000200
00000000
00000000
00001300
,
00000000
00000000
00000010
00000100
00000010
00001001
00000000
00000000
,
00000100
00000010
00000100
00001001
00000000
00000000
00000200
00000000
,
00000300
00020000
00000000
00030000
00002000
00000000
00000000
00000000
,
00000000
00003000
00000000
01000000
01000000
00000000
10000000
10000000
,
00000000
00100000
00100000
00000000
00010000
00010000
00010000
00000000
,
00000100
00001000
00000000
00001000
00000010
00000000
00000010
00000001
,
00000000
00000000
00000200
00000000
00000300
00002000
00000000
00003000
,
00020000
00000000
00030000
02000000
00000000
03000000
00000000
10000000
,
10000000
00010000
00000000
00010000
00100000
00000000
00100000
00010000
,
00000000
00010000
00001000
00001000
00001000
00000100
00000100
00000100
,
00000010
00000010
00000010
00010000
00010000
00010000
00000000
00011000
;

//---------------dance-double - ----------------
#NOTES:
     dance-double:
     :
     Easy:
     4:
     0.148,0.203,0.043,0.143,0.000:
00000000
00000000
00000000
00000000
,
00000000
00000000
00000000
00000000
,
00000000
00000000
00000000
00000000
,
00000000
00000000
00000000
00000000
,
00000000
00000000
00000000
00000000
,
00000000
00000000
00000000
00000000
,
00000000
00000000
00000000
00000000
,
00000000
00000000
00100000
00000000
00000000
00100000
00000000
00000000
,
10000000
00000000
00000000
10000000
00000000
00000000
00100000
00000000
,
00000000
00100000
00000000
00000000
00001000
00000000
00000000
00001000
,
00000000
00000000
00010000
00000000
00000000
00010000
00000000
00000000
,
00000100
00000000
00000000
00000100
00000000
00000000
00001000
00000000
,
00000000
00000010
00000000
00000000
00000001
00000000
00000000
00000100
,
00000000
00000000
00000000
00000000
00000000
00010000
00000000
00000000
,
00001000
00000000
00000000
00010000
00000000
00000000
00000000
00000000
,
00000000
00010000
00000000
00000000
10000000
00000000
00000000
00010000
,
00000000
00000000
00000000
00000000
00000000
00001000
00000000
00000000
,
00010000
00000000
00000000
00001000
00000000
00000000
01000000
00000000
,
00000000
01000000
00000000
00000000
02000000
00000000
00000000
03000000
,
00000000
00000000
00010000
00000000
00000000
10000000
00000000
00000000
,
00010000
00000000
00000000
01000000
00000000
00000000
00001000
00000000
,
00000000
00010000
00000000
00000000
00001000
00000000
00000000
00010000
,
00000000
00000000
00000100
00000000
00000000
00001000
00000000
00000000
,
00000100
00000000
00000000
00000001
00000000
00000000
00000100
00000000
,
00000000
00001000
00000000
00000000
00020000
00000000
00000000
00030000
,
00000000
00000000
00100000
00000000
00000000
00100000
00000000
00000000
,
01000000
00000000
00100000
01000000
00000000
00000000
01000000
00000000
,
00000000
01000000
00000000
00000000
00100000
00000000
01000000
00100000
,
00000000
00000000
10000000
00000000
00000000
00010000
00000000
00000000
,
01000000
00000000
00000000
00001000
00000000
00000000
00100000
00000000
,
00000000
00001000
00000000
00000000
00010000
00000000
00000000
00000010
,
00000000
00000000
00002000
00000000
00000000
00003000
00000000
00000000
,
00000002
00000000
00000000
00000003
00000000
00000000
00000020
00000000
,
00000000
00000030
00000000
00000000
00000200
00000000
00000000
00000300
,
00000000
00000000
00001000
00000000
00000000
00000100
00000000
00000000
,
00000001
00000000
00000000
00000100
00000000
00000000
00010000
00000000
,
00000000
01000000
00000000
00000000
00020000
00000000
00000000
00030000
,
00000000
00000000
00000000
10000000
00000000
00010000
00000000
01000000
,
01000000
00000000
00000000
10010000
00000000
00000000
00000000
00010000
,
00000000
00100000
00000000
00000000
20020000
00000000
00000000
30030000
,
00000000
00000000
00000000
00010000
00000000
01000000
00000000
00000000
,
00001000
00000000
00000000
00000100
00000000
00000000
00000010
00000000
,
00000000
00001010
00000000
00000000
00002002
00000000
00000000
00003003
,
00000000
00000000
00000000
00000001
00000000
00001000
00000000
00000010
,
00000010
00000000
00000000
00001001
00000000
00000000
00000000
00001000
,
00000000
00000100
00000000
00000000
00002002
00000000
00000000
00003003
,
00000000
00000000
00000010
00000000
00000000
00000100
00000000
00000000
,
00000010
00000000
00000000
00000100
00000000
00000000
00000010
00000000
,
00000000
00001000
00000000
00000000
00020000
00000000
00000000
00030000
,
00000000
00000000
00001000
00000000
00000000
00010000
00000000
00000000
,
01000000
00000000
00000000
00100000
00000000
00000000
00010000
00000000
,
00000000
10000000
00000000
00000000
00020000
00000000
00000000
00030000
,
00000000
00000000
10000000
00000000
00000000
01000000
00000000
00000000
,
00100000
00000000
00000000
00010000
00000000
00000000
02000000
00000000
,
00000000
00000000
00000000
03000000
00020000
00000000
00000000
00000000
,
00000000
00030000
00002000
00000000
00000000
00000000
00003000
00000000
,
00000200
00000000
00000300
00020000
00000000
00030000
00000000
00100000
;

//---------------dance-single - Copied from----------------
#NOTES:
     dance-single:
     Copied from:
     Easy:
     4:
     0.143,0.163,0.029,0.129,0.000:
0000
0000
0000
0000
,
0000
0000
0000
0000
,
0000
0000
0000
0000
,
0000
0000
0000
0000
,
0000
0000
0000
0000
,
0000
0000
0000
0000
,
0000
0000
0000
0000
,
0000
0000
0010
0000
0000
0010
0000
0000
,
0100
0000
0000
0100
0000
0000
0010
0000
,
0000
0010
0000
0000
0100
0000
0000
0100
,
0000
0000
0001
0000
0000
0001
0000
0000
,
1000
0000
0000
1000
0000
0000
0001
0000
,
0000
0001
0000
0000
1000
0000
0000
1000
,
0000
0000
0100
0000
0000
0001
0000
0000
,
0100
0000
0000
0001
0000
0000
0100
0000
,
0000
1000
0000
0000
0100
0000
0000
1000
,
0000
0000
0100
0000
0000
0010
0000
0000
,
0100
0000
0000
0010
0000
0000
0100
0000
,
0000
0100
0000
0000
0200
0000
0000
0300
,
0000
0000
0001
0000
0000
0001
0000
0000
,
0001
0000
0000
1000
,
0000
1000
0000
0000
1000
0000
0000
0000
,
0000
0000
0001
0000
0000
0001
0000
0000
,
0001
0000
0000
1000
,
0000
1000
0000
0000
2000
0000
0000
3000
,
0000
0000
0010
0000
0000
0010
0000
0000
,
0100
0000
0010
0100
0000
0000
0100
0000
,
0000
0100
0000
0000
0010
0000
0100
0010
,
0000
0000
1000
0000
0000
0001
0000
0000
,
0100
0000
0000
0010
0000
0000
0100
0000
,
0000
0001
0000
0000
1000
0000
0000
0001
,
0000
0000
0200
0000
0000
0300
0000
0000
,
0020
0000
0000
0030
0000
0000
0200
0000
,
0000
0300
0000
0000
0020
0000
0000
0030
,
0000
0000
1000
0000
0000
1000
0000
0000
,
0001
0000
0000
0001
0000
0000
1000
0000
,
0000
0001
0000
0000
2002
0000
0000
3003
,
0000
0000
0000
0001
0000
1000
0000
0000
,
0001
0000
0000
1000
0000
0000
0000
0010
,
0000
0010
0000
0000
2002
0000
0000
3003
,
0000
0000
0000
0001
0000
1000
0000
0000
,
0001
0000
0000
1000
0000
0000
0100
0000
,
0000
0100
0000
0000
0200
0000
0000
0300
,
0000
0000
0000
1000
0000
0001
0000
0000
,
1000
0000
0000
0001
0000
0000
0000
0010
,
0000
0010
0000
0000
2002
0000
0000
3003
,
0000
0000
0010
0000
0000
0010
0000
0000
,
0100
0000
0000
0100
0000
0000
0001
0000
,
0000
1000
0000
0000
0002
0000
0000
0003
,
0000
0000
1000
0000
0000
0001
0000
0000
,
1000
0000
0000
0001
0000
0000
0100
0000
,
0000
0010
0000
0000
2002
0000
0000
3003
,
0000
0000
1000
0000
0000
0100
0000
0000
,
0010
0000
0000
0001
0000
0000
2000
0000
,
0000
3000
0000
0000
0002
0000
0000
0003
,
0000
0000
1000
0000
0000
0001
0000
0000
,
1000
0000
0000
0001
0000
0000
0000
0010
;

//---------------dance-single - ----------------
#NOTES:
     dance-single:
     :
     Medium:
     7:
     0.220,0.244,0.043,0.107,0.011:
0000
0000
0000
0000
,
0000
0000
0000
0000
,
0000
0000
0000
0000
,
0000
0000
0000
0000
,
0000
0000
0000
0000
,
0000
0000
0000
0000
,
0000
0000
0000
0000
,
0000
0000
0010
0000
0000
0010
0000
0000
,
1000
0001
1000
0001
0000
0000
0100
0000
,
0000
0100
0000
0000
0001
1000
0001
1000
,
0000
0000
0010
0000
0000
0010
0000
0000
,
1000
0001
1000
0001
0000
0000
0100
0000
,
0000
0100
0000
0000
0001
1000
0001
1000
,
0000
0000
0000
0001
0001
0000
1000
1000
,
0000
0001
0001
0000
0100
0100
0000
0001
,
0001
0000
1000
1000
0000
0001
0001
0000
,
0010
0010
0000
0001
0001
0000
1000
1000
,
0000
0001
0001
0000
0100
0000
0010
0000
,
0000
0100
0000
0000
2002
0000
0000
3003
,
0000
0000
1000
0000
0000
1000
0000
0000
,
0001
1000
0001
1000
0000
0000
0001
0000
,
0000
0001
0000
0000
1000
0001
1000
0001
,
0000
0000
1000
0000
0000
0010
0000
0000
,
0100
0010
0100
0010
0000
0000
0001
0000
,
0000
0010
0000
0000
0100
0000
0000
1000
,
0000
0000
0001
0000
0001
1000
0000
1000
,
0001
1000
0001
1000
0000
0000
1000
0000
,
1000
0001
0000
0001
1000
0001
1000
0001
,
0000
0000
0100
0000
0000
0001
0000
0000
,
1000
0001
1000
0001
0000
0000
0100
0000
,
0000
0010
0000
0000
0100
0010
0100
0010
,
0000
0000
1000
0000
0000
0100
0000
0000
,
0010
0000
0000
0001
0000
0000
0100
0000
,
0000
0010
0000
0000
2002
0000
0000
3003
,
0000
0000
0001
0000
0000
0100
0000
0000
,
0010
0000
0000
1000
0000
0000
0010
0000
,
0000
0100
0000
0000
2002
0000
0000
3003
,
0000
0000
0000
0001
0001
1000
0000
0010
,
0100
0000
0010
0100
0000
0000
0000
1000
,
0001
1000
0000
0000
2002
0000
0000
3003
,
0000
0000
0000
1000
1000
0001
0000
0100
,
0010
0000
0000
0000
0100
0000
0010
0000
0000
0000
0000
0000
1000
0000
0000
1000
,
0000
0000
0001
0000
0000
0001
0000
0000
2002
0000
0000
0000
0000
0000
3003
0000
,
0000
0000
0000
0100
0100
0010
0000
1000
,
0001
0000
1000
0001
0000
0000
0000
0100
,
0010
0000
0100
0000
0000
0100
0000
0000
0200
0000
0000
0000
0000
0000
0300
0000
,
0000
0000
0001
0010
0100
1000
0000
0000
,
0001
0010
0100
1000
0000
0000
0002
0000
,
0000
0203
0000
0000
2300
0000
0000
3000
,
0000
0000
0000
0001
0001
0000
1000
1000
,
0000
0001
0001
0000
1000
0000
0001
0000
,
0100
0001
0000
1000
0002
0000
0000
0003
,
0000
0000
1000
0000
0000
1000
0000
0000
,
0001
0000
0000
0001
0000
0100
0010
0000
,
0000
1000
0000
0000
0001
0000
0000
1000
,
0000
0000
0001
0001
0001
1000
1000
1000
,
0001
1000
0001
1000
0001
1000
0000
1001
;

//---------------dance-single - ----------------
#NOTES:
     dance-single:
     :
     Beginner:
     1:
     0.083,0.102,0.000,0.021,0.000: // measure 1
0000
0000
0000
0000
,  // measure 2
0000
0000
0000
0000
,  // measure 3
0000
0000
0000
0000
,  // measure 4
0000
0000
0000
0000
,  // measure 5
0000
0000
0000
0000
,  // measure 6
0000
0000
0000
0000
,  // measure 7
0000
0000
0000
0000
,  // measure 8
0000
0010
0000
0000
,  // measure 9
0010
0000
0000
0010
,  // measure 10
0000
0000
0010
0000
,  // measure 11
0000
0100
0000
0000
,  // measure 12
0100
0000
0000
0100
,  // measure 13
0000
0000
0100
0000
,  // measure 14
0000
1000
0000
0000
,  // measure 15
0001
0000
0000
1000
,  // measure 16
0000
0000
0001
0000
,  // measure 17
0000
0010
0000
0000
,  // measure 18
0100
0000
0000
0010
,  // measure 19
0000
0000
0100
0000
,  // measure 20
0000
0001
0000
0000
,  // measure 21
0001
0000
0000
0001
,  // measure 22
0000
0000
0001
0000
,  // measure 23
0000
1000
0000
0000
,  // measure 24
1000
0000
0000
1000
,  // measure 25
0000
0000
1000
0000
,  // measure 26
0000
0000
0010
0000
0000
0010
0000
0000
,  // measure 27
0010
0000
0000
0100
,  // measure 28
0000
0100
0000
0000
0100
0000
0000
0000
,  // measure 29
0000
0000
0010
0000
0000
0010
0000
0000
,  // measure 30
0010
0000
0000
0100
,  // measure 31
0000
0100
0000
0000
0100
0000
0000
0000
,  // measure 32
0000
0001
0000
0000
,  // measure 33
1000
0000
0000
0001
,  // measure 34
0000
0000
0000
0000
1000
0000
0000
1000
,  // measure 35
0000
1000
0000
0000
,  // measure 36
0001
0000
0000
1000
,  // measure 37
0000
1000
0000
0000
2000
0000
0000
3000
,  // measure 38
0000
0010
0000
0000
,  // measure 39
0100
0000
0000
0010
,  // measure 40
0000
0010
0000
0000
0010
0000
0000
0000
,  // measure 41
0000
1000
0000
0000
,  // measure 42
0001
0000
0000
1000
,  // measure 43
0000
1000
0000
0000
2000
0000
0000
3000
,  // measure 44
0000
0001
0000
0000
,  // measure 45
1000
0000
0000
0001
,  // measure 46
0000
0001
0000
0000
0001
0000
0000
0000
,  // measure 47
0000
0100
0000
0000
,  // measure 48
0010
0000
0000
0100
,  // measure 49
0000
0100
0000
0000
0200
0000
0000
0300
,  // measure 50
0000
0001
0000
0000
,  // measure 51
1000
0000
0000
0001
,  // measure 52
0000
0000
1000
0000
,  // measure 53
0000
0001
0000
0000
,  // measure 54
0000
0000
0000
1000
,  // measure 55
0000
0000
0001
0000
,  // measure 56
0000
0000
1000
0000
0000
1000
0000
0000
,  // measure 57
0001
0000
0000
0001
0000
0000
0000
0001
;
