#TITLE:FOREVER SUMMER NIGHT;
#SUBTITLE:;
#ARTIST:T.D.;
#TITLETRANSLIT:;
#SUBTITLETRANSLIT:;
#ARTISTTRANSLIT:;
#GENRE:;
#CREDIT:;
#BANNER:FOREVER SUMMER NIGHT.png;
#BACKGROUND:FOREVER SUMMER NIGHT-bg.png;
#LYRICSPATH:;
#CDTITLE:;
#MUSIC:FOREVER SUMMER NIGHT.ogg;
#OFFSET:-0.040000;
#SAMPLESTART:59.534893;
#SAMPLELENGTH:12.651554;
#SELECTABLE:YES;
#DISPLAYBPM:80.000000:190.000000;
#BPMS:0.000000=190.000000
,60.000000=189.199997
,64.000000=189.500000
,108.000000=189.000000
,146.000000=189.699997
,188.000000=189.399994
,191.000000=180.000000
,192.000000=189.000000
,228.000000=189.600006
,256.000000=189.399994
,328.000000=79.800003
;
#STOPS:
;
#BGCHANGES:;
#KEYSOUNDS:;
#ATTACKS:;

//---------------dance-single - ----------------
#NOTES:
     dance-single:
     :
     Hard:
     14:
     0.671640,0.811328,0.405449,0.163905,0.250170,545.000000,498.000000,47.000000,19.000000,0.000000,0.000000,0.671640,0.811328,0.405449,0.163905,0.250170,545.000000,498.000000,47.000000,19.000000,0.000000,0.000000:
0000
0000
0000
0000
,
0000
0000
0000
0000
,
0000
0000
0000
0000
,
0000
0000
0000
0000
,
0000
0000
0000
0000
,
0000
0000
0000
0000
,
0000
0000
0000
0000
,
0000
0000
0000
0000
,
1000
0001
1000
0000
0010
0000
0100
0000
,
0001
1000
0001
0000
0100
0000
0010
0000
,
1000
0100
1000
0000
0010
0000
0001
0000
,
0100
0001
0100
0000
0010
0000
1000
0000
,
0010
0100
0010
0000
1000
0000
0100
0000
,
0010
0001
0010
0000
0001
0000
0100
0000
,
0010
0100
0010
0000
1000
0000
0010
0000
,
0100
0000
0000
0001
0000
0000
0001
0000
1000
0000
0000
0001
0000
0000
0100
0000
,
0001
0000
0010
0000
0001
0000
0010
0000
0001
0000
1000
0000
0001
1000
0001
0000
,
0001
0000
0100
0000
0001
0000
0100
0000
0010
0000
0100
0000
0010
0100
0010
0000
,
0010
0000
1000
0000
0001
0000
1000
0000
0001
0000
1000
0000
0100
1000
0100
0000
,
0100
0000
1000
0000
0001
0000
1000
0000
0100
0000
1000
0000
0001
1000
0001
0000
,
0001
0000
0010
0100
0000
0001
0100
0000
,
1000
0010
0000
0100
0010
0000
0110
0000
,
1001
0000
1000
0100
0000
0010
0100
0000
,
0001
0010
0000
0100
0010
0000
0110
0000
,
1001
0000
0001
0100
0000
0001
0010
0000
,
0001
0100
0000
0010
1000
0000
1010
0000
,
0101
0000
0100
0010
1000
0001
0100
0000
,
1010
0000
0101
0000
1010
0000
1000
0001
,
0010
0000
0001
0000
1000
0000
0001
0100
0000
0100
0001
0000
1000
0000
0010
0000
,
0100
0010
0100
0000
0010
0100
0010
0000
1000
0001
1000
0000
0001
0000
0000
0000
,
1001
0200
0302
2003
,
3010
0010
0000
2002
0000
0000
3003
0000
,
1001
2000
3002
0203
,
0310
0000
0010
0000
0000
0000
2200
0000
0000
0000
3300
0000
0000
0000
0001
0100
,
0001
0100
0010
1000
0010
0100
0001
1000
,
0001
0100
0100
0001
1000
0000
1001
0000
,
1000
0010
0100
0001
0100
0010
1000
0001
,
1000
0100
0100
0000
0101
0000
1001
0000
,
0110
2000
3020
0031
,
0110
0002
0023
1030
,
1001
1100
0101
1100
,
1001
0011
1010
0011
,
1000
0010
1000
0010
0100
0001
0100
0001
,
1000
0010
1000
0010
0100
0001
0100
0001
,
1000
0001
1000
0000
0001
0000
0100
0000
0001
1000
0001
0000
0200
0000
0000
0000
,
0301
0000
0000
0001
0000
0000
1000
0000
0001
0000
0000
0001
0000
0000
1000
0000
,
0001
0000
0100
0000
0010
0000
0100
0001
0100
0000
0010
0000
0110
0000
0000
0000
,
0010
0000
0000
0010
0000
0000
1000
0000
0000
0001
0000
0000
0100
0000
0010
0000
,
1000
1100
0101
1100
,
0001
0100
0001
0100
0010
0000
1001
0000
,
0100
0101
1100
0101
,
1000
0000
0010
0000
0100
0000
0010
0000
1000
0000
0000
0000
0001
0000
0100
0001
,
0100
0010
0100
0010
0100
0010
0000
1001
,
0000
1000
0100
0000
0110
0000
1001
0000
,
0001
0100
0001
0100
0010
0100
0000
1001
,
0000
0000
1000
0000
0100
0000
0000
0000
0010
0000
0000
0001
0000
0000
0100
0000
,
0010
1010
1010
1001
,
0001
0100
0010
0100
0000
0001
1000
0001
,
0000
0100
1000
0000
0001
0000
0100
0001
,
0100
0000
1001
0000
0010
1000
0000
0110
,
0000
1000
0010
0000
1000
0001
0100
0001
,
0000
1000
0010
0000
1000
0001
0100
0001
,
0100
0010
0100
0010
1000
0001
1000
0001
,
1000
0100
1000
0100
0010
0001
0100
0010
,
1000
0000
0001
0000
1000
0000
0001
0000
1000
0010
1000
0000
0010
0000
1000
0000
,
0001
0000
0100
0000
0001
0000
0100
0000
0001
0100
0001
0000
0100
0000
0010
0000
,
1000
0000
0001
1000
0001
0000
1000
0001
1000
0000
0010
0000
0100
0000
0010
0000
,
1000
0000
0100
1000
0100
0000
1000
0000
0010
0000
0100
0000
0001
0100
0001
0100
,
0001
0000
0000
0100
0000
0000
0010
0000
0010
0000
0000
1000
0000
0000
0010
0000
,
0010
0000
0000
0100
0000
0000
0001
0000
0001
0000
0000
1000
0000
0000
0010
0000
,
0010
0000
0000
1000
0000
0000
0001
0000
0001
0000
0100
0001
0100
0000
0001
0100
,
0001
0000
0100
0001
0100
0000
1001
0000
,
1000
0010
0100
0001
0000
0100
0010
1000
,
0000
0001
0100
0010
1000
0010
0100
0001
,
0000
0000
1000
0000
0001
0000
0001
0000
1000
0000
0010
1000
0010
0000
1000
0000
,
0100
0000
1000
0000
0010
0000
0100
0000
0001
0000
0100
0000
0010
1000
0010
1000
,
0010
0000
0000
0010
0000
0000
0100
0000
0001
0000
0000
0000
0001
0000
1000
0001
,
1000
0000
0000
1000
0000
0000
0010
0000
0010
0000
0000
0000
0100
0000
0001
1000
,
0001
0000
0000
1000
0000
0000
0010
0000
0010
0000
0000
1000
0000
0000
0001
0100
,
0001
0000
0000
0001
0000
0000
1000
0010
1000
0000
0000
0001
0000
0000
0100
0001
,
0100
0010
0100
0010
1000
0001
1000
0001
,
1000
0100
0010
0001
0100
0000
0110
0000
,
1001
0000
0000
0100
0000
0000
0010
0000
0000
0001
0000
0000
1000
0000
0010
0000
0000
0100
0000
0000
0000
0000
0000
0000
,
0002
0000
0000
0003
0000
0000
0020
0000
0000
0030
0000
0000
0200
0000
0000
0300
0000
0000
1000
0000
0000
0001
0000
1000
,
0002
0000
0000
0000
0000
0000
0003
0000
0100
0010
0000
1000
0000
0000
0001
0000
0000
1000
0000
0000
0001
0100
0000
0010
,
0000
0000
1001
0000
;

//---------------dance-single - ----------------
#NOTES:
     dance-single:
     :
     Medium:
     10:
     0.462137,0.553178,0.172531,0.232917,0.043133,375.000000,355.000000,20.000000,27.000000,0.000000,0.000000,0.462137,0.553178,0.172531,0.232917,0.043133,375.000000,355.000000,20.000000,27.000000,0.000000,0.000000:
0000
0000
0000
0000
,
0000
0000
0000
0000
,
0000
0000
0000
0000
,
0000
0000
0000
0000
,
0000
0000
0000
0000
,
0000
0000
0000
0000
,
0000
0000
0000
0000
,
0000
0000
0000
0000
,
0010
0010
1000
0001
,
0010
0010
0001
1000
,
0100
0100
1000
0001
,
0100
0001
1000
0001
,
1000
0100
1000
0100
,
0001
0100
0001
0100
,
1000
0001
1000
0001
,
0200
0300
0020
0030
,
1000
0000
0001
0000
1000
0100
1000
0000
,
0001
0000
1000
0000
0001
0100
0001
0000
,
1000
0001
1000
0000
0001
1000
0001
0000
,
1000
0010
1000
0000
0001
0000
0100
0000
,
0001
0000
0010
0001
0000
0010
0001
0000
,
0010
0001
0000
0010
0001
0000
0100
0000
,
0100
0000
0001
1000
0000
0001
1000
0000
,
0001
1000
0000
0001
1000
0000
0010
0000
,
1000
0000
0100
1000
0000
0100
1000
0000
,
0100
1000
0000
0100
1000
0000
0001
0000
,
0100
0000
0001
0100
0000
0001
0100
0000
,
0010
1000
0100
0001
,
2002
0000
0000
3003
,
0020
2030
3100
1001
,
0010
1000
0100
1000
,
0001
1000
0000
0002
0000
0000
0003
0000
,
0000
0100
0010
1000
,
0001
0100
0000
0002
0000
0000
0003
0000
,
1000
0000
0010
0000
0100
0001
0000
0100
,
0000
0010
1000
0000
0010
0000
0010
0000
,
1000
0000
0100
0000
1000
0001
0000
1000
,
0000
0001
0100
0000
0010
0000
0010
0000
,
1001
1000
0100
0001
,
1001
0001
0100
1000
,
1001
1000
0010
0001
,
1001
0001
0010
1000
,
0010
1000
0010
0000
1000
0010
1000
0000
,
0001
0100
0001
0000
0100
0001
0100
0000
,
0010
0100
0010
0100
0010
0100
0010
0000
,
1000
0000
0000
1000
0000
0000
1000
0000
0001
0000
0000
0001
0000
0000
0001
0000
,
1001
0000
1000
0000
0001
1000
0001
0000
,
1000
0000
0000
0001
0000
0000
0100
0000
0000
0001
0000
0000
1000
0000
0001
0000
,
1000
0000
0010
1000
0010
0000
0100
0000
,
0001
0100
0001
0100
0010
0000
1000
0000
,
0001
0000
1000
0001
1000
0000
0010
0000
,
1000
0100
1000
0100
1000
0000
0010
0000
,
0100
0001
0100
0001
0100
0001
0000
1000
,
0000
0010
0100
0000
0010
0000
0010
0000
,
1000
0100
1000
0100
1000
0100
0000
1000
,
0000
0010
0100
0000
0001
0000
1001
0000
,
1000
0000
0010
0000
0100
0000
0001
0100
,
0001
0100
0000
0010
0000
1000
0100
1000
,
0000
0010
0100
0000
0001
0000
1000
0100
,
1000
0000
0010
0000
0100
0001
0000
1000
,
0000
0001
0100
0001
0100
0000
0010
0010
,
0000
1000
0010
1000
0010
0000
0100
0000
,
0000
0001
1000
0001
1000
0000
0010
0010
,
0000
1000
0001
1000
0001
0000
1000
0000
,
0100
0000
1000
0100
0000
0000
1000
0010
,
0000
0000
0100
0001
0000
0000
0010
0001
,
0000
0100
0001
0000
0100
0000
0010
0000
,
1000
0010
1000
0010
0000
0000
0100
0000
,
2002
3003
0220
0330
,
2200
3300
0022
0033
,
2020
3030
0101
1100
,
0002
0000
0003
0100
0010
0000
0100
0000
,
1000
0000
0001
1000
0000
0000
0010
0100
,
0000
0000
0001
1000
0000
0000
0010
0100
,
0000
0010
1000
0010
1000
0000
0001
0000
,
0100
0000
0010
0000
1000
0100
1000
0000
,
0001
0000
0000
0100
0000
0000
0100
0000
0100
0000
0000
0000
0010
0000
0000
0000
,
1000
0000
0000
0010
0000
0000
0010
0000
0010
0000
0000
0000
0100
0000
0000
0000
,
1001
0000
0000
1000
0000
0000
0000
0000
0101
0000
0000
0001
0000
0000
0000
0000
,
1000
0000
0000
0001
0000
0000
0000
0000
0100
0000
0000
0010
0000
0000
1000
0000
,
0001
0000
1000
0000
0001
0100
0001
0100
,
0010
0010
0010
0110
,
1002
0103
0020
1030
,
2000
3100
0020
0031
,
0200
0000
0302
2003
,
3020
0030
1001
0000
;

//---------------dance-single - ----------------
#NOTES:
     dance-single:
     :
     Easy:
     7:
     0.348760,0.663814,0.276050,0.250170,0.000000,283.000000,251.000000,32.000000,29.000000,0.000000,0.000000,0.348760,0.663814,0.276050,0.250170,0.000000,283.000000,251.000000,32.000000,29.000000,0.000000,0.000000:
// measure 0
0000
0000
0000
0000
,  // measure 1
0000
0000
0000
0000
,  // measure 2
0000
0000
0000
0000
,  // measure 3
0000
0000
0000
0000
,  // measure 4
0000
0000
0000
0000
,  // measure 5
0000
0000
0000
0000
,  // measure 6
0000
0000
0000
0000
,  // measure 7
0000
0000
0000
0000
,  // measure 8
0010
1000
0010
1000
,  // measure 9
0010
1000
0010
0100
,  // measure 10
0001
0100
0001
0100
,  // measure 11
0001
0100
0001
1000
,  // measure 12
0100
1000
0100
1000
,  // measure 13
0001
0100
0001
0100
,  // measure 14
0010
0100
0010
0100
,  // measure 15
0020
0030
0200
0300
,  // measure 16
0001
0001
0001
0001
,  // measure 17
1000
1000
1000
1000
,  // measure 18
0001
0001
1000
1000
,  // measure 19
0001
1000
0001
1000
,  // measure 20
0010
0000
0000
1000
0000
0000
0100
0000
,  // measure 21
0000
1000
0000
0000
0010
0000
0001
0000
,  // measure 22
0100
0000
0000
0001
0000
0000
0010
0000
,  // measure 23
0000
0001
0000
0000
0100
0000
1000
0000
,  // measure 24
0010
0000
0000
1000
0000
0000
0100
0000
,  // measure 25
0000
0001
0000
0000
0100
0000
1000
0000
,  // measure 26
0010
0000
0000
0001
0000
0000
0100
0000
,  // measure 27
1000
1000
0001
0001
,  // measure 28
0002
0000
0000
0003
,  // measure 29
0100
0010
0100
0000
,  // measure 30
0001
1000
0100
0100
,  // measure 31
1000
0000
0000
0001
0000
0000
0000
0000
,  // measure 32
1000
0001
0100
0100
,  // measure 33
0001
0000
0000
1000
0000
0000
0000
0000
,  // measure 34
0010
0000
0010
0000
1000
0000
0000
0001
,  // measure 35
0000
0100
0010
0000
,  // measure 36
0100
0000
0100
0000
0001
0000
0000
1000
,  // measure 37
0000
0001
0010
0000
,  // measure 38
1000
0100
0001
0000
,  // measure 39
0001
0100
1000
0000
,  // measure 40
1000
0010
0001
0000
,  // measure 41
0001
0010
1000
0000
,  // measure 42
0110
0110
0110
0110
,  // measure 43
1001
1001
1001
1001
,  // measure 44
0110
0110
1001
1001
,  // measure 45
0020
0030
0200
0300
,  // measure 46
2002
0000
0000
3003
,  // measure 47
0020
0000
0000
0000
0000
0030
0000
0000
,  // measure 48
0000
0001
0100
1000
,  // measure 49
0001
1000
0000
0001
0000
0000
0000
0000
,  // measure 50
0000
1000
0100
0001
,  // measure 51
1000
0001
0000
1000
0000
0000
0000
0000
,  // measure 52
0001
0100
0010
1000
,  // measure 53
0010
0100
0001
1001
,  // measure 54
1000
0010
0100
0001
,  // measure 55
0100
0010
1000
1001
,  // measure 56
0000
0010
0010
0010
,  // measure 57
1000
0100
0000
1001
0000
0000
0000
0000
,  // measure 58
0000
0010
0010
0010
,  // measure 59
0001
0100
1001
0000
,  // measure 60
1000
0010
1000
0100
,  // measure 61
0000
0010
0001
0100
,  // measure 62
0000
0000
0001
0000
1000
0000
0001
0100
,  // measure 63
0000
0010
0010
0000
,  // measure 64
1000
1000
0000
0001
,  // measure 65
0000
1100
0000
0011
,  // measure 66
0000
1000
0010
0000
0100
0000
0001
0000
,  // measure 67
0100
0010
0100
0010
0000
0000
1001
0000
,  // measure 68
2100
3000
0002
0003
,  // measure 69
0200
0300
0020
0030
,  // measure 70
2010
3000
0002
0003
,  // measure 71
1100
0000
0011
1001
,  // measure 72
1000
0000
0010
0100
0000
0000
0010
0100
,  // measure 73
0000
0001
0100
0010
0000
0000
0100
0010
,  // measure 74
0000
1000
0010
0000
1000
0000
0001
0000
,  // measure 75
0100
0000
0010
0000
1000
0100
1000
0000
,  // measure 76
0002
0003
1001
1000
,  // measure 77
2000
3000
0010
0110
,  // measure 78
0200
0300
2002
3003
,  // measure 79
0010
1010
1000
1001
,  // measure 80
0001
0000
0100
0000
0010
1000
0010
0000
,  // measure 81
0200
0000
0000
0300
,  // measure 82
0002
0000
2003
0000
,  // measure 83
3020
0000
0230
0000
0302
0000
1003
0010
,  // measure 84
0200
0000
0000
0300
0002
0000
0000
0003
,  // measure 85
2002
0000
0000
3003
1001
0000
0000
0000
;

//---------------dance-single - ----------------
#NOTES:
     dance-single:
     :
     Beginner:
     5:
     0.239079,0.331907,0.060386,0.060386,0.000000,194.000000,187.000000,7.000000,7.000000,0.000000,0.000000,0.239079,0.331907,0.060386,0.060386,0.000000,194.000000,187.000000,7.000000,7.000000,0.000000,0.000000:
// measure 0
0000
0000
0000
0000
,  // measure 1
0000
0000
0000
0000
,  // measure 2
0000
0000
0000
0000
,  // measure 3
0000
0000
0000
0000
,  // measure 4
0000
0000
0000
0000
,  // measure 5
0000
0000
0000
0000
,  // measure 6
0000
0000
0000
0000
,  // measure 7
0000
0000
0000
0000
,  // measure 8
0010
0000
0010
0000
,  // measure 9
0010
0000
0010
0000
,  // measure 10
0100
0000
0100
0000
,  // measure 11
0100
0000
0100
0000
,  // measure 12
0001
0000
0001
0000
,  // measure 13
1000
0000
1000
0000
,  // measure 14
0001
0000
1000
0000
,  // measure 15
0001
0000
1000
0000
,  // measure 16
0001
0001
0001
0000
,  // measure 17
1000
1000
1000
0000
,  // measure 18
0001
0001
0001
0000
,  // measure 19
1000
1000
1000
0000
,  // measure 20
1000
0000
0000
1000
0000
0000
1000
0000
,  // measure 21
0000
1000
0000
0000
0010
0000
0000
0000
,  // measure 22
0001
0000
0000
0001
0000
0000
0001
0000
,  // measure 23
0000
0001
0000
0000
0010
0000
0000
0000
,  // measure 24
1000
0000
0000
1000
0000
0000
0001
0000
,  // measure 25
0000
0001
0000
0000
0100
0000
0000
0000
,  // measure 26
0001
0000
0000
0001
0000
0000
1000
0000
,  // measure 27
1000
0000
0001
0000
,  // measure 28
2002
0000
0000
3003
,  // measure 29
0100
0100
0100
0000
,  // measure 30
0000
1000
1000
1000
,  // measure 31
1000
0000
0000
0001
0000
0000
0000
0000
,  // measure 32
0000
0001
0001
0001
,  // measure 33
0001
0000
0000
1000
0000
0000
0000
0000
,  // measure 34
0010
0000
0000
0000
0010
0000
0000
1000
,  // measure 35
0000
0100
0100
0000
,  // measure 36
0010
0000
0000
0000
0010
0000
0000
0001
,  // measure 37
0000
0100
0100
0000
,  // measure 38
1000
1000
0001
0000
,  // measure 39
0001
0001
1000
0000
,  // measure 40
1000
1000
0001
0000
,  // measure 41
0001
0001
1000
0000
,  // measure 42
0110
0000
0110
0000
,  // measure 43
1001
0000
1001
0000
,  // measure 44
0010
0010
0010
0000
,  // measure 45
0020
0030
0200
0300
,  // measure 46
2002
0000
0000
3003
,  // measure 47
0020
0000
0000
0000
0000
0030
0000
0000
,  // measure 48
0000
0001
0001
0001
,  // measure 49
0100
0000
0000
0100
0000
0000
0000
0000
,  // measure 50
0000
1000
1000
1000
,  // measure 51
1000
0000
0000
0100
0000
0000
0000
0000
,  // measure 52
0001
0000
0001
0000
,  // measure 53
0100
0100
0100
0000
,  // measure 54
1000
0000
1000
0000
,  // measure 55
0100
0100
0100
0100
,  // measure 56
0000
0010
0010
0010
,  // measure 57
0100
0000
0000
0100
0000
0000
0000
0000
,  // measure 58
0000
0100
0100
0100
,  // measure 59
0010
0000
0010
0000
,  // measure 60
0000
0010
0010
0010
,  // measure 61
0000
0100
0100
0100
,  // measure 62
0000
0001
0001
0001
,  // measure 63
0000
1000
1000
0000
,  // measure 64
0001
0001
0000
1000
,  // measure 65
0000
0001
0000
1000
,  // measure 66
0000
0001
0001
0001
,  // measure 67
1000
1000
0000
0010
,  // measure 68
0010
0000
0100
0000
,  // measure 69
1000
0000
0001
0000
,  // measure 70
0010
0000
0100
0000
,  // measure 71
1000
0001
1000
0000
,  // measure 72
1000
0010
0000
0010
,  // measure 73
0000
0100
0000
0100
,  // measure 74
0000
0010
0000
0010
,  // measure 75
0010
0000
1000
0000
,  // measure 76
0001
0000
0010
0000
,  // measure 77
1000
0000
0010
0000
,  // measure 78
0100
0000
0100
0000
,  // measure 79
0010
0010
0010
0010
,  // measure 80
0010
0000
0000
0000
,  // measure 81
0100
0000
0000
0000
,  // measure 82
0001
0000
0000
0000
,  // measure 83
0010
0010
0010
0010
,  // measure 84
0100
0000
0001
0000
,  // measure 85
0010
0000
1001
0000
;
