#TITLE:FIRE BALL;
#SUBTITLE:;
#ARTIST:BEMANI Sound Team "RACER-X";
#TITLETRANSLIT:;
#SUBTITLETRANSLIT:;
#ARTISTTRANSLIT:;
#CREDIT:;
#BANNER:FIRE BALL.png;
#BACKGROUND:FIRE BALL-bg.png;
#LYRICSPATH:;
#CDTITLE:./CDTITLES/Reflec beat colette.png;
#MUSIC:FIRE BALL.ogg;
#OFFSET:-0.040;
#SAMPLESTART:66.395;
#SAMPLELENGTH:15.000;
#SELECTABLE:YES;
#DISPLAYBPM:188.000;
#BPMS:0.000=188.000,202.000=94.000,204.000=188.000;
#STOPS:169.500=0.640
,201.750=1.275
;
#BGCHANGES:0.000=FIRE BALL.avi=1.000=0=0=0,
99999=-nosongbg-=1.000=0=0=0 // don't automatically add -songbackground-
;

//---------------dance-single - ----------------
#NOTES:
     dance-single:
     :
     Hard:
     15:
     0.806,0.867,0.155,0.271,0.454:
0000
0000
0000
0000
,
0000
0000
0000
0000
,
0000
0000
0000
0000
,
0000
0000
0000
0000
,
0000
0000
0000
0000
,
0010
1000
0000
1100
0000
0101
0000
1100
,
0000
0010
0000
0010
0000
1000
0001
0000
,
0010
0001
0000
0011
0000
1100
0000
0101
,
0000
0010
0000
1000
0002
0000
0003
0000
,
1000
0000
0010
0000
1000
0000
0001
0100
0010
0100
0001
0000
1000
0000
0010
0000
,
1000
0000
0100
0000
1000
0000
0001
0100
0001
0100
0010
0000
0100
0000
0001
0000
,
1000
0000
0100
0000
1000
0000
0010
0100
0010
0100
0010
0000
1000
0000
0100
0000
,
1000
0000
0001
0000
0100
0000
0010
0100
0010
0100
0010
0000
2000
0000
0000
0000
,
3001
0000
0100
0000
0010
0000
1000
0100
1000
0100
1000
0000
0010
0000
0100
0000
,
0001
0000
1000
0000
0100
0000
1000
0001
1000
0001
1000
0000
0010
0000
0100
0000
,
0001
0000
0010
0000
0001
0000
0100
0001
0100
0000
0010
0000
1000
0000
0100
1000
,
0100
0000
1000
0000
0010
0000
0100
0000
0001
0100
0001
0000
1000
0010
1000
0000
,
0002
0000
0000
0003
,
2000
0000
0000
3000
,
1002
0000
0100
0100
0000
1000
0000
0010
,
0000
1000
0000
0100
0000
1003
0000
0001
,
1000
0200
0000
0000
1000
0000
1300
0000
,
0010
1000
0100
0000
0010
0001
0100
0002
,
0000
1003
0010
2000
0000
3001
0010
0002
,
0000
0103
0010
0200
0000
0301
0010
0002
,
0000
2000
0000
0000
0000
3003
0000
0000
,
0001
0010
0001
0000
0100
0010
0100
0000
0001
0100
0001
0000
1000
0010
1000
0000
,
0001
1000
0100
0010
0001
1000
0000
1001
,
0000
0001
0010
0100
1000
0001
1000
0010
,
2000
3020
0230
0302
,
0013
0001
0100
0000
0010
1000
0100
1000
,
0010
0000
0100
0001
1000
0001
0100
0010
,
1000
0010
1000
0001
1000
0010
0100
0001
,
0010
0001
0100
0000
0010
1000
0100
0000
,
1000
0010
0100
0001
0100
0010
1000
0001
,
2002
0000
0000
0000
,
3003
0000
0000
0000
,
0220
0000
0000
0000
,
0330
0000
0000
0000
,
0010
0000
1000
0000
0100
0000
1000
0100
1000
0000
0010
0000
0100
0000
0001
0000
,
0010
0000
0001
0000
0100
0000
0010
0100
0010
0000
1000
0000
0100
0000
1000
0000
,
0001
0000
0100
0000
0010
0000
0100
0010
1000
0000
0010
0000
1000
0000
0001
0010
,
0100
0000
0010
0000
1000
0000
0001
0000
1000
0000
0100
0000
1000
0000
0001
1000
,
0001
1000
0001
0000
0100
0000
0010
0000
1000
0000
0010
0000
0100
0000
0001
0010
,
0001
0010
0001
0000
0100
0000
0010
0000
1000
0000
0100
0000
1000
0000
0010
0100
,
0001
0100
0010
0000
1000
0000
0001
0000
1000
0000
0100
0000
1000
0000
0001
0010
,
0001
0100
0001
0000
0010
0001
0100
0000
0001
0000
0100
0000
0010
0000
1000
0010
,
0100
0010
1000
0000
0010
0000
0100
0000
0001
0000
1000
0000
0100
0000
1000
0001
,
0100
0001
1000
0000
0001
0000
0100
0000
0010
0000
1000
0000
0010
0000
0100
0001
,
0100
0001
0100
0000
0010
0000
1000
0000
0100
0010
0100
0000
0001
0100
0001
0000
,
1000
0100
1000
0000
0001
0010
0100
0000
0002
0000
0000
0000
2003
0000
0000
0000
,
3010
0000
0000
0000
1000
0100
1000
0000
0010
0000
0100
0001
0100
0000
0010
0000
,
1000
0100
1000
0000
0001
0000
0010
0001
0010
0000
0000
0000
1001
0000
0000
0000
,
0110
0000
0000
0000
1000
0100
1000
0000
1000
0000
0001
0100
0001
0000
0001
0000
,
1000
0010
1000
0000
1000
0000
0001
0010
0001
0000
0001
0000
0100
0000
0010
0000
,
1000
0000
0100
1000
0100
0000
1000
0000
0010
0100
0010
0000
1000
0000
0010
0100
,
0001
0000
0100
0000
0001
0010
0001
0000
0100
0000
0010
0000
1000
0000
0010
0000
,
0100
0000
0001
0100
0010
0000
0100
0000
0001
1000
0010
0000
1000
0000
0001
0100
,
0010
0000
1000
0000
0010
1000
0100
0000
1000
0000
0010
0100
0010
0000
1000
0100
,
1000
0000
0001
0000
0100
0000
1000
0000
0100
0000
0001
0100
0001
0000
0100
0000
,
0010
0000
1000
0000
0100
0000
1000
0010
1000
0000
0010
0000
0001
0000
0010
0000
,
1000
0000
0010
0000
0100
0000
0001
0000
0100
0000
1000
0000
0100
0010
0100
0000
,
0001
0000
0100
0000
0010
0000
1000
0000
0010
0000
0100
0001
1000
0000
1000
0001
,
0010
0000
0001
0010
0100
0000
1000
0000
0010
0100
0001
0000
0100
0000
0010
1000
,
0100
0000
1000
0000
0010
0100
0001
0000
0100
0000
0010
1000
0100
0000
1000
0001
,
0100
0000
0010
0000
1000
0001
0100
0000
1000
0000
0001
1000
0100
0000
1000
0000
,
0010
0100
0010
0000
1000
0100
1000
0000
0001
0100
0001
0000
1000
0001
1000
0000
,
2001
0001
0001
3001
,
0210
0010
0001
0301
,
0012
0010
0100
0103
,
2100
0100
0001
3001
,
1000
0100
1000
0000
0001
0000
0100
0010
0100
0001
0100
0000
0001
0000
1000
0100
,
1000
0000
0010
0000
0100
0000
0001
0010
0100
0010
0001
0000
1000
0100
0010
0100
,
1000
0000
0010
0000
1000
0000
0001
0010
0100
0000
1000
0000
0001
0000
1000
0010
,
0100
0000
1000
0001
0100
0000
0010
0100
0001
0100
0010
0100
0001
0010
0100
2000
,
0002
0000
0000
0000
,
0000
0000
0000
0000
,
0000
0000
0000
0000
,
3003
0000
0000
0000
;

//---------------dance-single - ----------------
#NOTES:
     dance-single:
     :
     Medium:
     11:
     0.527,0.603,0.261,0.280,0.000:
0000
0000
0000
0000
,
0000
0000
0000
0000
,
0000
0000
0000
0000
,
0000
0000
0000
0000
,
0000
0000
0000
0000
,
0001
1000
0000
0110
0000
0110
0000
1001
,
0000
0000
0000
0000
,
0010
0100
0000
1001
0000
0110
0000
1001
,
0000
0000
2002
3003
,
0001
0010
0001
1000
0010
1000
0001
0010
,
0001
0100
0001
1000
0001
0010
0100
0000
,
1000
0100
1000
0010
0100
0010
1000
0100
,
1000
0001
0100
0010
1000
0010
1000
0000
,
0001
0010
0100
0000
1000
0100
0010
0000
,
0001
0100
1000
0000
1000
0010
1000
0000
,
0001
0010
0001
0000
1000
0100
1000
0000
,
0100
1000
0010
0100
0001
0001
1000
0000
,
0002
0000
0000
0003
,
2000
0000
0000
3000
,
1002
0000
0000
0010
0000
0100
0000
0010
,
0000
0100
0000
1000
0000
0103
0000
1001
,
0000
0220
0000
0000
0000
0000
0330
0000
,
0010
0000
1100
0000
1000
0001
1000
0002
,
0000
0000
1003
0020
0000
0000
1030
0002
,
0000
0000
0013
0200
0000
0000
1300
0002
,
0000
0100
0000
0103
,
0002
0000
2003
0000
,
3000
0010
0100
0010
0100
0010
0000
1001
,
0000
1000
0010
0000
0001
1000
0001
0000
,
2000
0000
3002
0000
,
1003
0100
0010
0001
,
0010
0000
1000
0001
1000
0001
1000
0000
,
0100
0010
0100
0000
0001
0100
0001
0100
,
0000
2002
0000
0000
0000
0000
0000
3003
,
0010
0000
0001
0000
0100
0010
1000
0000
,
2002
0000
0000
0000
,
3003
0000
0000
0000
,
0220
0000
0000
0000
,
0330
0000
0000
0000
,
0010
0001
0100
0000
0100
0010
0100
0000
,
0010
1000
0100
0000
0010
0001
0100
0000
,
0001
0100
0010
0000
0100
0010
1000
0000
,
0010
0000
0010
0000
0001
0100
0001
0000
,
1000
0000
0100
0000
0001
0010
0100
0000
,
1000
0000
0100
0000
0001
0100
0001
0000
,
1000
0000
0001
0000
1000
0100
1000
0000
,
0001
0000
0010
0000
0001
0100
0010
0000
,
0010
0000
0110
0000
0001
1000
0100
0000
,
0001
0000
1001
0000
0010
1000
0010
0000
,
0001
1000
0010
0000
0100
0010
0001
0000
,
1000
0100
0001
0000
0002
0000
2003
0000
,
3010
0000
0010
0100
0000
1000
0001
0000
,
0010
0100
0000
1000
0001
0000
1001
0000
,
0110
0000
1000
0100
0000
0010
0001
0000
,
1000
0010
0000
0100
0001
0000
1001
0000
,
1000
0000
0100
1000
0000
0010
1000
0000
,
0001
1000
0000
0010
0100
0000
1001
0000
,
0100
0000
0010
0100
0000
0001
1000
0000
,
0001
1000
0010
0000
1000
0001
0100
0000
,
0010
0000
1000
0100
0000
1000
0001
0000
,
1000
0100
0000
1000
0010
0100
0001
0000
,
0011
0000
0001
0100
0000
0001
1000
0000
,
0001
0010
0000
0001
0010
0100
1000
0000
,
1001
0000
1000
0100
0000
1000
0010
0000
,
1000
0100
0000
1000
0010
0100
0001
1000
,
1001
0000
0001
0010
0100
1000
0010
0000
,
0010
1000
0100
0010
0002
0000
1003
0000
,
2001
0001
0001
3001
,
0100
0100
1000
0010
,
1002
1000
1000
1003
,
0100
0100
0001
0010
,
1000
0001
1000
0000
1000
1000
1000
0000
,
0001
1000
0001
0000
0001
0001
0001
0000
,
1000
0100
0001
0000
1000
0100
0001
0000
,
0001
0010
0001
0010
1000
0100
1000
0000
,
2002
0000
0000
0000
,
0000
0000
0000
0000
,
0000
0000
0000
0000
,
3003
0000
0000
0000
;

//---------------dance-single - ----------------
#NOTES:
     dance-single:
     :
     Easy:
     8:
     0.409,0.603,0.532,0.242,0.000:
0000
0000
0000
0000
,
0000
0000
0000
0000
,
0000
0000
0000
0000
,
0000
0000
0000
0000
,
0000
0000
0000
0000
,
0001
1000
0000
0010
0000
0010
0000
1001
,
0000
0000
0000
0000
,
0001
1000
0000
0010
0000
0010
0000
1001
,
0000
0000
2002
3003
,
0001
0010
0100
1001
,
0010
0100
0001
1001
,
0010
0100
1000
1010
,
0100
0010
0001
0011
,
0001
0100
1000
1001
,
1000
0100
0001
1001
,
0001
0011
1000
1100
,
0010
1010
0100
0101
,
0002
0000
0000
0003
,
2000
0000
0000
3000
,
2002
0000
0000
3003
,
0000
0010
1000
0100
,
1000
0010
0001
0100
,
0010
0100
0010
0100
,
0001
1000
0010
1000
,
0001
0010
0100
1000
,
0001
0100
1000
0100
,
0002
0000
2003
0000
,
3000
0100
0100
1001
,
0000
0010
0010
1001
,
2000
0000
3002
0000
,
1003
0100
0010
1001
,
0010
1001
0001
1001
,
1000
1001
0100
0010
,
2002
0000
0000
0000
0000
0000
0000
3003
,
0010
0001
0100
1000
,
2002
0000
0000
0000
,
3003
0000
0000
0000
,
0220
0000
0000
0000
,
0330
0000
0000
0000
,
2000
3000
0001
1100
,
0002
0003
1000
0101
,
0020
0030
1000
0001
,
0110
0000
1000
0001
,
1000
0101
1000
0001
,
1000
0110
0001
1000
,
0001
1100
0001
0010
,
0100
0000
1001
0000
1000
1000
1000
0000
,
0001
0000
0100
0000
0001
0001
0001
0000
,
1000
0000
0100
0000
1000
0010
1000
0000
,
0001
0000
0100
0000
0001
0010
0001
0000
,
0100
0010
0002
2003
,
3010
0000
0000
1000
0000
0000
0100
0000
,
0000
1000
0000
0000
0001
0100
0001
0000
,
1000
0000
0000
0100
0000
0000
0001
0000
,
0000
0100
0000
0000
0001
1000
0001
0000
,
1000
0000
0000
0010
0000
0000
0001
0000
,
0000
0010
0000
0000
1000
0001
1000
0000
,
0001
0000
0000
0100
0000
0000
1000
0000
,
0000
0100
0000
0000
0001
0000
1001
0000
,
1000
0000
0000
0010
0000
0000
0100
0000
,
0000
0001
0000
0000
1100
0000
0101
0000
,
0001
0000
0000
0010
0000
0000
1000
0000
,
0000
0100
0000
0000
1010
0000
0101
0000
,
1001
0000
0000
0010
0000
0000
0100
0000
,
0000
1000
0000
0000
0101
0000
1100
0000
,
0001
0000
0000
0100
0000
0000
1000
0000
,
0000
0010
0000
0000
2002
0000
0000
0000
,
3003
0000
0000
0000
,
1001
0000
0000
0000
,
1001
0000
0000
0000
,
1001
0000
0000
0000
,
1000
1000
1010
1010
,
0001
0001
0011
0011
,
1010
1010
0011
0011
,
1010
0011
1010
0110
,
2002
0000
0000
0000
,
0000
0000
0000
0000
,
0000
0000
0000
0000
,
3003
0000
0000
0000
;

//---------------dance-single - ----------------
#NOTES:
     dance-single:
     :
     Beginner:
     5:
     0.221,0.302,0.116,0.106,0.000:
0000
0000
0000
0000
,
0000
0000
0000
0000
,
0000
0000
0000
0000
,
0000
0000
0000
0000
,
0000
0000
0000
0000
,
1001
0000
0000
0000
,
1000
0000
0000
0000
,
1001
0000
0000
0000
,
0001
0000
0000
0000
,
0000
0100
0000
0100
,
0000
0010
0000
0010
,
0000
0100
0000
0100
,
0000
0010
0000
0010
,
0000
1000
0000
0001
,
0000
1000
0000
0001
,
0000
0100
0000
0010
,
0000
0100
0000
0100
,
0100
0000
0000
0000
,
0001
0000
0000
0000
,
2002
0000
0000
0000
,
3003
0000
0000
0100
,
0000
0010
0000
0100
,
0000
0001
0001
0001
,
0000
0100
0000
0010
,
0000
1000
1000
1000
,
0000
0010
0000
0100
,
0200
0000
0000
0300
,
0000
0001
0000
1000
,
0000
0001
0000
1000
,
0000
0001
0001
0001
,
0000
1000
1000
1000
,
0000
0010
0000
0010
,
0000
0100
0000
0100
,
0000
2002
0000
0000
,
3003
0000
0000
0000
,
0110
0000
0000
0000
,
0000
0000
0000
0000
,
0002
0000
0000
0000
,
0003
0000
0000
0000
,
1000
0000
1000
0000
,
0001
0000
0001
0000
,
0100
0000
0100
0000
,
0020
0030
0000
0100
,
0000
0100
0000
0001
,
0000
0001
0000
1000
,
1000
1000
0000
0001
,
0001
0001
0000
0100
,
0000
1000
0000
0010
,
0000
0001
0000
0100
,
0100
0100
0000
0010
,
0010
0010
0000
0000
,
1001
0000
1000
0000
,
1000
1000
1000
0000
,
1001
0000
0001
0000
,
0001
0001
0001
0000
,
1001
0000
0100
0000
,
0010
0000
0100
0000
,
0001
0000
0100
0000
,
1000
0000
0100
0000
,
0001
0001
0001
0000
,
1000
1000
1000
0000
,
0010
0010
0010
0000
,
0100
0100
0100
0000
,
0001
0001
0001
0001
,
1000
1000
1000
1000
,
0010
0000
0010
0000
,
0100
0000
2002
0000
,
3003
0000
0000
0000
,
0000
0000
0000
0000
,
1001
0000
0000
0000
,
1001
0000
0000
0000
,
0010
0000
0010
0000
,
0100
0000
0100
0000
,
0010
0010
0010
0010
,
0100
0100
0100
0000
,
2002
0000
0000
0000
,
0000
0000
0000
0000
,
0000
0000
0000
0000
,
3003
0000
0000
0000
;

//---------------dance-double - ----------------
#NOTES:
     dance-double:
     :
     Easy:
     7:
     0.356,0.415,0.193,0.232,0.000:
00000000
00000000
00000000
00000000
,
00000000
00000000
00000000
00000000
,
00000000
00000000
00000000
00000000
,
00000000
00000000
00000000
00000000
,
00000000
00000000
00000000
00000000
,
00001000
00000000
00000000
00010000
00000000
00010000
00000000
00011000
,
00000000
00000000
00000000
00000000
,
00010000
00000000
00000000
00001000
00000000
00001000
00000000
00011000
,
00000000
00000000
00000000
00000000
,
00001000
00000100
00000010
00000001
,
00001000
00000010
00010000
00001000
,
00100000
00010000
01000000
10000000
,
01000000
00100000
00010000
00001000
,
00010000
00000100
00001000
00001010
,
00000001
00000100
00001000
00011000
,
00010000
01000000
10000000
00100000
,
00010000
00100000
01000000
00001000
,
00020000
00000000
00000000
00030000
,
00002000
00000000
00000000
00003000
,
00022000
00000000
00000000
00033000
,
00000000
00100000
10000000
01000000
,
10000000
00100000
00010000
00001000
,
00010000
00000100
00001000
00000010
,
00000001
00000100
00000010
00001000
,
00010000
00100000
01000000
10000000
,
00010000
01000000
10000000
01000000
,
00020000
00000000
00032000
00000000
,
00003000
00000010
00000010
00001000
,
00000000
00100000
00100000
00010000
,
00002000
00000000
00023000
00000000
,
01030000
00100000
10010000
00000000
,
00100000
10010000
00010000
01010000
,
01000000
00010000
00001000
00000100
,
00022000
00000000
00000000
00033000
,
00100000
00010000
01000000
10000000
,
20020000
00000000
00000000
00000000
,
30030000
00000000
00000000
00000000
,
00022000
00000000
00000000
00000000
,
00033000
00000000
00000000
00000000
,
00000002
00000003
00000100
00001000
,
00020000
00030000
01000000
10000000
,
00200000
00300000
00010000
00001000
,
00000020
00000030
00000001
00000100
,
00001000
00000100
00010000
00001000
,
01000000
00010000
10000000
01000000
,
00100000
00010000
00100000
00001000
,
00010000
00000000
00000100
00000000
00001000
00000100
00001000
00000000
,
00000010
00000000
00000010
00000000
00000001
00000100
00000001
00000000
,
00001000
00000000
00001000
00000000
00000100
00010000
00001000
00000000
,
00010000
00010000
00001000
01000000
,
00010000
10000000
00002000
00023000
,
00030100
00000000
00000000
00001001
00000000
00000000
00000100
00000000
,
00000000
00010000
00000000
00000000
00001000
00000000
00001000
00000000
,
00010000
00000000
00000000
01000000
00000000
00000000
10010000
00000000
,
00000000
01000000
00000000
00000000
10000000
00000000
01000000
00000000
,
00100000
00000000
00000000
01010000
00000000
00000000
00100000
00000000
,
00000000
00001000
00000000
00000000
00010000
00000000
00000100
00000000
,
00001000
00000000
00000000
00001001
00000000
00000000
00001000
00000000
,
00000000
00000010
00000000
00000000
00000100
00000000
00000100
00000000
,
00000001
00000000
00000001
00000100
00000000
00000000
00001000
00000000
,
00000000
00010000
00000000
00000000
01000000
00000000
01000000
00000000
,
10000000
00000000
10000000
01000000
00000000
00000000
00010000
00000000
,
00000000
00001000
00000000
00000000
00000100
00000000
00000001
00000000
,
00001000
00000000
00000100
00001000
00000000
00000000
00000100
00000000
,
00000000
00010000
00000000
00000000
00001000
00000000
01000000
00000000
,
00100000
00000000
00100000
10000000
00000000
00000000
00100000
00000000
,
00000000
00001000
00000000
00000000
00022000
00000000
00000000
00000000
,
00033000
00000000
00000000
00000000
,
00001001
00000000
00000000
00000000
,
00011000
00000000
00000000
00000000
,
10010000
00000000
00000000
00000000
,
10000000
00100000
01000000
00001000
,
00010000
00000100
00001000
00000001
,
00001000
00000100
00001000
00000000
00000010
00001000
00000010
00000000
,
00000001
00000010
00000100
00010000
,
00022000
00000000
00000000
00000000
,
00000000
00000000
00000000
00000000
,
00000000
00000000
00000000
00000000
,
00033000
00000000
00000000
00000000
;

//---------------dance-double - ----------------
#NOTES:
     dance-double:
     :
     Medium:
     11:
     0.521,0.603,0.416,0.300,0.000:
00000000
00000000
00000000
00000000
,
00000000
00000000
00000000
00000000
,
00000000
00000000
00000000
00000000
,
00000000
00000000
00000000
00000000
,
00000000
00000000
00000000
00000000
,
00000001
00000010
00000000
00001000
00000000
00010000
00000000
00011000
,
00000000
00000000
00000000
00000000
,
00010000
10000000
00000000
01000000
00000000
00100000
00000000
10010000
,
00000000
00000000
20020000
30030000
,
10000000
00100000
10000000
00000000
00010000
01000000
00010000
00000000
,
00100000
00010000
00100000
00000000
00001000
00010000
00001000
00000000
,
00010000
00000100
00001000
00000000
00001000
00000010
00000100
00000000
,
00000001
00000100
00000010
00000000
00001000
00000100
00010000
00000000
,
00000100
00000000
00010000
00000000
00001000
00010000
00001000
00000000
,
00100000
00000000
00010000
00000000
01000000
00100000
01000000
00000000
,
10000000
01000000
00100000
00000000
00100000
00001000
00010000
00000000
,
00010000
00000100
00001000
00000000
00000010
00001000
00000100
00000000
,
00002002
00000000
00000000
00003003
,
00022000
00000000
00000000
00033000
,
20020000
00000000
00000000
00000000
00000000
00000000
00000000
30030000
,
00000000
01100000
00000000
11000000
00000000
01010000
00000000
01100000
,
00000000
10000000
01000000
00000000
00100000
00001000
00100000
00000000
,
00001000
00010000
00001000
00000000
00010000
00000100
00001000
00000100
,
00000000
00001000
00000010
00000100
00000000
00000001
00000100
00000010
,
00000000
00010000
00001000
01000000
00000000
00010000
00100000
01000000
,
00000000
10000000
00010000
00000000
01000000
00000000
00100000
00000000
,
20200000
00000000
00000000
30300000
,
01010000
00000000
11000000
00000000
00100000
01000000
00010000
00000000
,
00001000
00000000
00010000
00000000
00000100
00001000
00000010
00000000
,
00002000
00003002
00000203
00000310
,
00001000
00000100
00010000
00000000
00001000
00000000
00010000
00000000
,
01000000
00000000
00010000
01000000
00100000
00000000
10000000
01000000
,
00100000
00000000
10000000
00010000
00000000
01000000
00001000
00100000
,
00000000
00022000
00000000
00000000
00000000
00000000
00033000
00000000
,
00000200
00000000
00000000
00000000
00002300
00000000
00000000
00003000
,
00001001
00000000
00000000
00000000
,
00011000
00000000
00000000
00000000
,
20020000
00000000
00000000
00000000
,
30030000
00000000
00000000
00000000
,
10000000
00100000
01000000
00000000
01010000
00000000
00011000
00000000
,
00001000
00000010
00000100
00000000
00001100
00000000
00011000
00000000
,
00001000
00010000
00000010
00000000
00001001
00000000
00001100
00000000
,
00000100
00010000
00001000
00000000
00100000
00010000
01000000
00100000
,
10000000
00000000
00010000
00000000
10000000
01000000
00100000
00000000
,
10000000
00000000
00010000
00000000
00100000
00001000
00010000
00001000
,
00100000
00000000
00001000
00000000
00010000
00000100
00001000
00000000
,
00000010
00000000
00000001
00000000
00000100
00000001
00001000
00000000
,
00001100
00000000
00011000
00000000
00001000
01000000
00010000
00000000
,
10010000
00000000
11000000
00000000
00100000
10000000
01000000
00000000
,
00110000
00000000
00001010
00000000
00000001
00000100
00001000
00000000
,
00011000
00110000
20000000
32000000
,
13000000
00100000
10000000
00100000
00000000
10000000
01000000
00000000
,
00010000
01000000
00000000
00001000
00010000
00000000
00000100
00000000
,
00001000
00000010
00001000
00000010
00000000
00000100
00000001
00000000
,
00001000
00000010
00000000
00001000
00000100
00000000
00010000
00000000
,
00001000
01000000
00001000
01000000
00000000
00010000
01000000
00000000
,
00100000
10000000
00000000
01000000
10000000
00000000
01010000
00000000
,
00001000
00100000
00001000
00100000
00000000
00000100
00010000
00000000
,
00000010
00001000
00000000
00000001
00000100
00000000
00001001
00000000
,
00000001
00000010
00000100
00001000
00000000
00000100
00001000
00000000
,
00000100
00010000
00000000
00001000
00010000
00000000
00001000
00000000
,
01000000
00000000
00010000
00100000
00000000
00010000
10000000
00000000
,
01000000
10000000
00000000
00010000
01000000
00000000
10010000
00000000
,
10000000
01000000
00100000
00010000
00000000
00100000
00001000
00000000
,
00010000
00000100
00000000
00001000
00000010
00000000
00001001
00000000
,
00000001
00000010
00000100
00001000
00000000
00000100
00010000
00000000
,
00001000
00100000
00000000
00000000
02020000
00000000
03030000
00000000
,
10010000
00000000
00000000
00000000
,
22000000
00000000
33000000
00000000
,
00022000
00000000
00033000
00000000
,
00002200
00000000
00003300
00000000
,
00000001
00000010
00000100
00000000
00001000
00000000
00000100
00000000
,
00010000
00001000
01000000
00000000
00010000
00000000
01000000
00000000
,
10000000
01000000
00100000
00000000
00100000
00001000
00010000
00000000
,
00010000
00000100
00001000
00000000
00000110
00000000
00001100
00000000
,
00022000
00000000
00000000
00000000
,
00000000
00000000
00000000
00000000
,
00000000
00000000
00000000
00000000
,
00033000
00000000
00000000
00000000
;

//---------------dance-double - ----------------
#NOTES:
     dance-double:
     :
     Hard:
     15:
     0.725,0.829,0.184,0.348,0.256: // measure 1
00000000
00000000
00000000
00000000
,  // measure 2
00000000
00000000
00000000
00000000
,  // measure 3
00000000
00000000
00000000
00000000
,  // measure 4
00000000
00000000
00000000
00000000
,  // measure 5
00000000
00000000
00000000
00000000
,  // measure 6
00010000
10000000
00000000
11000000
00000000
01001000
00000000
00011000
,  // measure 7
00000000
00000000
00000000
00000000
,  // measure 8
00010000
00000100
00000000
00001100
00000000
00000101
00000000
00001001
,  // measure 9
00000000
00000000
00000220
00000330
,  // measure 10
00000001
00000000
00000100
00000000
00000010
00000000
00001000
00000100
00001000
00000000
00000100
00000000
00010000
00000000
00001000
00000000
,  // measure 11
01000000
00000000
00010000
00000000
00100000
00000000
00010000
01000000
00010000
00000000
01000000
00000000
00100000
00000000
10000000
00000000
,  // measure 12
01000000
10000000
01000000
00000000
10000000
00000000
00100000
01000000
00100000
00000000
10000000
00000000
01000000
00000000
00100000
00000000
,  // measure 13
00010000
00100000
00010000
00000000
00100000
00000000
00001000
00010000
00001000
00000000
00010000
00000000
00000100
00000000
00001000
00000000
,  // measure 14
00000010
00000000
00000100
00000000
00000001
00000000
00001000
00000100
00001000
00000000
00000001
00000000
00001000
00000000
00000100
00000000
,  // measure 15
00010000
00000000
00001000
00000000
00100000
00000000
00010000
01000000
00010000
00000000
01000000
00000000
00100000
00000000
10000000
00000000
,  // measure 16
01000000
10000000
00100000
00000000
10000000
00000000
01000000
00000000
00100000
00010000
01000000
00010000
00100000
00000000
00001000
00000000
,  // measure 17
00010000
00000000
00000100
00000000
00001000
00000000
00000010
00001000
00000100
00001000
00000001
00000000
00001000
00000100
00000010
00000000
,  // measure 18
00000002
00000000
00000003
00000000
,  // measure 19
00002000
00000000
00003000
00000000
,  // measure 20
00012000
00000000
00100000
00100000
00000000
00010000
00000000
00000100
,  // measure 21
00000000
00010000
00000000
00203000
00000000
00010000
00000000
02300000
,  // measure 22
00000000
00020000
00000000
00000000
03000000
00000000
10030000
00000000
,  // measure 23
01000000
00000000
00001000
00000000
00010000
00000100
00001000
00000010
,  // measure 24
00000000
00001000
00000001
00000100
00000000
00000001
00001000
00000100
,  // measure 25
00000000
00000100
00010000
00001000
00000000
00001000
01000000
00010000
,  // measure 26
00000000
01020000
00000000
00000000
10000000
00000000
01030000
00000000
,  // measure 27
20000000
00000000
30020000
00000000
,  // measure 28
10030000
00100000
01000000
00010000
00100000
00001000
00000000
00011000
,  // measure 29
00000000
00010000
00000100
00001000
00000010
00000100
00000001
00001000
,  // measure 30
00000002
00020003
00032000
20003000
,  // measure 31
30100000
10000000
01000000
10000000
00010000
00100000
00010000
00000000
,  // measure 32
10000000
00100000
01000000
00100000
10000000
00100000
01000000
00001000
,  // measure 33
00010000
00000100
00001000
00000010
00001000
00000001
00000100
00000010
,  // measure 34
00000000
00002002
00000000
00000000
00000000
00000000
00000000
00003003
,  // measure 35
00000020
00020030
00032000
00103000
,  // measure 36
20020000
00000000
00000000
00000000
,  // measure 37
30030000
00000000
00000000
00000000
,  // measure 38
00002002
00000000
00000000
00000000
,  // measure 39
00003003
00000000
00000000
00000000
,  // measure 40
00000001
00000000
00000100
00000000
00001000
00000000
00000010
00001000
00000010
00000000
00010000
00000000
00001000
00000000
00100000
00000000
,  // measure 41
00010000
00000000
01000000
00000000
10000000
00000000
00100000
10000000
00100000
00000000
10000000
00000000
01000000
00000000
00000000
00000000
,  // measure 42
10000000
00000000
00100000
00000000
01000000
00000000
00001000
01000000
00001000
00000000
00010000
00000000
00000100
00000000
00001000
00000000
,  // measure 43
00000010
00000100
00000001
00000000
00001000
00000100
00000010
00000001
,  // measure 44
00000010
00000100
00001000
00000000
00000100
00010000
00001000
01000000
,  // measure 45
00010000
01000000
00100000
00000000
10000000
00100000
01000000
00010000
,  // measure 46
01000000
00001000
00010000
00000100
00001000
00000010
00000100
00000001
,  // measure 47
00001000
00000000
00000010
00000000
00010000
00000000
00001000
00000000
01000000
00000000
00010000
00000000
10000000
00000000
00100000
10000000
,  // measure 48
00100000
00000000
10000000
00000000
01000000
00000000
10000000
00000000
00100000
00000000
01000000
00000000
00010000
00000000
00100000
00010000
,  // measure 49
00100000
00000000
00010000
00000000
01000000
00000000
00001000
00000000
00010000
00000000
00000010
00000000
00001000
00000000
00000001
00001000
,  // measure 50
00000100
00001000
00000010
00001000
00000100
00010000
00001000
01000000
,  // measure 51
00010000
00100000
01000000
10000000
00200000
00000000
00302000
00000000
,  // measure 52
00013000
00000000
00000100
00001000
00000100
00000000
00001000
00000000
00000010
00000100
00000010
00000000
00001000
00000000
00000001
00000100
,  // measure 53
00000001
00000000
00001000
00000000
00000100
00001000
00000100
00000000
00010000
00000000
00001000
00000000
01000000
00000000
00100000
00000000
,  // measure 54
10000000
00000000
01000000
10000000
01000000
00000000
10000000
00000000
00100000
01000000
00100000
00000000
01000000
00000000
00010000
00100000
,  // measure 55
00010000
00000000
00100000
00000000
00001000
00010000
00001000
00000000
00010000
00000000
00000010
00000000
00000100
00000000
00000001
00000000
,  // measure 56
00001000
00000000
00000100
00001000
00000100
00000000
00010000
00000000
00001000
00100000
00001000
00000000
00100000
00000000
00010000
00100000
,  // measure 57
01000000
00000000
10000000
00000000
01000000
10000000
01000000
00000000
10000000
00000000
00100000
01000000
00100000
00000000
10000000
01000000
,  // measure 58
10000000
00000000
00010000
00100000
00010000
00000000
01000000
00000000
00001000
00000000
00010000
00000000
00000100
00000000
00001000
00000100
,  // measure 59
00001000
00000010
00000100
00000001
00001001
00000000
00001100
00000000
,  // measure 60
00000001
00000010
00000100
00001000
00000000
00000100
00010000
00000000
,  // measure 61
00001000
01000000
00010000
01000000
00001000
00100000
00010000
01000000
,  // measure 62
00100000
10000000
01000000
10000000
00100000
01000000
00001000
00010000
,  // measure 63
00001000
00010000
00000100
00001000
00000010
00000100
00000001
00000000
,  // measure 64
00000001
00000100
00000010
00000000
00001000
00000000
00000100
00010000
00001000
00000000
01000000
00000000
00010000
00100000
01000000
00000000
,  // measure 65
10000000
00000000
01000000
00100000
00010000
00000000
01000000
00000000
00001000
00000000
00010000
00000000
00000100
00000000
00001000
00000000
,  // measure 66
00000010
00000100
00000001
00000000
00000100
00000000
00000010
00001000
00000100
00000000
00010000
00000000
00001000
00010000
00000100
00000000
,  // measure 67
00010000
00000000
00001000
01000000
00001000
00000000
01000000
00000000
00010000
00000000
00100000
00000000
01000000
00000000
10000000
00000000
,  // measure 68
20020000
30000000
01030000
00001000
,  // measure 69
00022000
00003000
00030100
00001000
,  // measure 70
00002020
00003000
00000130
00000001
,  // measure 71
00002002
00000003
00000100
00003010
,  // measure 72
00000001
00000000
00000010
00000000
00001000
00000000
00000100
00010000
00001000
00000000
00010000
00000000
00001000
00000000
00100000
00010000
,  // measure 73
01000000
00000000
00100000
00000000
10000000
00000000
01000000
10000000
01000000
00000000
10000000
00000000
00100000
00000000
01000000
00000000
,  // measure 74
00001000
00010000
00001000
00000000
00010000
00000000
00000100
00000000
00001000
00000010
00001000
00000000
00000010
00000000
00000100
00000000
,  // measure 75
00000001
00000010
00000100
00000000
00000010
00001000
00000100
00000000
00001000
00000100
00010000
00000000
00001000
00100000
00020000
00000000
,  // measure 76
02000000
00000000
00000000
00000000
,  // measure 77
00000000
00000000
00000000
00000000
,  // measure 78
00000000
00000000
00000000
00000000
,  // measure 79
03030000
00000000
00000000
00000000
;
