#TITLE:Energy Flower 3007;
#SUBTITLE:;
#ARTIST:r300k;
#TITLETRANSLIT:;
#SUBTITLETRANSLIT:;
#ARTISTTRANSLIT:;
#GENRE:;
#CREDIT:;
#MENUCOLOR:;
#METERTYPE:DDR X;
#BANNER:Energy Flower 3007-jacket.png;
#BACKGROUND:Energy Flower 3007-bg.png;
#LYRICSPATH:;
#CDTITLE:;
#MUSIC:Energy Flower 3007.ogg;
#OFFSET:0.280;
#SAMPLESTART:55.660;
#SAMPLELENGTH:23.500;
#SELECTABLE:YES;
#LISTSORT:;
#BPMS:0.000=133.000;
#STOPS:;
#BGCHANGES:0.000=Energy Flower 3007.avi=1.000=1=1=0,
99999=-nosongbg-=1.000=0=0=0 // don't automatically add -songbackground-
;
#ATTACKS:;

//---------------dance-single - ----------------
#NOTES:
     dance-single:
     :
     Hard:
     13:
     0.445,0.520,0.135,0.238,0.417:
0000
0000
0000
0000
,
0000
0000
0000
0000
,
0000
0000
0000
0000
,
0000
0000
0000
0000
,
0000
0000
0000
0000
,
0000
0000
0000
0000
,
1000
0000
0000
1000
0001
0000
1000
0000
0100
0000
0000
1000
0100
0000
1000
0000
,
0001
0000
0000
0001
1000
0000
0001
0000
0100
0000
0000
0001
0100
0000
0001
0000
,
1000
0000
0000
1000
0010
0000
1000
0000
0001
0000
0000
0001
1000
0000
0001
0000
,
0200
0000
0020
0330
,
1000
0000
0010
0000
0000
0100
0000
0100
0000
0000
0001
0000
0000
1000
0000
1000
,
0000
0000
0001
0000
0000
0100
0000
0100
0000
0000
0001
0000
0000
1000
0000
1000
,
0000
0000
0010
0000
0000
0100
0000
0001
0000
0000
0100
0000
0000
0010
0000
0100
,
0000
0000
0001
0000
1000
0001
0000
0001
1000
0000
0010
0000
0100
0010
0000
0010
,
0000
0000
1000
0000
0000
0001
0000
0001
0000
0000
1000
0000
0000
0100
0000
0100
,
0000
0000
1000
0000
0000
0001
0000
0001
0000
0000
1000
0000
0000
0010
0000
0010
,
0000
0000
0100
0000
0000
0001
0000
0001
0000
0000
1000
0000
0000
0001
0000
0001
,
0000
0000
0100
0000
0001
0100
0000
0100
0001
0000
1000
0000
0010
1000
0000
1000
,
0010
0000
0001
1000
1000
0100
0001
0000
,
1000
0000
0001
1000
1000
0010
0100
0000
,
0001
0000
1000
0010
0010
0100
0001
0000
,
1000
0000
0010
0000
0100
0010
0000
0100
0010
0000
0100
0000
0001
0000
0000
0000
,
1000
0000
0001
0100
0001
0100
0010
0000
,
0001
0000
1000
0010
1000
0010
0100
0000
,
0001
0000
1000
0010
1000
0010
0100
0000
,
0002
0000
2003
0000
,
3020
0100
0000
0130
,
2000
0100
0000
3001
,
0002
0100
0000
1003
,
0020
0100
1000
0130
,
0200
0001
0000
0310
,
0002
1000
0000
0013
,
0200
1000
0000
1300
,
0002
1000
0000
1003
,
0200
0000
0001
0000
0300
0010
0100
0000
,
0020
0000
1000
0000
0030
0100
0010
0000
,
0002
0000
1000
0000
0003
1000
0001
0000
,
2000
0000
0000
0001
0000
3001
0100
0000
,
0020
1000
0100
1030
,
0200
0001
0010
0301
,
1200
0010
1000
0310
,
0022
0033
2200
3300
,
0010
0000
0100
0000
0000
0001
0000
0001
0000
0000
0100
0000
0000
0001
0000
0001
,
0000
0000
1000
0000
0000
0001
0000
0001
0000
0000
1000
0000
0001
0100
0000
0001
,
0100
0000
0010
0000
0000
0100
0000
0100
0000
0000
0001
0000
0000
0100
0000
0100
,
0000
0000
0001
0000
0000
1000
0000
0001
1000
0000
0001
0000
0100
0001
0000
0100
,
0001
0000
0100
0000
0000
0010
0000
0010
0000
0000
0010
0000
0000
1000
0000
1000
,
0000
0000
1000
0000
0000
0001
0000
0001
0000
0000
0100
0000
0001
0100
0000
0001
,
0100
0000
0010
0000
0000
0010
0000
0010
0000
0000
1000
0000
0000
1000
0000
1000
,
0000
0000
0001
0000
0000
0100
0000
0010
0000
0000
0100
0000
0001
1000
0000
0001
,
1000
0000
0010
0000
0100
0010
0000
0010
0000
0000
1000
0000
0001
1000
0000
1000
,
0000
0000
0001
0000
0100
0001
0000
0001
0000
0000
1000
0000
0010
1000
0000
1000
,
0000
0000
0001
0000
0100
0010
0000
0010
0000
0000
1000
0000
0010
0100
0000
0100
,
0000
0000
0001
0000
1000
0010
0000
0010
0000
0000
1000
0000
0001
0100
0000
0100
,
0000
0000
0001
0000
1000
0001
0000
0001
0000
0000
1000
0000
0001
1000
0000
1000
,
0000
0000
0010
0000
0100
0001
0000
0001
0000
0000
0100
0000
0010
1000
0000
1000
,
0000
0000
0001
0000
0100
0010
0000
0100
0010
0000
0001
0000
1000
0001
0000
1000
,
0000
0000
0010
0000
0100
0010
0000
0010
0000
1000
0001
0000
1000
0001
0000
1000
,
0002
0000
0000
0003
,
1100
0000
0101
0000
1000
0100
0001
0000
,
0101
0000
1100
0000
0001
0010
1000
0000
,
0110
0000
1001
0000
1000
0010
0001
0000
,
0100
1001
0110
1001
,
0010
0000
1000
0100
1000
0010
1000
0000
,
0100
0000
0001
0010
0001
0100
0001
0000
,
1100
0000
0011
0000
1000
0100
0001
0000
,
0220
0330
2020
3030
,
2002
0000
0000
0000
,
0000
0000
0000
0000
,
3003
0000
0000
0000
;

//---------------dance-double - ----------------
#NOTES:
     dance-double:
     :
     Hard:
     13:
     0.433,0.465,0.056,0.183,0.428:
00000000
00000000
00000000
00000000
,
00000000
00000000
00000000
00000000
,
00000000
00000000
00000000
00000000
,
00000000
00000000
00000000
00000000
,
00000000
00000000
00000000
00000000
,
00000000
00000000
00000000
00000000
,
01000000
00000000
00010000
01000000
01000000
00000000
00001000
00010000
,
00010000
00000000
00000100
00001000
00001000
00000000
00000001
00000100
,
00000100
00000000
00010000
00001000
00001000
00000000
01000000
00010000
,
00010000
00000000
00000000
00000000
10000000
00000000
00000000
00000000
00100000
00000000
01000000
00000000
00100000
01000000
00000000
01000000
,
00000000
00000000
00010000
00000000
00000000
00001000
00000000
00001000
00000000
00000000
00000100
00000000
00000000
00000010
00000000
00000010
,
00000000
00000000
00001000
00000000
00000000
00000100
00000000
00000100
00000000
00000000
00010000
00000000
00000000
00001000
00000000
00001000
,
00000000
00000000
01000000
00000000
00010000
01000000
00000000
01000000
00000000
00000000
00100000
00000000
01000000
00100000
00000000
00100000
,
00000000
00000000
10000000
00000000
00100000
10000000
00000000
10000000
00100000
00000000
01000000
00000000
00010000
00100000
00000000
00100000
,
00000000
00000000
00001000
00000000
00000000
00010000
00000000
00010000
00000000
00000000
00000100
00000000
00000000
00001000
00000000
00001000
,
00000000
00000000
00000010
00000000
00000000
00000100
00000000
00000100
00000000
00000000
00000001
00000000
00000000
00001000
00000000
00001000
,
00000000
00000000
00000100
00000000
00000000
00010000
00000000
00010000
00000000
00000000
00001000
00000000
00000000
01000000
00000000
01000000
,
00000000
00000000
00010000
00000000
10000000
00010000
00000000
00010000
10000000
00000000
00100000
00000000
01000000
00010000
00000000
00000000
,
01000000
00100000
10000000
01000000
00100000
00010000
01000000
00000000
,
00001000
00010000
00001000
00010000
00000100
00001000
00000010
00000000
,
00000100
00000001
00001000
00000001
00000100
00000001
00000010
00000000
,
00000010
00000001
00001100
00000000
00001000
00000000
00001100
00000000
,
00010000
00001000
00010000
00001000
00100000
00001000
00100000
00000000
,
00010000
01000000
00010000
01000000
00100000
01000000
00100000
00000000
,
10000000
01000000
00010000
00000000
10000000
00100000
00010000
00000000
,
10000000
00100000
01000000
00000000
00010000
00000000
00001000
00000000
,
00022000
00000000
00000000
00003000
,
00030200
00001000
00000000
00000310
,
00000002
00000100
00000000
00001003
,
00000200
00010000
00000000
00001300
,
00020000
00001000
00000000
01030000
,
02000000
00010000
00000000
13000000
,
20000000
00100000
00000000
31000000
,
00020000
00100000
00000000
00031000
,
00000200
00001000
00000010
00001300
,
00000002
00000100
00001000
00000103
,
00002000
00000100
00000010
00003100
,
00000200
00010000
00001000
00010300
,
00020000
00001000
01000000
00031000
,
02000000
00100000
00010000
03100000
,
20000000
01000000
00100000
30010000
,
02200000
03300000
20020000
30030000
,
00000000
00000000
00010000
01000000
00000000
00010000
00000000
00010000
00000000
00000000
00001000
00010000
00000000
00010000
00000000
00010000
,
00000000
00000000
00000100
00001000
00000000
00001000
00000000
00001000
00000000
00000000
00000010
00000100
00000000
00000100
00000000
00000100
,
00000000
00000000
00000001
00001000
00000000
00000100
00000000
00000100
00000000
00000000
00001000
00000001
00000000
00000100
00000000
00000100
,
00000000
00000000
00000010
00001000
00000000
00000100
00000000
00000100
00000000
00000000
00010000
00000100
00000000
00000100
00000000
00000100
,
00000000
00000000
00010000
00001000
00000000
00001000
00000000
00001000
00000000
00000000
00100000
00000000
00000000
00010000
00000000
01000000
,
00000000
00000000
00100000
00000000
00000000
10000000
00000000
01000000
00000000
00000000
00100000
00000000
00000000
00010000
00000000
00001000
,
00000000
00000000
00000100
00000000
00000000
00001000
00000000
00000010
00000000
00000000
00000100
00000000
00000000
00000001
00000000
00001000
,
00000000
00000000
00000010
00000000
00000000
00001000
00000000
00000100
00000000
00000000
00010000
00000000
00000000
00001000
00000000
00100000
,
00010000
00000000
00100000
00000000
00010000
01000000
00000000
01000000
00000000
00000000
00100000
00000000
10000000
01000000
00000000
01000000
,
00000000
00000000
10000000
00000000
00100000
01000000
00000000
01000000
00000000
00000000
00010000
00000000
00100000
00001000
00000000
00001000
,
00000000
00000000
00010000
00000000
00000100
00001000
00000000
00001000
00000000
00000000
00000010
00000000
00000100
00000001
00000000
00000001
,
00000000
00000000
00001000
00000000
00000010
00000100
00000000
00000100
00000000
00000000
00001000
00000000
00000100
00001000
00000000
00001000
,
00000000
00000000
00010000
00000000
00001000
00010000
00000000
00010000
00000000
00000000
00001000
00000000
01000000
00001000
00000000
00001000
,
00000000
00000000
01000000
00000000
00010000
01000000
00000000
01000000
00000000
00000000
00100000
00000000
10000000
01000000
00000000
01000000
,
00000000
00000000
00100000
00000000
00000000
00010000
00000000
00001000
00000000
00000000
00000100
00000000
00000000
00000010
00000000
00000001
,
00000000
00000000
00000010
00000000
00000000
00000100
00000000
00001000
00000000
00000000
00010000
00000000
00000000
00100000
00000000
01000000
,
20000000
00000000
00000000
30000000
,
10010000
00000000
00010000
10000000
10000000
00000000
00010000
00100000
,
00100000
00000000
00001000
00010000
00010000
00000000
00000010
00001000
,
00001000
00000000
00000001
00001000
00001000
00000000
00000100
00001000
,
00001000
00000000
00000100
00010000
00001000
00010000
00000100
00010000
,
00001000
00000000
00000000
00000000
00100000
00000000
00010000
00000000
01000000
00000000
00000000
00000000
00100000
00000000
10000000
00100000
,
10000000
00000000
00000000
00000000
01000000
00000000
00100000
00000000
01000000
00000000
00000000
00000000
00010000
00000000
10000000
00010000
,
10000000
00000000
00100000
00010000
00100000
00000000
00001000
00000000
,
00010000
00000000
00001000
00000000
00010000
00001000
00010000
00000000
,
00022000
00000000
00000000
00000000
,
00000000
00000000
00000000
00000000
,
00033000
00000000
00000000
00000000
;

//---------------dance-double - ----------------
#NOTES:
     dance-double:
     :
     Medium:
     9:
     0.315,0.356,0.032,0.111,0.000: // measure 1
00000000
00000000
00000000
00000000
,  // measure 2
00000000
00000000
00000000
00000000
,  // measure 3
00000000
00000000
00000000
00000000
,  // measure 4
00000000
00000000
00000000
00000000
,  // measure 5
00000000
00000000
00000000
00000000
,  // measure 6
00000000
00000000
00000000
00000000
,  // measure 7
00100000
00000000
00001000
00100000
00100000
00000000
00001000
00000000
,  // measure 8
00010000
00000000
00000100
00010000
00010000
00000000
00000100
00000000
,  // measure 9
00001000
00000000
00000001
00001000
00001000
00000000
00000001
00000000
,  // measure 10
00000100
00001000
01000000
10000000
,  // measure 11
10000000
00100000
00010000
00000000
00100000
00000000
00010000
00000000
,  // measure 12
00001000
00000010
00000001
00000000
00000010
00000000
00001000
00000000
,  // measure 13
00010000
01000000
10000000
00000000
01000000
00000000
00010000
00000000
,  // measure 14
00000000
00001000
00000000
00010000
,  // measure 15
00001000
00000100
00000001
00000000
00000010
00000000
00001000
00000000
,  // measure 16
00001000
00010000
01000000
00000000
10000000
00000000
00100000
00000000
,  // measure 17
00100000
00010000
00001000
00000000
00000100
00000000
00000010
00000000
,  // measure 18
00000000
00001000
00000000
00001000
,  // measure 19
00010000
00000000
00000100
00000000
00010000
00001000
00000100
00000000
,  // measure 20
00000010
00000000
00001000
00000000
00000010
00000100
00001000
00000000
,  // measure 21
00010000
00000000
00001000
00000000
00010000
00001000
01000000
00000000
,  // measure 22
00010000
00100000
01000000
00000000
00100000
01000000
10000000
00000000
,  // measure 23
10000000
00000000
00010000
00000000
01000000
00001000
00010000
00000000
,  // measure 24
00010000
00000000
00000100
00000000
00001000
00000100
00000010
00000000
,  // measure 25
00000001
00000100
00001000
00010000
,  // measure 26
01000000
00000000
10000000
00000000
00100000
00001000
00010000
00000000
,  // measure 27
00022000
00000000
00000000
00003000
,  // measure 28
00000020
00000000
00000000
00030000
,  // measure 29
00000200
00000000
00000000
00000030
,  // measure 30
00000002
00000000
00000000
00000300
,  // measure 31
00002000
00000000
00000000
00000003
,  // measure 32
00000200
00000000
00000000
00003000
,  // measure 33
00020000
00000000
00000000
00000300
,  // measure 34
00002000
00000000
00000000
00033000
,  // measure 35
00001000
00010000
01000000
00010000
,  // measure 36
00001000
00000100
00000001
00000100
,  // measure 37
00001000
00100000
10000000
00100000
,  // measure 38
00001000
00010000
00000010
00000001
,  // measure 39
00000010
00000100
00001000
00010000
,  // measure 40
00001000
00000100
00000010
00001000
,  // measure 41
00000100
00000000
00010000
00000000
,  // measure 42
00002000
00000000
00000000
00003000
,  // measure 43
00010000
00000000
00000100
00000010
00000100
00000000
00010000
00001000
,  // measure 44
00010000
00000000
00001000
01000000
00001000
00000000
01000000
00100000
,  // measure 45
01000000
00000000
00001000
00100000
00001000
00000000
00010000
00001000
,  // measure 46
00010000
00000000
00000010
00010000
00000010
00000000
00010000
00000100
,  // measure 47
00010000
00000000
00000100
00001000
00000100
00000000
00000001
00000100
,  // measure 48
00001000
00000000
00010000
00001000
00010000
00000000
01000000
00010000
,  // measure 49
01000000
00000000
00010000
00100000
00010000
00000000
10000000
00100000
,  // measure 50
00010000
00000000
01000000
00010000
01000000
00000000
00001000
00010000
,  // measure 51
00001000
00010000
00000100
00000010
,  // measure 52
00001000
00000100
00000010
00000000
00000001
00000000
00001001
00000000
,  // measure 53
00000010
00001000
00000100
00010000
,  // measure 54
00001000
00100000
00010000
00000000
01000000
00000000
10010000
00000000
,  // measure 55
10000000
00100000
00100000
00000000
10000000
00010000
00010000
00000000
,  // measure 56
10000000
01000000
01000000
00000000
00100000
00010000
00001000
00000000
,  // measure 57
00001000
00000001
00000001
00000000
00001000
00000010
00000010
00000000
,  // measure 58
00001000
00000100
00000000
00001000
00000000
00010000
00000000
00002000
,  // measure 59
00020000
00000000
00000000
00033000
,  // measure 60
00100000
00000000
00010000
01000000
10000000
01000000
00010000
00000000
,  // measure 61
00100000
00000000
00001000
00000000
00010000
00010000
00000100
00000000
,  // measure 62
00001000
00000000
00000010
00001000
00000010
00000001
00000010
00000000
,  // measure 63
00000001
00000100
00001000
00010000
,  // measure 64
01000000
00000000
10000000
01000000
00100000
01000000
10000000
00000000
,  // measure 65
00100000
00010000
00000010
00001000
,  // measure 66
00000100
00000000
00000001
00000100
00001000
00000100
00000001
00000000
,  // measure 67
00000010
00001000
00010000
00001000
,  // measure 68
00022000
00000000
00000000
00000000
,  // measure 69
00000000
00000000
00000000
00000000
,  // measure 70
00033000
00000000
00000000
00000000
;

//---------------dance-single - ----------------
#NOTES:
     dance-single:
     :
     Medium:
     9:
     0.357,0.383,0.151,0.198,0.000:
0000
0000
0000
0000
,
0000
0000
0000
0000
,
0000
0000
0000
0000
,
0000
0000
0000
0000
,
0000
0000
0000
0000
,
0000
0000
0000
0000
,
1000
0000
0001
0100
0001
0100
0001
0000
,
1000
0000
0001
0010
0001
0010
0001
0000
,
1000
0000
0010
0100
0010
0100
0010
0000
,
2000
0000
0002
3003
,
0001
0000
1100
0000
0001
0010
0100
0000
,
1000
0000
0011
0000
1000
0100
0010
0000
,
0100
0000
1001
0000
0010
0100
0010
0000
,
1000
0000
0001
1000
1000
0000
0001
0000
,
1000
0000
0101
0000
1000
0100
0001
0000
,
0001
0000
1010
0000
0001
0010
1000
0000
,
1000
0101
0001
1010
,
1000
0100
0001
0000
1000
0000
0010
0000
,
0200
0000
0001
0000
0000
1000
1300
0000
,
0020
0000
0001
0000
0000
1000
1030
0000
,
0200
0000
0010
0000
0000
0001
0301
0000
,
0002
0100
0000
1000
0000
0100
0103
0000
,
0020
0000
1000
0000
0100
0100
0130
0000
,
2000
0000
0010
0000
0001
0001
3001
0000
,
0020
0000
1000
0000
0100
0100
0130
0000
,
0002
0003
2000
3000
,
0020
0000
0000
0000
,
2000
0000
0000
0030
,
0200
0000
0000
3000
,
0002
0000
0000
0300
,
0023
1000
0000
1000
,
2030
0100
0000
0100
,
3002
0010
0000
0010
,
0203
1000
0001
1300
,
0010
1000
0010
1000
,
0001
1000
0001
1000
,
0010
0100
0010
0100
,
0001
0100
1000
0100
,
0001
0010
0001
0010
,
1000
0100
1000
0100
,
0020
0000
0200
0330
,
2000
0000
0002
3003
,
1000
0010
1000
0000
0001
0100
0001
0000
,
1000
0100
1000
0000
0001
0010
0001
0000
,
1000
0100
0001
0000
0001
0001
0001
0000
,
0001
0010
1000
0000
1000
1000
1000
0000
,
0010
0100
0010
0000
1000
0000
1001
0000
,
0100
0010
0100
0000
0001
0000
1001
0000
,
0010
1000
0100
0000
0010
0001
0100
0000
,
0010
0010
0010
0000
1000
0000
1001
0000
,
0001
0100
0001
1000
0000
0001
1000
0100
,
0000
1000
0001
0100
0000
0001
1000
0010
,
0000
1000
0100
1000
0000
0001
0010
0001
,
0000
1000
0010
1000
0000
0001
0010
0001
,
0000
0001
0100
0001
0000
1000
0100
1000
,
0000
0010
0100
0010
0000
1000
0010
0001
,
0000
0101
0000
1100
0000
0110
0000
1001
,
0000
0010
0000
0100
0001
1000
0100
0010
,
0000
0000
0000
0000
,
1000
0001
0100
0001
,
1000
0001
0010
0001
,
1000
0000
0001
0100
1000
0100
0001
0000
,
1000
0010
0001
0100
,
0001
0000
0010
1000
0010
0100
0010
0000
,
1000
0000
0001
0100
0010
0100
0001
0000
,
1000
0000
0001
0010
0100
1000
0010
0000
,
1100
0101
0011
1010
,
2002
0000
0000
0000
,
0000
0000
0000
0000
,
3003
0000
0000
0000
;

//---------------dance-single - Mission Another Soun----------------
#NOTES:
     dance-single:
     Mission Another Soun:
     Challenge:
     14:
     0.582,0.712,0.000,0.111,0.829:
0000
0000
0000
0000
,
0000
0000
0000
0000
,
0000
0000
0000
0000
,
0000
0000
0000
0000
,
0000
0000
0000
0000
,
0000
0000
0000
0000
,
0100
0000
0000
0100
0001
0000
0100
0000
0100
0000
0000
0001
0100
0000
0001
0000
,
0001
0000
0000
1000
0001
0000
1000
0000
1000
0000
0000
0010
0100
0000
0010
0000
,
0010
0000
0000
1000
0100
0000
1000
0000
1000
0000
0000
0001
0010
0000
0001
0000
,
0100
0000
0010
0000
0000
0100
0000
0010
0000
0000
1000
0000
0001
1000
0000
0001
,
0100
0000
0001
0000
1000
0010
0000
1000
0010
0000
0100
0000
0001
0100
0000
0001
,
0100
0000
0010
0000
1000
0100
0000
1000
0100
0000
0010
0000
0001
0100
0000
0001
,
0100
0000
0010
0000
1000
0100
0000
1000
0100
0000
0010
0000
0100
0001
0000
0100
,
0001
0000
1000
0000
0010
0100
0000
0100
0100
0000
0010
0000
1000
0001
0000
0001
,
0100
0000
0010
0000
1000
0001
0000
0001
1000
0000
0010
0000
0100
0001
0000
0001
,
0100
0000
0010
0000
1000
0100
0000
0100
1000
0000
0010
0000
0001
0100
0000
0100
,
0001
0000
1000
0000
0010
0100
0000
0100
0010
0000
1000
0000
0001
0100
0000
0100
,
0001
0000
1000
0000
0010
0100
0000
0010
0010
0000
1000
0000
0001
0100
0000
0001
,
0100
0000
0010
1000
0000
0010
0000
0100
0001
0000
0100
0001
0000
0100
0000
0010
,
1000
0000
0010
0000
0100
0010
0000
0100
0010
0000
0100
0001
0000
0100
0000
0001
,
1000
0000
0001
0000
0100
0001
0000
0100
0001
0000
0100
0001
0000
0100
0000
0010
,
1000
0000
0010
0000
0100
0010
0000
0010
0100
0000
0001
0000
1000
0001
0000
0001
,
1000
0000
0010
0000
0100
0001
0000
0100
0001
0000
0100
0001
0000
0100
0000
0010
,
1000
0000
0010
0000
0100
0010
0000
0100
0010
0000
0100
0010
0000
1000
0000
0001
,
0100
0000
0001
0000
1000
0010
0000
0100
0001
0000
1000
0000
0010
0100
0000
0001
,
1000
0000
0010
0000
0100
0010
0000
0010
0100
0000
0001
0000
1000
0000
0000
0000
,
2000
0000
0000
0010
0010
0010
0000
0010
,
3200
0000
0000
0001
0001
0001
0000
0001
,
0320
0000
0000
1000
1000
1000
0000
1000
,
0230
0000
0000
0000
0001
0000
0000
0000
0001
0000
0000
0000
0301
0000
1000
0001
,
2000
0000
0000
0010
0010
0010
0000
0010
,
3200
0000
0000
0001
0001
0001
0000
0001
,
0320
0000
0000
1000
1000
1000
0000
1030
,
0002
0000
0203
0000
,
0310
1000
0100
0001
,
0010
1000
0100
0001
,
0010
0001
0100
1000
,
0010
0001
0100
1000
,
0010
1000
0100
0000
0010
0001
0100
0000
,
1000
0010
0100
0000
0001
0100
0010
0000
,
1000
0001
0100
0000
0001
1000
0100
0000
,
0020
0000
0000
0000
0000
0000
0000
0000
0200
0000
0000
0000
0030
0300
0000
0000
,
0001
0000
1000
0000
0100
1000
0000
0010
0000
0000
1000
0100
0000
0010
0000
0001
,
0000
0000
1000
0010
0000
0100
0000
0001
0000
0000
1000
0010
0000
0100
0000
0001
,
0000
0000
0010
0100
0000
0001
0000
1000
0000
0000
0010
0100
0000
0001
0000
1000
,
0000
0000
0001
0010
0000
0001
0000
0001
0000
0000
1000
0100
0000
1000
0000
1000
,
0000
0000
0001
0010
0000
0100
0000
0100
0000
0000
0001
1000
0000
0010
0000
0010
,
0000
0000
1000
0100
0000
1000
0000
1000
0000
0000
0001
0010
0000
0001
0000
0001
,
0000
0000
0100
0010
0000
0010
0000
0010
0000
0000
1000
0100
0000
0001
0000
0001
,
0000
0000
0001
0010
0000
1000
0000
1000
0000
0000
0100
1000
0000
0010
0000
1000
,
0100
0000
0001
0100
0000
0010
0000
1000
0100
0000
1000
0010
0000
1000
0000
0001
,
0100
0000
0001
0010
0000
0001
0000
1000
0010
0000
1000
0100
0000
0001
0000
0001
,
0100
0000
0010
1000
0000
0001
0000
0001
1000
0000
0010
1000
0000
0100
0000
0100
,
1000
0000
1000
0010
0000
0010
0000
0001
1000
0000
0001
1000
0000
0100
0000
1000
,
0100
0000
0001
0100
0000
0001
0100
0001
0100
0000
0010
1000
0000
0100
1000
0100
,
1000
0000
0001
0010
0000
0001
0100
0001
0100
0000
0010
1000
0000
0010
0100
0001
,
1000
0000
0010
0100
0000
1000
0100
1000
0010
0000
0100
0010
0000
1000
0100
0010
,
0001
0010
0001
0000
0100
0010
0100
0010
0100
0000
0001
0000
0001
1000
0001
1000
,
0200
0000
0000
0300
,
0010
0000
1000
0000
0001
0100
0000
0100
0001
0000
1000
0000
0010
0100
0000
0100
,
0010
0000
1000
0000
0001
0100
0000
0100
0001
0000
1000
0000
0010
0100
0000
0100
,
0010
0000
1000
0000
0001
0010
0000
0010
0001
0000
1000
0000
0010
0100
0000
0100
,
0010
0000
0001
0000
1000
0001
0000
0100
0100
0000
0001
0000
1000
0010
0000
0010
,
0000
0000
1000
0000
0001
0100
0000
0100
0000
0001
1000
0000
0001
0100
0000
0100
,
0000
0010
1000
0000
0010
0100
0000
0100
0000
0001
1000
0000
0001
0100
0000
0001
,
0100
0000
0010
0000
1000
0100
0000
1000
0100
0000
0010
0000
0001
0100
0000
0001
,
0100
0000
0010
0000
1000
0001
0000
0001
0000
0100
0010
0000
0100
0010
0000
2000
,
0002
0000
0000
0000
,
0000
0000
0000
0000
,
3003
0000
0000
0000
;

//---------------dance-single - ----------------
#NOTES:
     dance-single:
     :
     Beginner:
     3:
     0.138,0.162,0.000,0.127,0.000:
0000
0000
0000
0000
,
0000
0000
0000
0000
,
0000
0000
0000
0000
,
0000
0000
0000
0000
,
0000
0000
0000
0000
,
0000
0000
0000
0000
,
1000
0000
1000
0000
,
0001
0000
0001
0000
,
1000
0000
1000
0000
,
0002
0000
0003
0000
,
0000
0100
0000
0100
,
0000
0010
0000
0010
,
0000
0100
0000
0100
,
0000
0001
0000
0001
,
0000
0100
0000
0100
,
0000
0010
0000
0010
,
0000
0100
0000
0100
,
0000
1000
0000
1000
,
2000
0000
3000
0000
,
0020
0000
0030
0000
,
0200
0000
0300
0000
,
0002
0000
0003
0000
,
2000
0000
3000
0000
,
0020
0000
0030
0000
,
0200
0000
0300
0000
,
0002
0000
0003
0000
,
0020
0000
0000
0000
,
0030
0000
0000
0000
,
0200
0000
0000
0000
,
0300
0000
0000
0000
,
0020
0000
0000
0000
,
0030
0000
0000
0000
,
0002
0000
0000
0000
,
0003
0000
0001
0000
,
0001
0000
0001
0000
,
1000
0000
1000
0000
,
0010
0000
0010
0000
,
0100
0000
0100
0000
,
0001
0000
0001
0000
,
1000
0000
1000
0000
,
0020
0000
0030
0000
,
0200
0000
0300
0000
,
0000
1000
0000
1000
,
0000
0001
0000
0001
,
0000
1000
0000
1000
,
0000
0001
0000
0001
,
0000
1000
0000
0001
,
0000
1000
0000
0001
,
0000
0010
0000
0100
,
0000
0010
0000
0100
,
0000
0001
0001
0001
,
0000
1000
1000
1000
,
0000
0001
0001
0001
,
0000
1000
1000
1000
,
0000
0010
0010
0010
,
0000
0100
0100
0100
,
0000
0010
0000
0010
,
0000
0100
0000
0100
,
0100
0000
0000
0000
,
0000
0001
0000
0001
,
0000
0001
0000
0001
,
0000
0001
0000
0001
,
0000
0010
0000
0100
,
0000
1000
0000
1000
,
0000
1000
0000
1000
,
0000
1000
0000
1000
,
0000
0100
0000
0001
,
0002
0000
0000
0000
,
0003
0000
0000
0000
;

//---------------dance-single - ----------------
#NOTES:
     dance-single:
     :
     Easy:
     5:
     0.244,0.301,0.063,0.190,0.000:
0000
0000
0000
0000
,
0000
0000
0000
0000
,
0000
0000
0000
0000
,
0000
0000
0000
0000
,
0000
0000
0000
0000
,
0000
0000
0000
0000
,
1000
0001
1000
0000
,
0001
1000
0001
0000
,
1000
0001
1000
0000
,
0002
0000
2003
0000
,
3000
0100
0001
0100
,
0000
0010
1000
0010
,
0000
0100
0010
0100
,
0000
1001
0000
1001
,
0000
0100
1000
0100
,
0000
0010
0001
0010
,
0000
0100
0010
0100
,
0000
1001
0000
1001
,
2000
0001
3000
0001
,
0020
0100
0030
0100
,
0200
0001
0300
0001
,
0002
1000
0003
0100
,
2000
0010
0000
0010
,
3020
0100
0000
0130
,
0200
0001
0000
0301
,
0002
0000
0203
0000
,
0320
0000
0000
0000
,
2030
0000
0000
0000
,
3200
0000
0000
0000
,
0302
0000
0000
0000
,
2003
0000
0000
0000
,
3020
0000
0000
0000
,
0032
0000
0000
0000
,
0203
0000
0302
0000
,
1003
0100
0001
0000
,
1000
0100
0001
0000
,
0010
0001
0100
0000
,
0010
1000
0100
0000
,
0001
0100
0001
0000
,
1000
0100
1000
0000
,
0020
0000
0030
0000
,
0200
0000
0300
0000
,
0010
1000
0010
1000
,
0010
0001
0010
0001
,
0100
1000
0100
1000
,
0100
0001
0100
0001
,
0010
1000
0100
0001
,
0010
1000
0100
0001
,
0010
0010
0100
0100
,
0001
0010
1000
0100
,
0010
0001
0001
0001
,
0100
1000
1000
1000
,
0100
0001
0001
0001
,
0010
1000
1000
1000
,
0100
0010
0010
0110
,
0010
0100
0100
0110
,
1000
0010
0001
0010
,
1000
0100
0001
0100
,
0110
0000
0000
0000
,
0100
0001
0100
0001
,
1000
0001
1000
0001
,
0010
0001
0010
0001
,
0100
0010
1000
0100
,
0010
1000
0010
1000
,
0001
1000
0001
1000
,
0100
1000
0100
1000
,
0001
0100
1000
0001
,
2002
0000
0000
0000
,
0000
0000
0000
0000
,
3003
0000
0000
0000
;

//---------------dance-double - ----------------
#NOTES:
     dance-double:
     :
     Easy:
     5:
     0.236,0.329,0.087,0.095,0.000: // measure 1
00000000
00000000
00000000
00000000
,  // measure 2
00000000
00000000
00000000
00000000
,  // measure 3
00000000
00000000
00000000
00000000
,  // measure 4
00000000
00000000
00000000
00000000
,  // measure 5
00000000
00000000
00000000
00000000
,  // measure 6
00000000
00000000
00000000
00000000
,  // measure 7
00000100
00010000
00000100
00010000
,  // measure 8
00001000
00100000
00001000
00100000
,  // measure 9
00010000
10000000
00010000
10000000
,  // measure 10
00100000
00010000
00001000
00000100
,  // measure 11
00000001
00000000
00000100
00000000
,  // measure 12
00010000
00000000
01000000
00000000
,  // measure 13
10000000
00000000
01000000
00000000
,  // measure 14
00001000
00000000
00000100
00000000
,  // measure 15
00000001
00000010
00000100
00000000
,  // measure 16
00010000
00100000
01000000
00000000
,  // measure 17
10000000
01000000
00100000
00000000
,  // measure 18
00001000
00000100
00000010
00000000
,  // measure 19
00000001
00001000
00000000
00001000
,  // measure 20
00000000
00010000
00000000
00010000
,  // measure 21
10000000
00010000
00000000
00010000
,  // measure 22
00000000
00001000
00000000
00001000
,  // measure 23
00000001
00001000
00000010
00001000
,  // measure 24
00000100
00001000
00000100
00010000
,  // measure 25
00001000
00100000
00010000
01000000
,  // measure 26
00010000
10000000
00010000
00100000
,  // measure 27
00020000
00000000
00000000
00030000
,  // measure 28
00000020
00000000
00000000
00000030
,  // measure 29
00002000
00000000
00000000
00003000
,  // measure 30
02000000
00000000
00000000
03000000
,  // measure 31
20000000
00000000
00000000
30000000
,  // measure 32
00200000
00000000
00000000
00300000
,  // measure 33
02000000
00000000
00000000
03000000
,  // measure 34
00002000
00000000
00000000
00003000
,  // measure 35
00010000
00000000
00000100
00000000
,  // measure 36
00010000
00000000
01000000
00000000
,  // measure 37
00010000
00000000
00000010
00000000
,  // measure 38
00010000
00000000
00100000
00000000
,  // measure 39
00010000
00001000
00010000
00000010
,  // measure 40
00010000
00001000
00010000
00100000
,  // measure 41
00010000
00001000
00010000
00001000
,  // measure 42
00020000
00000000
00000000
00030000
,  // measure 43
10000000
00100000
00010000
00000000
,  // measure 44
00001000
00000010
00000001
00000000
,  // measure 45
00000001
00000100
00001000
00000000
,  // measure 46
00010000
01000000
10000000
00000000
,  // measure 47
00100000
00100000
10000000
01000000
,  // measure 48
00010000
00010000
00001000
00001000
,  // measure 49
00000010
00000010
00000001
00000100
,  // measure 50
00001000
00001000
00010000
00010000
,  // measure 51
00100000
10010000
01000000
00100000
,  // measure 52
00001000
00011000
00010000
00011000
,  // measure 53
00000010
00001001
00000100
00000010
,  // measure 54
00001000
00011000
00010000
00011000
,  // measure 55
01000000
00100000
10000000
01010000
,  // measure 56
00100000
00001000
00010000
00011000
,  // measure 57
00000100
00001000
00000010
00000101
,  // measure 58
00000010
00001000
00010000
00011000
,  // measure 59
00200000
00000000
00000000
00300000
,  // measure 60
00010000
01000000
00010000
01000000
,  // measure 61
10000000
00010000
10000000
00010000
,  // measure 62
10000000
01000000
00100000
00010000
,  // measure 63
01000000
00001000
00001000
00001000
,  // measure 64
00010000
00000010
00001000
00000010
,  // measure 65
00000100
00000010
00001000
00000001
,  // measure 66
00000010
00000100
00010000
00001000
,  // measure 67
00100000
00001000
00001000
00010000
,  // measure 68
00022000
00000000
00000000
00000000
,  // measure 69
00000000
00000000
00000000
00000000
,  // measure 70
00033000
00000000
00000000
00000000
;
