#TITLE:DO YOU WANT IT;
#SUBTITLE:;
#ARTIST:HOUSE RULEZ;
#TITLETRANSLIT:;
#SUBTITLETRANSLIT:;
#ARTISTTRANSLIT:;
#GENRE:;
#CREDIT:;
#BANNER:DO YOU WANT IT.png;
#BACKGROUND:DO YOU WANT IT-bg.png;
#LYRICSPATH:;
#CDTITLE:;
#MUSIC:DO YOU WANT IT.ogg;
#OFFSET:-0.120000;
#SAMPLESTART:39.632195;
#SAMPLELENGTH:11.707317;
#SELECTABLE:YES;
#BPMS:0.000000=123.000000
;
#STOPS:
;
#BGCHANGES:0.000=DO YOU WANT IT.avi=1.000=0=0=0=StretchNoLoop====,
99999=-nosongbg-=1.000=0=0=0 // don't automatically add -songbackground-
;
#KEYSOUNDS:;
#ATTACKS:;

//---------------dance-single - ----------------
#NOTES:
     dance-single:
     :
     Challenge:
     13:
     0.600558,0.675716,0.457420,0.225080,0.573590,579.000000,516.000000,63.000000,31.000000,0.000000,0.000000,0.600558,0.675716,0.457420,0.225080,0.573590,579.000000,516.000000,63.000000,31.000000,0.000000,0.000000:
0000
0000
0000
0000
,
0000
0000
0000
0000
,
0000
0000
0000
0000
,
0000
0000
0000
0000
,
0000
0000
0000
0000
,
0100
0000
1000
0000
0001
1000
0000
0001
1000
0001
0000
0100
0000
0010
1000
0000
,
0001
0000
1000
0000
0010
0100
0000
0010
0100
0010
0000
0100
0000
0001
0100
0000
,
0010
0000
1000
0000
1100
0000
1000
0010
0000
1000
0000
0001
0100
0000
0001
0000
,
1000
0000
0001
0000
0100
0000
0001
0100
0020
0000
0130
0000
0002
0000
1003
0000
,
0100
0000
1000
0000
0010
0000
0001
0000
0010
0100
0001
0100
0000
0010
1000
0000
,
0010
0000
1000
0000
0100
0000
1000
0000
0010
0100
0001
0100
0000
0010
1000
0000
,
0100
0000
1000
0000
1001
0000
0010
0100
0000
0001
0000
0100
0010
0000
1000
0000
,
0010
0000
1000
0100
0000
0010
0001
0000
0100
0000
0001
0000
0101
0000
0100
0000
,
0210
0000
0000
0000
0001
0000
0000
0000
0000
0000
0000
0000
0301
0000
0100
0010
,
0000
1000
0100
0010
0001
0100
0010
1000
,
0000
1002
0000
0103
0000
0120
0000
1030
,
0000
1002
0000
1003
0000
1200
0000
0310
,
0000
0012
0000
0103
0000
0120
0000
0130
,
0000
0102
0000
1003
0000
1020
0000
0130
,
0001
1000
0010
0100
0001
1000
0010
0100
,
0002
0000
0000
0000
0103
0000
0010
2000
0000
0002
0000
0000
3003
0000
0000
0000
,
1010
0000
0010
0000
0110
0000
0001
0100
0000
0010
0000
1000
0100
0000
1000
0000
,
1010
0000
0010
0000
0110
0000
0001
1000
0000
0001
0000
0010
0100
0000
1000
0000
,
1010
0000
1000
0000
1001
0000
0001
1000
0000
0100
0000
1000
0010
0000
0100
0000
,
0101
0000
1000
0000
1010
0000
0010
0100
0000
0001
0000
1000
0100
0000
0010
0000
,
0011
0000
0001
0000
1001
0000
1000
0010
0000
0100
0000
0001
0100
0000
0010
0000
,
1010
0000
1000
0000
1001
0000
0001
0100
0000
0010
0000
1000
0010
0000
1000
0000
,
0101
0000
1001
0000
1010
0000
0010
0100
0000
0001
0000
1000
0001
0000
0010
0000
,
0001
0000
0000
0000
0010
0000
1000
0010
0000
0100
0000
0000
1001
0000
0000
0000
,
0020
0030
2002
3003
,
0010
0000
0000
0010
0000
0000
0100
0000
1001
0000
0000
0000
0110
0000
0000
0000
,
2000
3100
0002
0103
,
1000
0000
0000
1000
0001
0000
0100
0010
0000
0100
0000
0000
1001
0000
0000
0000
,
0020
0030
2002
3003
,
0100
0000
0000
0100
0000
0000
0010
0000
1001
0000
0000
0000
0110
0000
0000
0000
,
0002
0013
2000
3010
,
0001
0000
0000
0001
1000
0000
0010
0100
0000
0010
0000
0000
1001
0000
0000
0000
,
1000
0100
2000
0000
3001
0100
0001
0200
,
0000
0000
0310
0000
1000
0000
0100
0000
1000
0000
0010
0000
0001
0000
0100
0010
,
0100
0000
1001
0000
0000
0000
0010
0100
0010
0000
1001
0000
0000
0000
0100
0010
,
0100
0000
0001
0000
1000
0000
0001
0010
0000
0010
0000
0001
0100
0000
0010
0000
,
1000
0100
2000
0000
3001
0010
0100
2000
,
0000
0000
3001
0000
0100
0000
0010
0000
0100
0000
0001
0000
1000
0001
1000
0000
,
1000
0000
1001
0000
0000
0000
0001
1000
0001
0000
1001
0000
0000
0000
0010
0000
,
0010
1010
0001
0101
0020
0000
0130
0000
,
1001
0000
0100
0001
1000
0000
0001
1000
0010
0000
0010
1000
0100
0000
1000
0001
,
0010
0000
0010
0001
0100
0000
0010
1000
0100
0000
1000
0100
0010
0000
0010
0001
,
0100
0000
0100
0000
0100
0000
0100
0000
1000
0100
0010
0001
1000
0100
0010
0001
,
0000
0000
0000
0000
0010
0000
0100
0010
0000
0020
0000
0000
1030
0000
0000
0000
,
0010
0000
0100
0000
1001
0000
0100
0000
0001
0100
0001
0100
0001
0000
1000
0000
,
0100
0000
1000
0000
1010
0000
1000
0000
0001
0100
0010
1000
0100
0000
1000
0000
,
0001
0000
1001
0000
0101
0000
0010
0000
1000
0100
1000
0010
0100
0000
1000
0000
,
0001
0010
0011
1000
0100
1100
1001
0000
,
0010
0000
1000
0100
0010
0000
1000
0000
0001
0100
0010
1000
0000
0001
0000
1000
,
0010
0000
0100
0001
0100
0000
0010
0000
1000
0100
0010
0001
0000
0100
0000
0010
,
1000
0000
0100
1000
0000
0001
1000
0000
0010
0100
0001
0100
0010
0100
0001
0000
,
1000
0000
0000
0000
0001
0000
1000
0010
0000
0020
0000
0000
0130
0000
0000
0000
,
0010
0000
1000
0000
1100
0000
1000
0010
0000
0100
0000
0001
0000
1001
0000
0000
,
0010
0000
0001
0000
0101
0000
0010
1000
0000
0100
0000
1000
0000
1001
0000
0000
,
0010
0000
0001
0100
0010
0000
1000
0100
1000
0000
0010
0001
0100
0000
0010
1000
,
0100
0000
1000
0001
0100
0000
0010
1000
0000
1010
0000
0101
0000
1001
0000
0000
,
0010
0000
1000
0100
1000
0000
0001
0100
0010
1000
0000
1100
0000
1001
0000
0000
,
0110
0000
0001
0100
0010
0000
1000
0010
0000
1000
0000
1010
0000
1001
0000
0000
,
0001
0000
0100
0010
1000
0000
0010
0100
0001
0000
1000
0100
0010
0000
0001
0100
,
0010
0000
1000
0001
0100
0001
1000
0001
0000
0100
0010
0100
0010
1000
0010
1000
,
0010
0000
0100
0000
0101
0000
0010
1000
0000
0100
0000
0100
0000
0100
0000
0000
,
0010
0000
1000
0000
0001
0000
0100
0010
0000
0010
0000
0010
0000
0010
0000
0000
,
1000
0000
0100
0000
0010
0000
1000
0001
0000
1000
0000
0000
0010
0000
0100
0001
,
0000
1000
0000
0000
0001
0000
0100
0010
0000
1000
0000
0000
0001
0010
0100
1000
;

//---------------dance-double - ----------------
#NOTES:
     dance-double:
     :
     Challenge:
     14:
     0.598484,0.650689,0.261383,0.159734,0.584481,577.000000,541.000000,36.000000,22.000000,0.000000,0.000000,0.598484,0.650689,0.261383,0.159734,0.584481,577.000000,541.000000,36.000000,22.000000,0.000000,0.000000:
00000000
00000000
00000000
00000000
,
00000000
00000000
00000000
00000000
,
00000000
00000000
00000000
00000000
,
00000000
00000000
00000000
00000000
,
00000000
00000000
00000000
00000000
,
00100000
00000000
10000000
00000000
00010000
00000000
00100000
00000000
00001000
00010000
00000000
00000100
00000000
00001000
00000001
00000000
,
00001000
00000000
00000100
00000000
00010000
00000000
00001000
00000000
00100000
00010000
00000000
01000000
00000000
00100000
10000000
00000000
,
01000000
00000000
10000000
00000000
01000000
00000000
10000000
00100000
00000000
01000000
00000000
00010000
00100000
00000000
00001000
00000000
,
00010000
00000000
00000010
00000000
00001000
00000000
00000001
00001000
00000000
00000100
00000000
00010000
00001000
00000000
01000000
00000000
,
00100000
00000000
10000000
00000000
01000000
00000000
10000000
00000000
00100000
01000000
00010000
01000000
00000000
00100000
01000000
00000000
,
00001000
00000000
00010000
00000000
00000010
00000000
00000100
00000000
00000001
00001000
00000100
00001000
00000000
00000001
00001000
00000000
,
00000100
00000000
00010000
00000000
00001000
00000000
00100000
00010000
00000000
01000000
00000000
10000000
01000000
00000000
00010000
00000000
,
00100000
00000000
00001000
00010000
00000000
00000100
00001000
00000000
00000001
00001000
00000100
00000000
00001000
00000000
00000010
00000000
,
00002000
00000000
00000000
00000000
00000000
00000000
00000000
00000000
00003000
00000000
00000000
00000000
00000100
00000000
00010000
00000200
,
00000000
00000000
00010300
00000000
00001000
00000000
01000000
00000000
00100000
00000000
10000000
01000000
00100000
00000000
00020000
00000000
,
01000000
01030000
00000000
00002000
00010000
00013000
00000000
00000020
,
00001000
00001030
00000000
00000002
00000100
00000103
00000000
00020000
,
00000100
00030100
00000000
02000000
00010000
03010000
00000000
20000000
,
00100000
30100000
00000000
02000000
00001000
00002000
00000000
03003000
,
00011000
00010100
00011000
01001000
,
01100000
00000000
00000000
00000000
10000000
00000000
00100000
01000000
00000000
20020000
00000000
00000000
30030000
00000000
00000000
00000000
,
10000000
00100000
01000000
00000000
00010000
00000000
00100000
00001000
00000000
00010000
00000000
00000010
00000100
00000000
00000001
00000000
,
00001000
00000010
00000100
00000000
00000010
00000000
00001000
00000100
00000000
00010000
00000000
00001000
01000000
00000000
00100000
00000000
,
10000000
01000000
00100000
00000000
00010000
00000000
01000000
00001000
00000000
00010000
00000000
00000100
00001000
00000000
00000010
00000000
,
00000100
00000001
00001000
00000000
00000100
00000000
00010000
00001000
00000000
00100000
00000000
00010000
01000000
00000000
00100000
00000000
,
10000000
01000000
00100000
00010000
01000000
00000000
00010000
00100000
00000000
00001000
00000000
00010000
00000010
00000000
00001000
00000000
,
00000001
00000100
00000010
00001000
00000100
00000000
00001000
00000100
00000000
00010000
00000000
00001000
01000000
00000000
00100000
00000000
,
10000000
00010000
01000000
00100000
01000000
00000000
00001000
00010000
00000000
00000100
00000000
00001000
00000010
00000000
00000100
00000000
,
00000001
00000000
00001000
00000000
00000100
00000000
00010000
00001000
00000000
00001000
00000000
00000000
00110000
00000000
00000000
00000000
,
20020000
30030000
00011000
00000000
,
00001100
00000000
00000000
00000101
00000000
00000000
00001000
00000000
00001100
00000000
00000000
00000000
00110000
00000000
00000000
00000000
,
10000000
01010000
00001000
00000101
,
00000010
00000000
00000000
00000000
00001000
00000000
00000100
00010000
00000000
00001000
00000000
00000000
00011000
00000000
00000000
00000000
,
00110000
10000000
00110000
00001000
,
00000110
00000000
00000000
00001010
00000000
00000000
00000110
00000000
00001010
00000000
00000000
00000000
00101000
00000000
00000000
00000000
,
10100000
00110000
00001010
00000011
,
00001001
00000000
00000000
00001100
00000000
00000000
00000101
00000000
00001001
00000000
00000000
00000000
00011000
00000000
00000000
00000000
,
00200000
00000000
00310000
01000000
00100000
20000000
00000000
30020000
,
00000000
00000000
00130000
00000000
00001000
00000000
00010000
00000000
00000010
00000000
00001000
00000100
00000010
00000000
00000002
00000000
,
00000100
00000103
00000010
00002000
00000100
00003100
00010000
00002000
,
01000000
00000000
01003000
00000000
00100000
00000000
10000000
00000000
01000000
00100000
00010000
00000000
01000000
00000000
00100000
00000000
,
20000000
00000000
30100000
01000000
00001000
00010000
00001000
00010000
,
00000010
00000000
00000100
00000000
00000001
00000000
00001000
00000000
00000100
00000000
00000010
00000000
00000001
00000000
00001000
00000100
,
00010000
00000000
00001000
00000000
00100000
00000000
00010000
01000000
00100000
00000000
10000000
00000000
01000000
00000000
00100000
00010000
,
01000000
00100000
10000000
00100000
01000000
00001000
00010000
00000000
,
00010100
00000000
00000100
00001000
00000010
00000000
00000100
00000001
00000010
00000000
00000001
00001000
00000100
00000000
00001000
00000100
,
00010000
00000000
00001000
00100000
00010000
00000000
01000000
00100000
10000000
00000000
01000000
00100000
00010000
00000000
01000000
00001000
,
00010000
00000000
00000100
00000000
00001000
00000000
00000001
00000000
00001000
00000100
00000010
00000001
00001000
00000100
00000010
00000001
,
00000000
00000000
00000000
00000000
00001000
00000000
00100000
00010000
00000000
01000000
00000000
00000000
10010000
00000000
00000000
00000000
,
10000000
00000000
01000000
00000000
00100000
00000000
00010000
00000000
00001000
00000100
00000010
00000001
00001000
00000000
00001000
00000000
,
00000001
00000000
00000010
00000000
00000100
00000000
00001000
00000000
00010000
00100000
01000000
10000000
00010000
00000000
00010000
00000000
,
10000000
00000000
00100000
01000000
00001000
00000000
00010000
00000000
00000010
00000000
00001000
00000100
00000010
00000000
00000001
00000000
,
00000100
00000000
00000010
00000000
00001000
00000000
00000100
00010000
00000000
00001000
00000000
00000000
00011000
00000000
00000000
00000000
,
00001000
00100000
00010000
00000000
01000000
00000000
00100000
10000000
01000000
00100000
00010000
00000000
01000000
00000000
00001000
00010000
,
00001000
00000000
00010000
00000000
00000100
00000000
00001000
00000100
00000010
00000001
00000100
00000000
00000010
00000000
00001000
00000100
,
00010000
00000000
00001000
00000000
01000000
00000000
00010000
00100000
01000000
10000000
00100000
00000000
01000000
00010000
00100000
00000000
,
00001000
00000000
00010000
00000000
00000010
00000000
00001000
00000100
00000000
00001001
00000000
00000000
00000010
00000000
00000000
00000000
,
00000001
00000000
00000100
00000000
00000010
00000000
00001000
00000100
00000000
00010000
00000000
00001000
01000000
00000000
00100000
10000000
,
01000000
00000000
10000000
00000000
00100000
00000000
01000000
00010000
00000000
00100000
00000000
00001000
00010000
00000000
00000100
00001000
,
00000010
00000000
00000100
00000000
00000001
00001000
00000100
00001000
00000001
00000000
00001000
00000000
00000100
00000000
00010000
00001000
,
00100000
00001000
00010000
00000000
00001000
00000000
00100000
00010000
01000000
00010000
00000000
00100000
00000000
00010000
01000000
00100000
,
10000000
00000000
01000000
00000000
10000000
01000000
00100000
00010000
00000000
01000000
00000000
00001000
00000000
00010000
00000000
00000010
,
00001000
00000000
00000100
00000000
00001000
00000010
00000100
00000001
00000000
00001000
00000000
00000100
00000000
00010000
00000000
00001000
,
00100000
00000000
00010000
01000000
00100000
00000000
10000000
00100000
01000000
00000000
00010000
00100000
00001000
00000000
00010000
00000100
,
00001000
00000000
00000010
00000000
00001000
00000100
00000010
00000001
00000000
00001000
00000100
00000010
00000001
00001000
00000100
00010000
,
00001000
00000000
00100000
00000000
00010000
00000000
01000000
00100000
00000000
10000000
00000000
01000000
00000000
00010000
00000000
00000000
,
00100000
00000000
00001000
00000000
00010000
00000000
00000010
00001000
00000000
00000001
00000000
00000100
00000000
00001000
00000000
00000000
,
00000010
00000000
00001000
00000100
00001000
00000000
00000001
00000100
00000000
00000000
00010000
00001000
00010000
00000000
00001000
00100000
,
00000000
00010000
00000000
00000000
01000000
00000000
00100000
10000000
00000000
00010000
00000000
00000000
10000000
01000000
00100000
00010000
;

//---------------dance-double - ----------------
#NOTES:
     dance-double:
     :
     Hard:
     9:
     0.388963,0.450069,0.530026,0.116170,0.174255,375.000000,302.000000,73.000000,16.000000,0.000000,0.000000,0.388963,0.450069,0.530026,0.116170,0.174255,375.000000,302.000000,73.000000,16.000000,0.000000,0.000000:
00000000
00000000
00000000
00000000
,
00000000
00000000
00000000
00000000
,
00000000
00000000
00000000
00000000
,
00000000
00000000
00000000
00000000
,
00000000
00000000
00000000
00000000
,
10010000
00000000
00000000
00000000
01010000
00000000
00000000
00000000
00100000
00000000
00000000
00001000
00000000
00000000
00010000
00000000
,
00001000
00000000
00000000
00000000
00010100
00000000
00000000
00000000
00000010
00000000
00000000
00001000
00000000
00000000
00000100
00000000
,
00001000
00000101
00001100
00011000
,
00110000
00000000
10010000
00000000
10000000
00100000
01000000
00000000
,
10010000
00000000
00000000
00000000
11000000
00000000
00000000
00000000
00100000
00000000
00000000
00010000
00000000
00000000
00100000
00000000
,
00001000
00000000
00000000
00000000
00011000
00000000
00000000
00000000
00000100
00000000
00000000
00001000
00000000
00000000
00000010
00000000
,
00000100
00001001
00010000
00011000
,
00100000
00000000
00000000
00010000
00000000
00000000
00010000
00000000
01000000
00000000
00000000
00000000
00100000
00000000
00000000
00000000
,
20000000
00000000
00000000
00000000
00000000
00000000
00000000
00000000
00000000
00000000
00000000
00000000
30010000
00000000
00000000
00010000
,
00000000
00100000
00001000
00010000
00000010
00000000
00001000
00000001
,
00000000
00001000
00000000
00010000
00000000
10000000
00000000
11000000
,
00000000
01010000
00000000
00011000
00000000
00001100
00000000
00000011
,
00000000
00001010
00000000
00011000
00000000
00110000
00000000
01010000
,
00000000
10100000
00000000
01010000
00000000
00022000
00000000
00000000
,
00000000
00000000
00000000
00033000
,
00000000
00000000
00000000
00000000
00000010
00000000
00000000
00001000
00000000
00000001
00000000
00000000
00001001
00000000
00000000
00000000
,
00000100
00000000
00000000
00000000
00001001
00000000
00000000
00000001
00000000
00000000
00000001
00000000
00001000
00000000
00000100
00000000
,
00010000
00000000
00000000
00000000
00011000
00000000
00000000
00001000
00000000
00000000
00001000
00000000
01000000
00000000
00100000
00000000
,
10000000
00000000
00000000
00000000
10010000
00000000
00000000
00010000
00000000
00000000
00010000
00000000
00100000
00000000
00001000
00000000
,
00010000
00000000
00000000
00000000
00010100
00000000
00000000
00000100
00000000
00000000
00001000
00000000
00000010
00000000
00000100
00000000
,
00000001
00000000
00000000
00000000
00001100
00000000
00000000
00000100
00000000
00000000
00000100
00000000
00010000
00000000
00001000
00000000
,
01000000
00000000
00000000
00000000
01010000
00000000
00000000
00010000
00000000
00000000
00010000
00000000
01000000
00000000
00100000
00000000
,
10000000
00000000
00000000
00000000
01010000
00000000
00000000
00010000
00000000
00000000
00100000
00000000
00001000
00000000
00010000
00000000
,
00000100
00000000
00000000
00000000
00001000
00000000
00000000
00000001
00000000
00000001
00000000
00000000
00001001
00000000
00000000
00000000
,
00002002
00003003
00002200
00003300
,
00000010
00000000
00000000
00000010
00000000
00000000
00001000
00000000
00000001
00000000
00000000
00000000
00001100
00000000
00000000
00000000
,
00000000
00101000
00000000
00010100
,
00000000
00011000
00000000
00101000
,
00220000
00330000
22000000
33000000
,
00100000
00000000
00000000
00100000
00000000
00000000
10000000
00000000
00010000
00000000
00000000
00000000
10010000
00000000
00000000
00000000
,
00000000
00011000
00000000
00001010
,
00000001
00000000
00000000
00000001
00000000
00000000
00001000
00000000
00000100
00000000
00000000
00000000
00001100
00000000
00000000
00000000
,
00010000
00000000
00002000
00000000
00003000
00000000
00100000
00002000
,
00000000
01003000
00010000
00000000
10000000
01000000
00100000
00010000
,
00000000
00100000
00000000
00001000
00000000
00010000
00000000
00000010
,
00000000
00001000
00000100
00001000
00000000
00000001
00000100
00000010
,
00000100
00000000
00000002
00000000
00000000
00000000
00001003
00000100
,
00000000
00010000
00001000
00100000
00010000
00000000
01000000
00100000
,
00000000
10010000
00000000
00100000
00000000
00011000
00000000
00000100
,
00000000
00001010
00000000
00000001
00000100
00000010
00001000
00000000
,
00001100
00001100
00110000
00110000
,
10100000
10100000
01001000
01001000
,
00010000
00000100
00001000
00000100
00020000
00000000
00032000
00000000
,
00003000
00000000
00000000
00000000
00100000
00000000
00000000
01000000
00000000
00010000
00000000
00000000
10010000
00000000
00000000
00000000
,
10000000
01000000
00100000
00000000
00010000
00010000
00110000
00000000
,
00001000
00010000
00000100
00000000
00001000
00001000
00001010
00000000
,
00000001
00000100
00001000
00000000
00000100
00000100
00001100
00000000
,
00010000
00001000
01000000
00000000
00100000
00100000
01100000
00000000
,
10000000
00100000
01000000
00010000
10000000
00000000
01010000
00000000
,
00100000
00001000
00010000
00000000
00000100
00000000
00001010
00000000
,
00000001
00000100
00000010
00000000
00001000
00000000
00011000
00000000
,
00100000
00000000
00000000
00000000
00010000
00000000
00000000
01000000
00000000
00100000
00000000
00000000
10010000
00000000
00000000
00000000
,
00100000
00000000
00000000
00000000
10000000
00000000
00000000
10000000
00000000
00010000
00000000
01000000
00000000
00100000
00000000
00000000
,
01000000
00000000
00000000
00000000
00001000
00000000
00000000
00010000
00000000
00000100
00000000
00001000
00000000
00000100
00000000
00000000
,
00001000
00000000
00000000
00000000
00000001
00000000
00000000
00000001
00000000
00000000
00000000
00000000
00001000
00000000
00000000
00001000
,
00000000
00000000
00000000
00000000
00000010
00000000
00000000
00000010
00000000
00000000
00001000
00000000
00000100
00000000
00010000
00000000
,
00001000
00000000
00000000
00000000
00100000
00000000
00000000
00010000
00000000
01000000
00000000
10000000
00000000
01000000
00000000
00000000
,
00010000
00000000
00000000
00000000
00100000
00000000
00000000
00001000
00000000
00010000
00000000
00000100
00000000
00010000
00000000
00000000
,
00000010
00000000
00000000
00000000
00001010
00000000
00000000
00000010
00000000
00000000
00000000
00000000
00000101
00000000
00000000
00000100
,
00000000
00000000
00000000
00000000
00001100
00000000
00000000
00000100
00000000
00000000
00010000
00000000
00001000
00000000
00100000
00000000
,
00010000
00000000
00000000
00000000
01000000
00000000
00000000
01000000
00000000
00000000
01000000
00000000
00000000
00000000
00000000
00000000
,
00010000
00000000
00000000
00000000
00000100
00000000
00000000
00000100
00000000
00000000
00000100
00000000
00000000
00000000
00010000
00000000
,
00000100
00001010
00000100
00011000
,
00100000
00000000
10010000
00000000
01000000
00000000
00001000
00010000
;

//---------------dance-double - ----------------
#NOTES:
     dance-double:
     :
     Medium:
     7:
     0.271755,0.399335,0.297686,0.319468,0.000000,262.000000,221.000000,41.000000,44.000000,0.000000,0.000000,0.271755,0.399335,0.297686,0.319468,0.000000,262.000000,221.000000,41.000000,44.000000,0.000000,0.000000:
00000000
00000000
00000000
00000000
,
00000000
00000000
00000000
00000000
,
00000000
00000000
00000000
00000000
,
00000000
00000000
00000000
00000000
,
00000000
00000000
00000000
00000000
,
00100000
10010000
00100000
00010000
,
00000010
00001001
00000010
00010000
,
00002000
00003000
00020000
00030000
,
00002000
00003000
00200000
00320000
,
01030000
10010000
01000000
00001000
,
00010000
00000100
00001001
00000100
,
00020000
00030000
00002000
00003000
,
00100000
00010000
02000000
03000000
,
00200000
00000000
00300000
10000000
,
00010000
00000000
01000000
00000000
00100000
00000000
00000000
10000000
,
00000000
10000000
00000000
00010000
00000000
00010000
00000000
00100000
,
00000000
00100000
00000000
00001000
00000000
00001000
00000000
00010000
,
00000000
00010000
00000000
00000010
00000000
00000010
00000000
00000100
,
00000000
00000100
00000000
00000002
00000000
00002000
00000000
00000000
,
00000000
00000000
00003003
00000000
,
00000000
00000200
00000020
00000330
,
00000001
00000100
00001000
00010000
,
01000000
20000000
30020000
02030000
,
03200000
00000000
10300000
00010000
00000000
00200000
00000000
00000000
,
00000000
10000000
00000000
00010000
00000000
10000000
00000000
00310000
,
00000000
00000000
00110000
00000000
00100000
00001000
00010000
00000000
,
00000100
00000000
00002000
00000000
00003002
00000000
00001003
00000100
,
00000000
00001001
00000000
00000110
,
00000000
00000010
00000220
00000330
,
00002020
00003030
00000202
00000303
,
00001000
00000100
00010000
00001000
,
00000000
01010000
00000000
10010000
,
00000000
01010000
00000000
00010000
,
00022000
00033000
00002020
00003030
,
00000001
00000100
00001000
00002002
,
00003003
00022000
00033000
10010000
,
00100000
10000000
01000000
10010000
,
10000000
00200000
00000000
01300000
,
00010000
00000000
00100000
00000000
00001000
00000000
00010000
00000100
,
00000000
00001100
00000000
00000010
00000000
00001010
00000000
00000001
,
00000000
00000010
00001000
00000100
,
00000010
00000002
00000000
00001003
,
00000100
00000000
00010000
00000000
00001000
00000000
00000000
00110000
,
00000000
00010000
00000000
01010000
00000000
01000000
00000000
00100000
,
10000000
01000000
02200000
03300000
,
10000000
01000000
00100000
00010000
,
00001000
00000100
00000010
00000001
,
00001000
00000001
00002002
00003003
,
00000000
00000020
00000200
00000330
,
00000001
00000100
00001000
00001100
,
00010000
00001000
01000000
01010000
,
10000000
01000000
00010000
00110000
,
00001000
00010000
00000010
00001010
,
00000001
00000100
00000010
00001000
,
00010000
01000000
00100000
10000000
,
01000000
00100000
00010000
00001000
,
00010000
00000200
00002000
00003300
,
00000010
00000001
00000101
00001100
,
00010000
00100000
00110000
11000000
,
00100000
10000000
00100000
00000000
00010000
01000000
00010000
00000000
,
00100000
00001000
00010000
00000000
00000100
00001000
00000010
00000000
,
00001010
00000000
00000101
00000000
00001000
00000100
00010000
00000000
,
00011000
00000000
00110000
00000000
00010000
01000000
00100000
00000000
,
10100000
00000000
01010000
00000000
10000000
00010000
01000000
00000000
,
01010000
00000000
00101000
00000000
00010000
00000100
00001000
00000000
,
00000000
00000010
00000000
00000010
,
00000000
00001000
00000000
00001000
,
00000000
00010000
00000000
00010000
,
00000000
01000000
00000000
01000000
;

//---------------dance-single - ----------------
#NOTES:
     dance-single:
     :
     Medium:
     6:
     0.271755,0.399335,0.304947,0.319468,0.000000,262.000000,220.000000,42.000000,44.000000,0.000000,0.000000,0.271755,0.399335,0.304947,0.319468,0.000000,262.000000,220.000000,42.000000,44.000000,0.000000,0.000000:
0000
0000
0000
0000
,
0000
0000
0000
0000
,
0000
0000
0000
0000
,
0000
0000
0000
0000
,
0000
0000
0000
0000
,
0010
1001
0010
0001
,
0010
1001
0010
1000
,
0002
0003
2000
3000
,
0002
2003
3020
0230
,
0310
1001
0100
1001
,
0010
1001
0100
1001
,
0020
0030
0200
0300
,
0010
0001
0200
0300
,
0020
0000
0030
1000
,
0001
0000
0100
0000
0010
0000
0000
1000
,
0000
1000
0000
0001
0000
0001
0000
0010
,
0000
0010
0000
0100
0000
0100
0000
0001
,
0000
0001
0000
1000
0000
1000
0000
0010
,
0000
0010
0000
2000
0000
0002
0000
0000
,
0000
0000
3003
0000
,
0000
0020
0200
0330
,
1000
0100
0010
0001
,
0100
2000
3002
0203
,
0320
0000
1030
0001
0000
0020
0000
0000
,
0000
1000
0000
0001
0000
1000
0000
0031
,
0000
0011
0010
0001
,
0100
0000
0020
0000
2030
0000
3100
1000
,
0000
0110
0000
1001
,
0000
0100
0220
0330
,
2020
3030
0202
0303
,
1000
0100
0010
0001
,
0000
1001
0000
0110
,
0000
0001
0100
0010
,
2000
3000
2002
3003
,
0010
0100
1000
2002
,
3003
0220
0330
1001
,
0010
1000
0100
1001
,
1000
0020
0000
0130
,
0001
0000
0010
0000
0100
0000
1000
0010
,
0000
0110
0000
0001
0000
1001
0000
1000
,
0000
1000
0100
0010
,
0001
0200
0000
0310
,
1000
0000
0001
0000
1000
0000
0000
0011
,
0000
0001
0000
0101
0000
0100
0000
0010
,
1000
0100
0220
0330
,
1000
0100
0010
0001
,
0001
0010
0100
1000
,
0001
1000
2002
3003
,
0000
0200
0020
0330
,
0001
0010
1000
1010
,
0001
0010
0100
0101
,
1000
0100
0001
0011
,
1000
0001
0100
0110
,
0001
0100
1000
1001
,
1000
0100
0001
1001
,
0100
0010
0001
1000
,
0001
2000
0200
3300
,
0010
1000
1100
0101
,
0001
0010
0011
1010
,
0010
1000
0010
0000
0001
0100
0001
0000
,
0010
0001
0100
1000
,
0010
0100
0010
0000
1001
0000
0110
0000
,
1000
0001
1000
0000
0010
0000
0110
0000
,
1010
0000
0101
0000
1000
0001
0100
0000
,
0101
0000
1010
0000
0001
1000
0100
0000
,
0000
1000
0000
1000
,
0000
0010
0000
0010
,
0000
0001
0000
0001
,
0000
0100
0000
0100
;

//---------------dance-single - ----------------
#NOTES:
     dance-single:
     :
     Easy:
     4:
     0.200186,0.249584,0.094388,0.166995,0.000000,193.000000,180.000000,13.000000,23.000000,0.000000,0.000000,0.200186,0.249584,0.094388,0.166995,0.000000,193.000000,180.000000,13.000000,23.000000,0.000000,0.000000:
0000
0000
0000
0000
,
0000
0000
0000
0000
,
0000
0000
0000
0000
,
0000
0000
0000
0000
,
0000
0000
0000
0000
,
0010
1000
0010
1000
,
0010
0001
0010
0001
,
0020
0030
0200
0300
,
0001
1000
0001
0000
,
0100
1000
0100
1000
,
0100
0001
0100
0001
,
0200
0300
0020
0030
,
1000
0001
1000
0000
,
0002
0000
0000
1003
,
0000
0100
0000
0010
,
0000
0001
0000
0010
,
0000
0100
0000
0001
,
0000
1000
0000
0010
,
0000
2000
0000
0002
,
0000
0000
3003
0000
,
0000
0020
0200
0330
,
1000
0100
0000
0001
,
0000
1000
0100
0010
,
0001
0000
1000
0000
,
0001
0010
0100
1000
,
0001
1000
0000
0010
,
0000
0001
0010
0100
,
1000
0100
0010
0001
,
0000
0200
0020
0330
,
1001
0000
0110
0000
,
0001
1000
0001
0000
,
0000
1001
0000
0110
,
0000
0020
0200
0330
,
1001
0000
0110
0000
,
0010
0100
0010
0100
,
0000
1001
0000
1001
,
0000
0002
2000
3003
,
0010
0020
0000
0130
,
0000
0001
1000
0001
,
0000
0110
0000
1001
,
0000
1000
0001
1000
,
0000
0200
0000
0310
,
0000
0001
1000
0001
,
0000
1001
0000
0110
,
0000
0200
0020
0330
,
1000
0100
0010
0001
,
0001
0010
0100
1000
,
0001
1000
2002
3003
,
0000
0200
0020
0330
,
0001
0010
1000
0000
,
0001
0010
1000
0000
,
1000
0100
0001
0000
,
1000
0100
0001
0000
,
0001
0010
1000
0000
,
1000
0010
0001
0000
,
0001
0100
1000
0000
,
1000
0100
0001
0000
,
0010
1000
0100
0001
,
0001
0010
0100
1000
,
0010
1000
0100
0001
,
0010
0001
0100
1000
,
0010
0100
1000
0001
,
0010
0100
0001
1000
,
0010
0100
1000
0001
,
0010
0100
0001
1000
,
0000
0001
0000
0001
,
0000
0010
0000
0010
,
0000
1000
0000
1000
,
0000
0100
0000
0100
;

//---------------dance-single - ----------------
#NOTES:
     dance-single:
     :
     Beginner:
     2:
     0.126542,0.148661,0.007261,0.014521,0.000000,122.000000,121.000000,1.000000,2.000000,0.000000,0.000000,0.126542,0.148661,0.007261,0.014521,0.000000,122.000000,121.000000,1.000000,2.000000,0.000000,0.000000:
// measure 0
0000
0000
0000
0000
,  // measure 1
0000
0000
0000
0000
,  // measure 2
0000
0000
0000
0000
,  // measure 3
0000
0000
0000
0000
,  // measure 4
0000
0000
0000
0000
,  // measure 5
0000
1000
0000
1000
,  // measure 6
0000
0001
0000
0001
,  // measure 7
0000
0010
0000
0100
,  // measure 8
0000
0010
0000
0100
,  // measure 9
0000
1000
0000
1000
,  // measure 10
0000
0001
0000
0001
,  // measure 11
0000
0100
0000
0010
,  // measure 12
0000
0100
0000
0010
,  // measure 13
0000
1000
0000
1000
,  // measure 14
0000
0001
0000
0001
,  // measure 15
0000
1000
0000
1000
,  // measure 16
0000
0001
0000
0001
,  // measure 17
0000
1000
0000
0001
,  // measure 18
0000
1000
0000
0001
,  // measure 19
0000
0000
0000
0000
,  // measure 20
0000
0010
0010
0000
,  // measure 21
0000
0100
0000
0100
,  // measure 22
0000
0010
0000
0010
,  // measure 23
0000
1000
0000
1000
,  // measure 24
0000
0001
0000
0001
,  // measure 25
0000
1000
0000
0100
,  // measure 26
0000
0010
0000
0001
,  // measure 27
0000
1000
0000
0001
,  // measure 28
0000
1000
1000
0000
,  // measure 29
0001
0000
0001
0000
,  // measure 30
1000
0000
1000
0000
,  // measure 31
0000
0010
0000
0010
,  // measure 32
0000
0000
0000
0000
,  // measure 33
0010
0000
0010
0000
,  // measure 34
0100
0000
0100
0000
,  // measure 35
0000
1000
0000
0001
,  // measure 36
0000
0000
0000
0000
,  // measure 37
0000
0100
0000
0100
,  // measure 38
0000
0001
0000
0001
,  // measure 39
0000
0100
0000
0100
,  // measure 40
0000
1000
0000
1000
,  // measure 41
0000
0010
0000
0010
,  // measure 42
0000
0001
0000
0001
,  // measure 43
0000
0010
0000
0010
,  // measure 44
0000
1000
0000
1000
,  // measure 45
1000
0000
1000
0000
,  // measure 46
0001
0000
0001
0000
,  // measure 47
0001
1000
0001
0000
,  // measure 48
0000
2002
3003
0000
,  // measure 49
0001
0000
1000
0000
,  // measure 50
0001
0000
1000
0000
,  // measure 51
1000
0000
0001
0000
,  // measure 52
1000
0000
0001
0000
,  // measure 53
0010
0000
0100
0000
,  // measure 54
0010
0000
0100
0000
,  // measure 55
0100
0000
0010
0000
,  // measure 56
0100
0000
0010
0000
,  // measure 57
1000
0000
0100
0000
,  // measure 58
0001
0000
0100
0000
,  // measure 59
1000
0000
0010
0000
,  // measure 60
0001
0000
0010
0000
,  // measure 61
0010
0000
1000
0000
,  // measure 62
0010
0000
0001
0000
,  // measure 63
0100
0000
1000
0000
,  // measure 64
0100
0000
0001
0000
,  // measure 65
0000
0001
0000
0001
,  // measure 66
0000
0010
0000
0010
,  // measure 67
0000
1000
0000
1000
,  // measure 68
0000
0100
0000
0000
;

//---------------dance-double - ----------------
#NOTES:
     dance-double:
     :
     Easy:
     5:
     0.187739,0.249584,0.058085,0.181516,0.000000,181.000000,173.000000,8.000000,25.000000,0.000000,0.000000,0.187739,0.249584,0.058085,0.181516,0.000000,181.000000,173.000000,8.000000,25.000000,0.000000,0.000000:
00000000
00000000
00000000
00000000
,
00000000
00000000
00000000
00000000
,
00000000
00000000
00000000
00000000
,
00000000
00000000
00000000
00000000
,
00000000
00000000
00000000
00000000
,
10000000
00000000
00100000
00000000
,
00001000
00000000
00000010
00000000
,
00000001
00000000
00000100
00000000
,
00010000
00000000
01000000
00000000
,
10000000
00010000
10000000
00000000
,
00010000
00000000
00001000
00000000
,
00000100
00000000
00000010
00000000
,
00000001
00001000
00000001
00000000
,
00000020
00000000
00000000
00000030
,
00002000
00000000
00000000
00003000
,
00000200
00000300
00020000
00030000
,
02000000
03000000
20000000
30000000
,
02000000
03000000
00020000
00030000
,
00002000
00003000
00000200
00000300
,
00000002
00000000
00000000
00000003
,
00000000
00000020
00000200
00000330
,
00000100
00000001
00000001
00000000
,
00000100
00001000
00001000
00000000
,
00010000
00001000
00010000
00000000
,
00001000
00010000
00001000
00000000
,
00010000
01000000
01000000
00000000
,
10000000
01000000
01000000
00000000
,
00100000
00010000
00010000
00000000
,
00000100
00000010
00000100
00000000
,
00001001
00000000
00000110
00000000
,
00000010
00000001
00000100
00001000
,
00000000
00010000
00000000
00100000
,
00000000
20000000
00020000
30030000
,
01100000
00000000
10010000
00000000
,
00100000
10000000
01000000
00010000
,
00000000
00001000
00000000
00000010
,
00000001
00000100
00001000
00000100
,
00010000
00002000
00000000
00103000
,
00000000
00010000
10000000
00010000
,
00000000
10000000
00000000
00010000
,
00000000
00001000
00010000
00000100
,
00000000
00000020
00000000
00001030
,
00000000
00000100
00010000
00001000
,
00100000
00010000
00100000
00010000
,
00100000
10000000
00100000
10000000
,
00100000
00100000
00100000
00100000
,
00001000
00001000
00001000
00001000
,
00010000
00001000
00020000
00030000
,
00000000
00002000
00020000
00033000
,
00000010
00001000
00000002
00000003
,
00001000
00000100
00020000
00030000
,
00100000
00010000
20000000
30000000
,
00100000
00001000
00020000
00030000
,
00000010
00001000
00000100
00000001
,
00000010
00001000
00010000
00100000
,
10000000
01000000
00010000
00001000
,
00000100
00000002
00000003
00000000
,
00000010
00000100
00001001
00000000
,
00000100
00010000
00011000
00000000
,
00100000
01000000
10010000
00000000
,
01000000
00001000
00011000
00000000
,
00000010
00000100
00000001
00001000
,
00000100
00010000
00001000
00100000
,
00010000
01000000
10000000
01000000
,
00010000
00000000
00000000
00000000
,
00000000
00001000
00000000
00001000
,
00000000
00010000
00000000
00010000
,
00000000
01000000
00000000
01000000
,
00000000
00010000
00000000
00001000
;

//---------------dance-single - ----------------
#NOTES:
     dance-single:
     :
     Hard:
     9:
     0.383776,0.425065,0.450159,0.181516,0.177886,370.000000,308.000000,62.000000,25.000000,0.000000,0.000000,0.383776,0.425065,0.450159,0.181516,0.177886,370.000000,308.000000,62.000000,25.000000,0.000000,0.000000:
0000
0000
0000
0000
,
0000
0000
0000
0000
,
0000
0000
0000
0000
,
0000
0000
0000
0000
,
0000
0000
0000
0000
,
1001
0000
0000
0000
0101
0000
0000
0000
0010
0000
0000
0010
0000
0000
0001
0000
,
1000
0000
0000
0000
0001
0000
0000
0000
0100
0000
0000
0100
0000
0000
1000
0000
,
0001
1100
0101
1100
,
0011
0000
1001
0000
1000
0010
0100
0000
,
1001
0000
0000
0000
1100
0000
0000
0000
0010
0000
0000
1000
0000
0000
0010
0000
,
0100
0000
0000
0000
1001
0000
0000
0000
0010
0000
0000
1000
0000
0000
0010
0000
,
0100
1001
0010
1001
,
0010
0000
0000
0001
0000
0000
0001
0000
0100
0000
0000
0000
0010
0000
0000
0000
,
2000
0000
0000
0000
0000
0000
0000
0000
0000
0000
0000
0000
3001
0000
0000
0001
,
0000
0010
0001
1000
0001
0000
1000
0100
,
0000
0010
0000
0001
0000
1001
0000
1000
,
0000
0101
0000
0001
0000
1010
0000
0100
,
0000
0110
0000
0001
0000
0011
0000
1001
,
0000
1010
0000
0101
0000
2002
0000
3003
,
0020
0230
0320
0230
,
0300
0000
0000
0000
0010
0000
0000
0001
0000
1000
0000
0000
1001
0000
0000
0000
,
0100
0000
0000
0000
1001
0000
0000
1000
0000
0000
1000
0000
0001
0000
0100
0000
,
0001
0000
0000
0000
0001
0000
0000
0001
0000
0000
0001
0000
0100
0000
0010
0000
,
1000
0000
0000
0000
1001
0000
0000
0001
0000
0000
0001
0000
0010
0000
0001
0000
,
1000
0000
0000
0000
0001
0000
0000
0001
0000
0000
0100
0000
0010
0000
1000
0000
,
0100
0000
0000
0000
0110
0000
0000
0010
0000
0000
1000
0000
0001
0000
1000
0000
,
0100
0000
0000
0000
1100
0000
0000
1000
0000
0000
1000
0000
0010
0000
0100
0000
,
0001
0000
0000
0000
0101
0000
0000
0001
0000
0000
0010
0000
0001
0000
1000
0000
,
0100
0000
0000
0000
0001
0000
0000
1000
0000
1000
0000
0000
1001
0000
0000
0000
,
2002
3003
0202
0303
,
0010
0000
0000
0010
0000
0000
0001
0000
1000
0000
0000
0000
0101
0000
0000
0000
,
0000
1010
0000
0101
,
0000
0110
0000
1001
,
0022
0033
2200
3300
,
0010
0000
0000
0010
0000
0000
1000
0000
0001
0000
0000
0000
1001
0000
0000
0000
,
0000
0101
0000
1010
,
0001
0000
0000
0001
0000
0000
1000
0000
0100
0000
0000
0000
1100
0000
0000
0000
,
0001
0000
2000
0000
3000
0000
0010
0200
,
0000
0301
0100
0000
0001
0100
0010
2000
,
0000
3020
0000
0230
0000
0302
0000
1003
,
0000
0001
1000
0001
0000
0100
0010
0100
,
0001
0000
2002
0000
0000
3003
0100
0020
,
0000
1030
0010
0100
0001
0000
0100
0010
,
0000
1001
0000
0010
0000
1001
0000
0100
,
0000
1001
0000
0010
1000
0100
0010
0001
,
0100
0110
0001
0011
,
1000
1010
0100
0101
,
0010
0100
0010
0100
0020
0000
0030
0000
,
0000
0000
0000
0000
0010
0000
0000
0100
0000
0001
0000
0000
1001
0000
0000
0000
,
1000
0100
0010
0000
0001
0001
0011
0000
,
0001
0100
0010
0000
1000
1000
1010
0000
,
0001
0100
0010
0000
1000
1000
1001
0000
,
0001
1000
0100
0000
0010
0010
0110
0000
,
1000
0010
0100
0001
1000
0000
0101
0000
,
0010
1000
0001
0000
0100
0000
1001
0000
,
0010
0001
0100
0001
0010
0000
1001
0000
,
0010
0000
0000
0000
0001
0000
0000
0100
0000
0010
0000
0000
1001
0000
0000
0000
,
0010
0000
0000
0000
1000
0000
0000
1000
0000
0001
0000
0100
0000
0010
0000
0000
,
0100
0000
0000
0000
1000
0000
0000
0001
0000
0100
0000
0010
0000
0100
0000
0000
,
0001
0000
0000
0000
1000
0000
0000
1000
0000
0000
0000
0000
0001
0000
0000
0001
,
0000
0000
0000
0000
0100
0000
0000
0100
0000
0000
0001
0000
1000
0000
0001
0000
,
0100
0000
0000
0000
0010
0000
0000
0001
0000
0100
0000
1000
0000
0100
0000
0000
,
0001
0000
0000
0000
0010
0000
0000
1000
0000
0010
0000
0001
0000
0010
0000
0000
,
1000
0000
0000
0000
1001
0000
0000
0001
0000
0000
0000
0000
1001
0000
0000
1000
,
0000
0000
0000
0000
0110
0000
0000
1000
0000
0000
0001
0000
1000
0000
0010
0000
,
1000
0000
0000
0000
0100
0000
0000
0100
0000
0000
0100
0000
0000
0000
0000
0000
,
0001
0000
0000
0000
0100
0000
0000
0100
0000
0000
0100
0000
0000
0000
1000
0000
,
0010
0000
0000
0000
0001
0000
0000
0001
0000
0000
0001
0000
0000
0000
0100
0000
,
0010
0000
1001
0000
0100
0000
1000
0001
;
