#TITLE:Ctrl+Alt+Del;
#SUBTITLE:;
#ARTIST:ROY MIKELATE;
#TITLETRANSLIT:;
#SUBTITLETRANSLIT:;
#ARTISTTRANSLIT:;
#GENRE:;
#CREDIT:;
#BANNER:Ctrl+Alt+Del.png;
#BACKGROUND:Ctrl+Alt+Del-bg.png;
#LYRICSPATH:;
#CDTITLE:;
#MUSIC:Ctrl+Alt+Del.ogg;
#OFFSET:-0.023000;
#SAMPLESTART:76.879997;
#SAMPLELENGTH:22.580000;
#SELECTABLE:YES;
#BPMS:0.000000=128.000000
;
#STOPS:
;
#BGCHANGES:0.000=Ctrl+Alt+Del.avi=1.000=0=0=0=StretchNoLoop====,
99999=-nosongbg-=1.000=0=0=0 // don't automatically add -songbackground-
;
#KEYSOUNDS:;
#ATTACKS:;

//---------------dance-single - ----------------
#NOTES:
     dance-single:
     :
     Hard:
     13:
     0.494994,0.653508,0.218748,0.157498,0.402495,396.000000,371.000000,25.000000,18.000000,0.000000,0.000000,0.494994,0.653508,0.218748,0.157498,0.402495,396.000000,371.000000,25.000000,18.000000,0.000000,0.000000:
0000
0000
0000
0000
,
0000
0000
0000
0000
,
0000
0000
0000
0000
,
0000
0000
0000
0000
,
1100
0000
0000
0010
1000
0000
0010
0000
1000
0000
0010
0000
1000
0000
0000
0000
,
0101
0000
0000
0001
0100
0000
0001
0000
0100
0000
0001
0000
0100
0000
0000
0000
,
1001
0000
0000
0001
1000
0000
0001
0000
1000
0000
0001
0000
1000
0000
0000
0000
,
0110
0110
0110
0000
,
0011
0000
0000
1000
0001
0000
0100
0000
0001
0000
0010
0000
0001
0000
0100
0000
,
0001
0000
0000
1000
0010
0000
1000
0000
0100
0000
1000
0000
0010
0000
0100
0000
,
0010
0000
0000
0001
0100
0000
0001
0000
1000
0000
0001
0000
0100
0000
0001
0000
,
0100
0000
0000
0001
1000
0000
0010
0000
1000
0000
0100
0000
1000
0000
0000
0000
,
0110
0000
0000
0001
0100
0000
0001
0000
0100
0000
0010
0000
0100
0000
0010
0000
,
0100
0000
0000
1000
0010
0000
1000
0000
0010
0000
0100
0000
0010
0000
0100
0000
,
0010
0000
0000
0001
0100
0000
0010
0000
1000
0000
0100
0000
0010
0000
0001
0000
,
2000
3200
0302
0013
,
2002
0000
0000
0000
,
0000
0000
0000
3003
,
0100
0000
0000
0000
0100
0000
0100
0000
0100
0000
0000
0001
0000
0000
1000
0000
,
0001
0000
1000
0000
0000
0000
1000
0000
0000
0000
0001
0000
0000
0100
0000
0000
,
1000
0000
0000
0000
0010
0000
0010
0000
0010
0000
0000
1000
0000
0000
0001
0000
,
1000
0000
0001
0000
0000
0000
0001
0000
0000
0000
0100
0000
0000
0001
0000
0000
,
0001
0000
0000
0000
1000
0000
1000
0000
1000
0000
0000
0010
0000
0000
0100
0000
,
0010
0000
0100
0000
0000
0000
0100
0000
0000
0000
0100
0000
0000
0010
0000
0000
,
1000
0000
0000
0000
0001
0000
0001
0000
0001
0000
0000
0100
0000
0000
0010
0000
,
1000
0000
0010
0000
0000
0000
1001
0000
0000
0000
0110
0000
0000
0110
0000
0000
,
0120
0000
0000
0000
1000
0000
0000
0000
0100
0000
0000
0100
0000
0000
0130
0000
,
0200
0000
0001
0000
0000
0000
0001
0000
0000
0000
0010
0000
0000
0010
0000
0000
,
0320
0000
0000
0000
1000
0000
0000
0000
0100
0000
0000
0100
0000
0000
0130
0000
,
0002
0000
1000
0000
0000
0000
1000
0000
0000
0000
0100
0000
0000
0103
0000
0000
,
2000
0000
0000
0000
0010
0000
0000
0000
0100
0000
0000
0100
0000
0000
3100
0000
,
0020
0000
0100
0000
0000
0000
0100
0000
0000
0000
0100
0000
0000
0130
0000
0000
,
0002
0000
0000
0000
1000
0000
0000
0000
1000
0000
0000
1000
0000
0000
1003
0000
,
0010
0000
1000
0000
0000
0000
0100
0000
0000
0000
0001
0000
0000
1001
0000
0000
,
0110
0000
0000
0000
1000
0000
0001
0000
1001
0000
0000
0100
0000
0000
0010
0000
,
0110
0000
0000
0000
0001
0000
1000
0000
1001
0000
0000
0010
0000
0000
0100
0000
,
0110
0000
0000
0000
1000
0000
1000
0000
0100
0000
0000
0010
0000
0000
0001
0000
,
0101
0000
0000
0000
0001
0000
0001
0000
0010
0000
0000
0100
0000
0000
1000
0000
,
1000
0100
1000
0100
1000
0000
0100
0000
0010
0100
0010
0100
0010
0000
0001
0000
,
0100
0001
0100
0001
0100
0000
0010
0000
1000
0100
1000
0100
1000
0000
0010
0000
,
0100
0001
1000
0010
0100
0001
1000
0010
,
0200
2300
3020
0031
,
1100
0000
0000
0001
0100
0000
0001
0000
1000
0000
0001
0000
0100
0001
0000
0000
,
1000
0000
0100
0000
1000
0000
0001
0000
1000
0100
0000
0000
1000
0010
0000
0000
,
0100
0010
0000
0010
0100
0000
0001
0000
0100
0000
0001
0000
0100
0001
0000
0000
,
1000
0100
1000
0010
0100
0001
1001
0000
,
0110
0000
0000
0001
0100
0000
0001
0000
0100
0000
0010
0000
0100
0010
0000
0000
,
1000
0100
0000
1000
0100
0000
1000
0000
0010
0000
1000
0000
0010
1000
0000
0000
,
0001
0000
0000
0001
1000
0000
0100
0000
1000
0000
0001
0000
1000
0001
0000
0000
,
0000
0001
0010
0001
0000
0100
0001
0100
0000
0001
1000
0001
0000
0100
0001
0100
,
0002
0000
0000
0000
1003
0000
1000
0000
1001
0000
0000
0000
0010
0100
0000
0000
,
1000
0001
0000
0000
0010
0000
0010
0000
0100
0000
0100
0000
0010
0000
0000
0000
,
1000
0000
0000
0001
1000
0000
0001
0000
0100
0010
0000
0000
0100
0010
0000
0000
,
1000
0100
0000
0100
1000
0000
0010
0000
0100
0010
0000
0010
0100
0000
0010
0000
,
1000
0000
0000
0000
0100
0001
0100
0001
0000
1000
0010
1000
0000
0010
0000
0000
,
0100
0010
0100
0010
0000
1000
0010
1000
0000
0010
0100
0010
0100
0000
0000
0000
,
0001
1000
0001
1000
0000
0001
0100
0001
0000
0010
0001
0010
0000
0001
0100
0000
,
0001
1000
0001
1000
0000
0010
1000
0010
0000
0100
0010
0000
0100
0000
0000
0000
,
2002
0000
0000
0000
,
0000
0000
0000
3003
;

//---------------dance-double - ----------------
#NOTES:
     dance-double:
     :
     Hard:
     13:
     0.446245,0.575087,0.227497,0.148748,0.354371,357.000000,331.000000,26.000000,17.000000,0.000000,0.000000,0.446245,0.575087,0.227497,0.148748,0.354371,357.000000,331.000000,26.000000,17.000000,0.000000,0.000000:
00000000
00000000
00000000
00000000
,
00000000
00000000
00000000
00000000
,
00000000
00000000
00000000
00000000
,
00000000
00000000
00000000
00000000
,
00110000
00000000
00000000
00010000
00100000
00000000
00010000
00000000
01000000
00000000
00010000
00000000
10000000
00000000
00000000
00000000
,
10010000
00000000
00000000
10000000
00010000
00000000
01000000
00000000
00010000
00000000
00100000
00000000
00001000
00000000
00000000
00000000
,
00011000
00000000
00000000
00010000
00000100
00000000
00010000
00000000
00001000
00000000
00010000
00000000
00000010
00000000
00000000
00000000
,
00001010
00000000
00000000
00001000
00000001
00000000
00001000
00000000
00000100
00000000
00001000
00000000
00000010
00000000
00000000
00000000
,
00000200
00000000
00000000
00000001
00000300
00000000
00000001
00000000
00001000
00000000
00000100
00000000
00001000
00000000
00000100
00000000
,
00002000
00000000
00000000
00000010
00003000
00000000
00000010
00000000
00001000
00000000
00000100
00000000
00010000
00000000
00000000
00000000
,
00002000
00000000
00000000
00010000
00003000
00000000
00010000
00000000
00001000
00000000
00010000
00000000
00001000
00000000
01000000
00000000
,
00020000
00000000
00000000
01000000
00030000
00000000
01000000
00000000
00010000
00000000
10000000
00000000
10010000
00000000
00000000
00000000
,
01100000
00000000
00000000
10000000
01000000
00000000
00100000
00000000
00010000
00000000
00000000
00000000
01100000
00000000
00000000
00000000
,
00110000
00000000
00000000
00100000
00001000
00000000
00010000
00000000
00001000
00000000
00000000
00000000
00011000
00000000
00000000
00000000
,
00010100
00000000
00000000
00010000
00000100
00000000
00001000
00000000
00000100
00000000
00000000
00000000
00001010
00000000
00000000
00000000
,
00000002
00000203
00020300
00031000
,
00022000
00000000
00000000
00000000
,
00000000
00000000
00000000
00033000
,
00001000
00001000
00001000
00010000
,
00100000
00100000
00000000
00100000
00000000
01000000
00000000
00000000
,
10000000
10000000
10000000
01000000
,
00100000
00100000
00000000
00100000
00000000
00001000
00010000
00000000
,
00001000
00001000
00001000
00000100
,
00000010
00000010
00000000
00000001
00000000
00000100
00000000
00000000
,
00001000
00001000
00001000
00010000
,
00100000
00100000
00000000
01100000
00000000
10010000
00000000
00000000
,
10100000
00000000
00000000
00000000
00100000
00000000
10000000
00000000
00100000
00000000
00000000
00100000
00000000
00000000
00100000
00000000
,
01000000
00000000
00010000
00000000
00000000
00000000
00100000
00000000
00000000
00000000
00001000
00000000
00000000
00001000
00000000
00000000
,
00001000
00000000
00000000
00000000
00010000
00000000
00001000
00000000
00010000
00000000
00000000
00001000
00000000
00000000
00010000
00000000
,
00000100
00000000
00000100
00000000
00000000
00000000
00001000
00000000
00000000
00000000
00000010
00000000
00000000
00000001
00000000
00000000
,
00000100
00000000
00000000
00000000
00000010
00000000
00000010
00000000
00000010
00000000
00000000
00001000
00000000
00000000
00000100
00000000
,
00001000
00000000
00000100
00000000
00000000
00000000
00010000
00000000
00000000
00000000
00001000
00000000
00000000
00010000
00000000
00000000
,
00001000
00000000
00000000
00000000
00100000
00000000
00100000
00000000
00100000
00000000
00000000
00010000
00000000
00000000
01000000
00000000
,
00100000
10000000
00000000
10010000
00000000
00100000
01000000
10000000
,
10010000
00000000
00000000
00000000
10000000
00000000
01000000
00000000
00100000
00000000
00000000
00100000
00000000
00000000
00100000
00000000
,
00110000
00000000
00000000
00000000
00100000
00000000
00001000
00000000
00010000
00000000
00000000
00010000
00000000
00000000
00010000
00000000
,
00011000
00000000
00000000
00000000
00010000
00000000
00000100
00000000
00001000
00000000
00000000
00001000
00000000
00000000
00001000
00000000
,
00001010
00000000
00000000
00000000
00000010
00000000
00000100
00000000
00000001
00000000
00000000
00001000
00000000
00000000
00001000
00000000
,
00000001
00001000
00000001
00001000
00000000
00000000
00000000
00000000
00000100
00001000
00000100
00001000
00000000
00000000
00000000
00000000
,
00100000
00001000
00100000
00001000
00000000
00000000
00000000
00000000
10000000
00010000
10000000
00010000
00000000
00000000
00000000
00000000
,
10000000
01000000
00100000
00001000
00010000
00000010
00000100
00000001
,
00002000
00003200
00000302
00000013
,
00001001
00000000
00000000
00000000
00000010
00001000
00000000
00000000
00000100
00001000
00000000
00000000
00000100
00001000
00000000
00000000
,
00000100
00010000
00000000
00000000
00000100
00010000
00000000
00000000
00000100
00010000
00000000
00000000
00002000
00000000
00000000
00000000
,
00023000
00000000
00000000
00000000
00031000
00100000
00000000
00000000
00001000
00100000
00000000
00000000
00010000
00100000
00000000
00000000
,
00010000
10000000
00000000
00000000
00010000
10000000
00000000
00000000
00010000
10000000
00000000
00000000
01100000
00000000
00000000
00000000
,
10010000
00000000
00000000
00000000
10000000
00100000
00000000
00000000
10000000
00100000
00000000
00000000
01000000
00100000
00000000
00000000
,
01000000
00010000
00000000
00000000
01000000
00010000
00000000
00000000
00100000
00010000
00000000
00000000
00100000
00000000
00001000
00000000
,
00020000
00000000
00000000
00000000
00031000
00010000
00000000
00000000
00000100
00010000
00000000
00000000
00000100
00001000
00000000
00000000
,
00000001
00001000
00000001
00001000
00000000
00000010
00001000
00000010
00000000
00001000
00000100
00001000
00000100
00000000
00000000
00000000
,
00001000
00000000
00000000
00000100
00000010
00000000
00001000
00000000
,
00000100
00010000
00001000
00000000
00100000
00010000
01000000
00000000
,
10010000
00000000
00000000
00000000
10000000
01000000
00000000
00000000
01000000
00100000
00000000
00000000
00100000
00010000
00000000
00000000
,
00010000
00001000
00000000
00000000
00001000
00000010
00000000
00000000
00000010
00000100
00000000
00000000
00000100
00000001
00000000
00000000
,
00001001
00000000
00000000
00000000
00000010
00001000
00000010
00000000
00001000
00000100
00000000
00000000
00001000
00000100
00000000
00000000
,
00010000
00000100
00010000
00000000
00000100
00010000
00000000
00000000
00001000
00010000
00000000
00000000
00001000
00010000
00000000
00000000
,
00001000
00000000
00000000
00000000
00001000
01000000
00001000
01000000
00000000
00010000
01000000
00000000
00010000
01000000
00000000
00000000
,
10000000
00100000
10000000
00100000
00000000
01000000
00010000
01000000
00000000
00010000
00100000
00010000
00100000
00000000
00000000
00000000
,
20020000
00000000
00000000
00000000
,
00000000
00000000
00000000
30030000
;

//---------------dance-double - ----------------
#NOTES:
     dance-double:
     :
     Medium:
     8:
     0.307497,0.418245,0.157498,0.253747,0.000000,246.000000,228.000000,18.000000,29.000000,0.000000,0.000000,0.307497,0.418245,0.157498,0.253747,0.000000,246.000000,228.000000,18.000000,29.000000,0.000000,0.000000:
00000000
00000000
00000000
00000000
,
00000000
00000000
00000000
00000000
,
00000000
00000000
00000000
00000000
,
00000000
00000000
00000000
00000000
,
00011000
00000000
00010000
00000000
00010000
00001000
00010000
00000000
,
00001000
00000000
00001000
00000000
00001000
00000010
00001000
00000000
,
00000001
00000000
00000001
00000000
00000001
00000100
00000001
00000000
,
00001000
00001000
00002000
00003000
,
00000010
00000000
00000100
00000000
00010000
00001000
00010000
00000000
,
00001000
00000000
01000000
00000000
00100000
01000000
00100000
00000000
,
10000000
00000000
00100000
00000000
01000000
00010000
01000000
00000000
,
00100000
00000000
00001000
00000000
00010000
00001000
00010000
00000000
,
00000100
00000000
00001000
00000000
00000010
00000001
00000100
00000000
,
00000010
00000000
00001000
00000000
00000100
00001000
00000100
00000000
,
00010000
00000000
00001000
00000000
00010000
00001000
00010000
00000000
,
00020000
00032000
00003200
00000310
,
00000002
00000000
00000000
00000000
,
00000000
00000000
00000000
00000003
,
00000100
00000000
00001000
00000000
,
00000100
00000000
00000010
00000000
,
00001000
00000000
00010000
00000000
,
00100000
00000000
01000000
00000000
,
10000000
00000000
00010000
00000000
,
00100000
00000000
00100000
00000000
,
00001000
00000000
00010000
00000000
,
00000100
00000010
00000000
00000010
00000000
00000000
00000000
00000000
,
00001001
00001100
00000001
00001000
,
00000010
00000100
00000010
00000000
00001000
00000000
00000100
00000000
,
00001100
00010100
00010000
00001000
,
00100000
00010000
00100000
00000000
00010000
00000000
01000000
00000000
,
01100000
00000000
10010000
00000000
01000000
00100000
01000000
00000000
,
00010000
00100000
10000000
01000000
,
00110000
00000000
00011000
00000000
00010000
00000100
00010000
00000000
,
00000100
00001000
00000010
00000001
,
00000110
00000000
00000110
00000000
00000001
00000100
00001000
00000000
,
00000110
00000000
00000110
00000000
00001000
00000100
00000001
00000000
,
00000110
00000000
00000110
00000000
00000001
00000100
00001000
00000000
,
00011000
00000000
00011000
00000000
00010000
00100000
01000000
00000000
,
10000000
00100000
00000000
00000000
00100000
00010000
00000000
00000000
,
00010000
00001000
00000000
00000000
00001000
00000010
00000000
00000000
,
00000001
00000010
00000001
00000010
00000001
00000010
00000001
00000000
,
00000200
00002300
00023000
00031000
,
00010000
00000000
00000200
00000000
00001300
00001000
00001000
00000000
,
00000010
00000000
00000001
00000000
00000100
00000100
00000100
00000000
,
00010000
00000000
00002000
00000000
01003000
01000000
01000000
00000000
,
00100000
00000000
20000000
00000000
30010000
00010000
00020000
00000000
,
00130000
00000000
00001000
00000000
00010000
00010000
00010000
00000000
,
00000010
00000000
00001000
00000000
00000001
00000001
00000002
00000000
,
00002003
00000000
00003010
00000000
00000100
00000100
00000100
00000000
,
00010000
00000000
00001000
00000000
00100000
00010000
00100000
00000000
,
00020000
00000000
01030000
00100000
,
20000000
31000000
00200000
00310000
,
00010000
00000000
00000200
00000000
00001300
00000010
00001000
00000000
,
00000002
00000000
00000103
00000010
00000100
00000000
00000002
00000000
,
00002003
00000000
00003010
00000100
00000010
00000000
00000002
00000000
,
00002003
00000000
00003010
00001000
00000010
00000000
00002000
00000000
,
00003200
00000000
00010300
00001000
00010000
00000000
00002000
00000000
,
00203000
00000000
00310000
01000000
00010000
00000000
00100000
00000000
,
20020000
00000000
00000000
00000000
,
00000000
00000000
00000000
30030000
;

//---------------dance-double - ----------------
#NOTES:
     dance-double:
     :
     Easy:
     5:
     0.229997,0.313684,0.078749,0.096249,0.000000,184.000000,175.000000,9.000000,11.000000,0.000000,0.000000,0.229997,0.313684,0.078749,0.096249,0.000000,184.000000,175.000000,9.000000,11.000000,0.000000,0.000000:
00000000
00000000
00000000
00000000
,
00000000
00000000
00000000
00000000
,
00000000
00000000
00000000
00000000
,
00000000
00000000
00000000
00000000
,
00100000
00100000
00100000
01000000
,
10000000
10000000
10000000
01000000
,
00010000
00010000
00010000
00001000
,
00000010
00000010
00000010
00000000
,
00000001
00000100
00000001
00000100
,
00001000
00000100
00001000
00000100
,
00010000
00001000
00010000
00001000
,
01000000
00010000
01000000
10000000
,
00100000
00010000
00100000
10000000
,
00100000
00010000
00001000
00000010
,
00000001
00000010
00001000
00000010
,
00000001
00000100
00001000
00000000
,
00002002
00000000
00000000
00000000
,
00000000
00000000
00003003
00000000
,
00000000
00000000
00000000
00000000
,
00000000
00000000
00000000
00000000
,
00000000
00000000
00000000
00000000
,
00000000
00000000
00000000
00000000
,
00001000
00000000
00010000
00000000
,
00001000
00000000
00001000
00000000
,
00010000
00000000
00001000
00000000
,
00020000
00000000
00000000
00030000
,
00001000
00001000
00001000
00000010
,
00000001
00000001
00000001
00000100
,
00001000
00001000
00001000
00100000
,
00010000
01000000
00010000
01000000
,
10000000
00100000
00100000
00010000
,
01000000
01000000
00010000
00001000
,
00000010
00000010
00001000
00000100
,
00000001
00000001
00000100
00001000
,
00010000
00010000
00010000
10010000
,
10000000
10000000
10000000
10010000
,
00010000
00010000
00010000
00011000
,
00001000
00001000
00001000
00001001
,
00000002
00000003
00002000
00003000
,
00020000
00030000
20000000
30000000
,
10000000
01000000
00100000
00010000
,
10000000
01000000
00010000
00000000
,
00100000
10000000
10000000
10000000
,
00010000
00010000
10000000
10000000
,
01000000
00010000
00010000
10000000
,
00010000
00010000
10000000
10010000
,
00200000
00301000
00001000
00010000
,
00001000
00001000
00010000
00001000
,
00000010
00000010
00000100
00000100
,
00000010
00000100
00001000
00000001
,
00000200
00000300
00001001
00000000
,
00000010
00000100
00001001
00000000
,
00000001
00000001
00000100
00000100
,
00001000
00000010
00001000
00000010
,
00001000
00010000
00001000
00100000
,
00010000
01000000
10000000
00100000
,
00010000
00100000
00001000
00010000
,
00001000
00000010
00000100
00000001
,
00002002
00000000
00000000
00000000
,
00000000
00000000
00000000
00003003
;

//---------------dance-single - ----------------
#NOTES:
     dance-single:
     :
     Beginner:
     2:
     0.141248,0.209123,0.008750,0.078749,0.000000,113.000000,112.000000,1.000000,9.000000,0.000000,0.000000,0.141248,0.209123,0.008750,0.078749,0.000000,113.000000,112.000000,1.000000,9.000000,0.000000,0.000000:
0000
0000
0000
0000
,
0000
0000
0000
0000
,
0000
0000
0000
0000
,
0000
0000
0000
0000
,
0010
0000
0010
0000
,
0100
0000
0100
0000
,
1000
0000
0001
0000
,
1000
0000
0001
0000
,
0010
0010
0010
0000
,
0100
0100
0100
0000
,
0010
0010
0010
0000
,
0100
0100
0100
0000
,
0001
0001
0001
0000
,
1000
1000
1000
0000
,
0001
0001
0001
0000
,
0200
0000
0300
0000
,
2002
0000
0000
0000
,
0000
0000
3003
0000
,
0000
0000
0000
0000
,
0000
0000
0000
0000
,
0000
0000
0000
0000
,
0000
0000
0000
0000
,
0000
0000
0000
0000
,
0000
0000
0000
0000
,
0000
0000
0000
0000
,
0000
0000
0000
0000
,
0001
0000
0001
0000
,
1000
0000
1000
0000
,
0010
0000
0010
0000
,
0100
0000
0100
0000
,
0001
0001
0001
0000
,
1000
1000
1000
0000
,
0100
0100
0100
0000
,
0100
0100
0100
0000
,
0020
0030
0010
0000
,
0200
0300
0100
0000
,
0002
0003
0001
0000
,
2000
3000
1000
0000
,
0010
0000
0100
0000
,
0001
0000
1000
0000
,
0010
0010
0010
0010
,
0000
0000
0000
0000
,
0001
0001
0001
0001
,
0001
0001
0001
0000
,
1000
1000
1000
1000
,
1000
1000
1000
0000
,
0010
0000
0100
0100
,
0100
0000
0010
0010
,
0010
0000
0100
0100
,
0100
0000
0020
0030
,
0000
0000
0001
0000
,
1000
1000
1000
0000
,
0000
0010
0010
0010
,
0000
0100
0100
0100
,
0000
0001
0001
0001
,
0000
1000
1000
1000
,
0000
0010
0000
0100
,
0000
0001
0000
0000
,
2000
0000
0000
0000
,
0000
0000
0000
3000
;

//---------------dance-single - ----------------
#NOTES:
     dance-single:
     :
     Easy:
     5:
     0.229997,0.313684,0.078749,0.096249,0.000000,184.000000,175.000000,9.000000,11.000000,0.000000,0.000000,0.229997,0.313684,0.078749,0.096249,0.000000,184.000000,175.000000,9.000000,11.000000,0.000000,0.000000:
0000
0000
0000
0000
,
0000
0000
0000
0000
,
0000
0000
0000
0000
,
0000
0000
0000
0000
,
0010
0010
0010
0100
,
1000
1000
1000
0100
,
0001
0001
0001
1000
,
0010
0010
0010
0000
,
0001
0100
0001
0100
,
1000
0100
1000
0100
,
0001
1000
0001
1000
,
0100
0001
0100
1000
,
0010
0001
0010
1000
,
0010
0001
1000
0010
,
0001
0010
1000
0010
,
0001
0100
1000
0000
,
2002
0000
0000
0000
,
0000
0000
3003
0000
,
0000
0000
0000
0000
,
0000
0000
0000
0000
,
0000
0000
0000
0000
,
0000
0000
0000
0000
,
1000
0000
0001
0000
,
1000
0000
1000
0000
,
0001
0000
1000
0000
,
0002
0000
0000
0003
,
1000
1000
1000
0010
,
0001
0001
0001
0100
,
1000
1000
1000
0010
,
0001
0100
0001
0100
,
1000
0010
0010
0001
,
0100
0100
0001
1000
,
0010
0010
1000
0100
,
0001
0001
0100
1000
,
0001
0001
0001
1001
,
1000
1000
1000
1001
,
0001
0001
0001
1001
,
1000
1000
1000
1001
,
0002
0003
2000
3000
,
0002
0003
2000
3000
,
1000
0100
0010
0001
,
1000
0100
0001
0000
,
0010
1000
1000
1000
,
0001
0001
1000
1000
,
0100
0001
0001
1000
,
0001
0001
1000
1001
,
0020
1030
1000
0001
,
1000
1000
0001
1000
,
0010
0010
0100
0100
,
0010
0100
1000
0001
,
0200
0300
1001
0000
,
0010
0100
1001
0000
,
0001
0001
0100
0100
,
1000
0010
1000
0010
,
1000
0001
1000
0010
,
0001
0100
1000
0010
,
0001
0010
1000
0001
,
1000
0010
0100
0001
,
2002
0000
0000
0000
,
0000
0000
0000
3003
;

//---------------dance-single - ----------------
#NOTES:
     dance-single:
     :
     Medium:
     8:
     0.307497,0.418245,0.157498,0.253747,0.000000,246.000000,228.000000,18.000000,29.000000,0.000000,0.000000,0.307497,0.418245,0.157498,0.253747,0.000000,246.000000,228.000000,18.000000,29.000000,0.000000,0.000000:
0000
0000
0000
0000
,
0000
0000
0000
0000
,
0000
0000
0000
0000
,
0000
0000
0000
0000
,
1001
0000
0001
0000
0001
1000
0001
0000
,
1000
0000
1000
0000
1000
0010
1000
0000
,
0001
0000
0001
0000
0001
0100
0001
0000
,
1000
1000
2000
3000
,
0010
0000
0100
0000
0001
1000
0001
0000
,
1000
0000
0100
0000
0010
0100
0010
0000
,
1000
0000
0010
0000
0100
0001
0100
0000
,
0010
0000
1000
0000
0001
1000
0001
0000
,
0100
0000
1000
0000
0010
0001
0100
0000
,
0010
0000
1000
0000
0100
1000
0100
0000
,
0001
0000
1000
0000
0001
1000
0001
0000
,
0002
2003
3200
0310
,
0002
0000
0000
0000
,
0000
0000
0000
0003
,
0100
0000
1000
0000
,
0100
0000
0010
0000
,
1000
0000
0001
0000
,
0010
0000
0100
0000
,
1000
0000
0001
0000
,
0010
0000
0010
0000
,
1000
0000
0001
0000
,
0100
0010
0000
0010
0000
0000
0000
0000
,
1001
1100
0001
1000
,
0010
0100
0010
0000
1000
0000
0100
0000
,
1100
0101
0001
1000
,
0010
0001
0010
0000
0001
0000
0100
0000
,
0110
0000
1001
0000
0100
0010
0100
0000
,
0001
0010
1000
0100
,
0011
0000
1001
0000
0001
0100
0001
0000
,
0100
1000
0010
0001
,
0110
0000
0110
0000
0001
0100
1000
0000
,
0110
0000
0110
0000
1000
0100
0001
0000
,
0110
0000
0110
0000
0001
0100
1000
0000
,
1001
0000
1001
0000
0001
0010
0100
0000
,
1000
0010
0000
0000
0010
0001
0000
0000
,
0001
1000
0000
0000
1000
0010
0000
0000
,
0001
0010
0001
0010
0001
0010
0001
0000
,
0200
2300
3002
1003
,
0001
0000
0200
0000
1300
1000
1000
0000
,
0010
0000
0001
0000
0100
0100
0100
0000
,
0001
0000
2000
0000
3100
0100
0100
0000
,
0010
0000
2000
0000
3001
0001
0002
0000
,
0013
0000
1000
0000
0001
0001
0001
0000
,
0010
0000
1000
0000
0001
0001
0002
0000
,
2003
0000
3010
0000
0100
0100
0100
0000
,
0001
0000
1000
0000
0010
0001
0010
0000
,
0002
0000
0103
0010
,
2000
3100
0020
0031
,
0001
0000
0200
0000
1300
0010
1000
0000
,
0002
0000
0103
0010
0100
0000
0002
0000
,
2003
0000
3010
0100
0010
0000
0002
0000
,
2003
0000
3010
1000
0010
0000
2000
0000
,
3200
0000
0301
1000
0001
0000
2000
0000
,
3020
0000
0031
0100
0001
0000
0010
0000
,
2002
0000
0000
0000
,
0000
0000
0000
3003
;

//---------------dance-single - ----------------
#NOTES:
     dance-single:
     :
     Challenge:
     14:
     0.501244,0.731929,0.262497,0.437495,0.651868,401.000000,371.000000,30.000000,50.000000,92.000000,0.000000,0.501244,0.731929,0.262497,0.437495,0.651868,401.000000,371.000000,30.000000,50.000000,92.000000,0.000000:
// measure 0
0000
0000
0000
0000
,  // measure 1
0000
0000
0000
0000
,  // measure 2
0000
0000
0000
0000
,  // measure 3
0000
0000
0000
0000
,  // measure 4
0110
0000
0000
0001
0100
0000
0001
0010
0100
0000
0001
0000
1000
0000
0000
0000
,  // measure 5
0110
0000
0000
1000
0010
0000
1000
0100
0010
0000
1000
0000
0010
0000
0000
0000
,  // measure 6
1001
0000
0000
1000
0001
0000
1000
0100
0010
0000
0001
0000
1001
0000
0000
0000
,  // measure 7
0101
1010
0101
MMMM
,  // measure 8
0020
0000
0000
1030
0001
0000
1000
0000
0010
0000
1010
0000
1001
0000
0000
0000
,  // measure 9
0020
0000
0000
0031
1000
0000
0001
0000
1000
0000
1010
0000
1001
0000
0000
0000
,  // measure 10
0200
0000
0000
0301
1000
0000
0010
0000
1000
0000
1010
0000
1001
0000
0000
0000
,  // measure 11
0200
0000
0000
1300
0001
0000
1000
0000
0010
0000
0110
0000
1001
0000
0000
0000
,  // measure 12
0010
1000
0100
1000
0010
0000
0100
0000
0001
0000
1000
0000
1001
0000
0000
0000
,  // measure 13
0010
0001
0100
0001
0010
0000
0001
0000
1000
0000
0010
0000
1000
0000
0001
0000
,  // measure 14
1000
0010
1000
0010
0100
0001
0100
0001
1000
0100
0010
0001
1000
0001
0100
0010
,  // measure 15
2000
0000
3002
0000
0103
0100
0110
0000
,  // measure 16
2002
0000
0000
0000
,  // measure 17
0000
0000
3003
MMMM
,  // measure 18
0010
0000
0000
0000
0010
0000
0010
0000
0010
0000
0000
0010
0000
0000
0001
0000
,  // measure 19
0001
0000
0001
0000
0000
0000
0100
0000
0000
0000
0010
0000
0000
MMMM
0000
0000
,  // measure 20
1000
0000
0000
0000
1000
0000
1000
0000
1000
0000
0000
1000
0000
0000
0100
0000
,  // measure 21
0100
0000
0100
0000
0000
0000
0100
0000
0000
0000
0001
0000
0000
MMMM
0000
0000
,  // measure 22
0010
0000
0000
0000
0010
0000
0010
0000
0010
0000
0000
0010
0000
0000
0100
0000
,  // measure 23
0100
0000
0001
0000
0000
0000
1000
0000
0000
0000
0010
0000
0000
MMMM
0000
0000
,  // measure 24
0100
0000
0000
0000
0001
0000
0001
0000
0001
0000
0000
0001
0000
0000
0010
0000
,  // measure 25
0010
0010
0000
0110
0000
1001
MMMM
1001
,  // measure 26
1002
0000
0000
0000
0103
0010
0100
0001
,  // measure 27
0100
0000
0020
0000
0000
0000
2030
0000
0000
0000
3001
0000
0000
MMMM
0000
0000
,  // measure 28
0200
0000
0000
0000
0000
0301
1000
0010
,  // measure 29
1000
0002
0000
0203
0000
0300
MMMM
0000
,  // measure 30
0020
0000
0000
0000
1030
0001
0100
0010
,  // measure 31
1000
0000
0002
0000
0000
0000
0203
0000
0000
0000
0310
0000
0000
MMMM
0000
0000
,  // measure 32
0200
0000
0000
0000
0000
0301
1000
0010
,  // measure 33
1000
0002
0000
0203
0000
0310
1000
0000
,  // measure 34
2000
0000
3000
MMMM
2020
0000
3030
MMMM
,  // measure 35
2020
0000
0000
0000
3030
0000
MMMM
0000
2000
0000
0000
3000
0011
0000
MMMM
0000
,  // measure 36
2000
0000
3000
MMMM
2020
0000
3030
MMMM
,  // measure 37
2020
0000
0000
0000
3030
0000
MMMM
0000
2000
0000
0000
3000
0011
0000
0000
0000
,  // measure 38
1000
0000
0000
0100
0000
0000
1000
0000
0000
0100
0000
0000
0000
0000
0000
0000
MMMM
0000
0000
0000
0000
0000
0000
0000
0001
0000
0000
0010
0000
0000
0001
0000
0000
0010
0000
0000
0000
0000
0000
0000
MMMM
0000
0000
0000
0000
0000
0000
0000
,  // measure 39
1000
0000
0000
0100
0000
0000
1000
0000
0000
0100
0000
0000
0000
0000
0000
0000
MMMM
0000
0000
0000
0000
0000
0000
0000
0001
0000
0000
0010
0000
0000
0001
0000
0000
0010
0000
0000
0000
0000
0000
0000
MMMM
0000
0000
0000
0000
0000
0000
0000
,  // measure 40
1000
0010
1000
0010
0100
0001
0100
0001
1000
0010
1000
0010
0100
0001
0100
0001
,  // measure 41
1000
0010
1000
0010
1000
0010
1000
0000
0000
0000
0000
0000
0001
0000
0000
0100
0000
0000
1001
0000
0000
0000
0000
0000
,  // measure 42
MMMM
0000
0000
0000
0001
0010
0100
1000
0000
0001
0100
0001
0000
1000
0000
0000
,  // measure 43
0000
0001
0010
0001
0000
1000
0100
1000
0000
0020
0000
0000
0030
0200
0000
0000
,  // measure 44
0300
0001
0100
0001
0000
1000
0010
1000
0000
0001
0100
0001
0000
0200
0000
0000
,  // measure 45
0300
0001
0010
0001
0000
1000
0100
1000
0000
0002
0000
0000
0003
2000
0000
0000
,  // measure 46
3000
0001
0100
0001
0000
1000
0100
1000
0000
0010
0100
0010
0000
0200
0000
0000
,  // measure 47
0300
0001
1000
0001
0000
1000
0010
1000
0000
0002
0000
0000
0003
2000
0000
0000
,  // measure 48
3000
0010
0100
0001
0000
0100
0010
1000
0000
0010
0100
0001
0000
2000
0000
0000
,  // measure 49
3000
0001
0010
0100
0000
0010
0100
1000
0000
0001
0010
0100
1000
0000
0000
0000
,  // measure 50
MMMM
0000
0000
0001
0000
1000
0001
0000
1000
0200
0000
0000
1300
0020
0000
0000
,  // measure 51
1030
0100
1000
0100
0000
1000
0001
1000
0000
0020
0000
0000
0030
0200
0000
0000
,  // measure 52
0301
0000
0000
0000
1000
0010
0100
0001
0000
1000
0001
0100
0000
0010
0000
0000
,  // measure 53
0001
0100
0010
1000
0000
0001
0010
0100
0000
1000
0100
0000
1001
0000
0000
0000
,  // measure 54
MMMM
0000
0000
0000
0010
1000
0100
1000
0000
0010
0001
0100
0000
0010
0000
0000
,  // measure 55
0001
0100
0010
0100
0000
0001
0010
0100
0000
2000
0000
0000
0000
3002
0000
0000
,  // measure 56
0103
0010
1000
0001
0000
1000
0100
0010
0000
0100
0010
0001
0000
2000
0000
0000
,  // measure 57
3001
0100
0010
1000
0000
0001
0010
0100
0000
1000
0100
0010
0001
0000
0000
0000
,  // measure 58
0200
0000
0000
0000
,  // measure 59
0020
0000
0000
0330
;

//---------------dance-double - ----------------
#NOTES:
     dance-double:
     :
     Challenge:
     15:
     0.483745,0.653508,0.096249,0.411245,0.546869,387.000000,376.000000,11.000000,47.000000,96.000000,0.000000,0.483745,0.653508,0.096249,0.411245,0.546869,387.000000,376.000000,11.000000,47.000000,96.000000,0.000000:
00000000
00000000
00000000
00000000
,
00000000
00000000
00000000
00000000
,
00000000
00000000
00000000
00000000
,
00000000
00000000
00000000
00000000
,
00100000
00000000
00000000
10000000
00100000
00000000
01000000
00010000
01000000
00000000
00100000
10000000
00100000
00000000
00000000
00000000
,
01000000
00000000
00000000
00010000
00100000
00000000
00010000
10000000
00010000
00000000
00100000
00010000
00100000
00000000
00000000
00000000
,
00001000
00000000
00000000
00010000
00000100
00000000
00010000
00001000
00010000
00000000
00000100
00010000
00000100
00000000
00000000
00000000
,
00001001
00011000
10010000
MMMMMMMM
,
00200000
00000000
00000000
10300000
01000000
00000000
10000000
00000000
00010000
00000000
00100000
00000000
00001000
00000000
00000000
00000000
,
00020000
00000000
00000000
00030010
00001000
00000000
00000100
00000000
00001000
00000000
00000001
00000000
00001000
00000000
00000000
00000000
,
00000200
00000000
00000000
00010300
00001000
00000000
01000000
00000000
00001000
00000000
01000000
00010000
01000000
00000000
00000000
00000000
,
00200000
00000000
00000000
10300000
00100000
00000000
01000000
00000000
00010000
00100000
01000000
10000000
00010000
00000000
00000000
00000000
,
00200000
00000000
00000000
01300000
00010000
00000000
00100000
00000000
00001000
00000000
00010000
00000000
00000010
00000000
00000000
00000000
,
00000200
00000000
00000000
00000301
00001000
00000000
00000100
00000000
00010000
00000000
00001000
00000000
01000000
00000000
00000000
00000000
,
00100000
10000000
00100000
10000000
00010000
01000000
00010000
01000000
00001000
00010000
00001000
00010000
00000100
00001000
00000100
00001000
,
00000010
00010000
01000000
MMMMMMMM
,
20020000
00000000
00000000
00000000
,
00000000
00000000
00000000
30030000
,
00100000
00000000
00000000
00000000
00100000
00000000
00100000
00000000
00100000
00000000
00000000
00001000
00000000
00000000
00001000
00000000
,
00010000
00000000
00010000
00000000
00000000
00000000
00000100
00000000
00000000
00000000
00000100
00000000
00000000
00001000
00000000
00000000
,
00000010
00000000
00000000
00000000
00000001
00000000
00000001
00000000
00000001
00000000
00000000
00001000
00000000
00000000
00010000
00000000
,
00010000
00000000
00010000
00000000
00000000
00000000
00001000
00000000
00000000
00000000
00010000
00000000
00000000
00001000
00000000
00000000
,
01000000
00000000
00000000
00000000
01000000
00000000
01000000
00000000
01000000
00000000
00000000
00100000
00000000
00000000
10000000
00000000
,
01000000
00000000
00010000
00000000
00000000
00000000
00100000
00000000
00000000
00000000
00001000
00000000
00000000
00010000
00000000
00000000
,
00000010
00000000
00000000
00000000
00000010
00000000
00000010
00000000
00000010
00000000
00000000
00000001
00000000
00000000
00000100
00000000
,
00001000
00000000
00000100
00000000
00000000
00000000
00001000
00000000
00000000
00000000
00010000
00000000
00000000
01000000
00000000
00000000
,
10020000
00000000
00100000
00100000
00130000
00010000
01000000
00001000
,
00010000
00000020
00000000
00000230
00000000
00000301
00001000
00000100
,
00020000
00000000
00001000
00001000
00031000
01000000
00010000
10000000
,
00100000
02000000
00000000
03002000
00000000
00013000
00000100
00001000
,
00000002
00000000
00000100
00000100
00000103
00000010
00001000
00000100
,
00010000
00002000
00000000
02003000
00000000
03010000
00100000
01000000
,
20000000
00000000
00100000
00100000
30100000
01000000
00010000
00100000
,
00001000
00010000
00000000
00000020
00000000
00010030
00001000
00000000
,
02000000
03000000
02002000
03003000
,
02002000
03003000
02000000
0300MMMM
,
02000000
03000000
02002000
03003000
,
02002000
03003000
02000000
0300MMMM
,
00010000
00000000
00000000
01000000
00000000
00000000
00010000
00000000
00000000
0100MMMM
00000000
00000000
00000000
00000000
00000000
00000000
MMMM0000
00000000
00000000
00000000
00000000
00000000
00000000
00000000
00001000
00000000
00000000
00010000
00000000
00000000
00001000
00000000
00000000
00010000
00000000
00000000
0000MMMM
00000000
00000000
00000000
MMMM0000
00000000
00000000
00000000
00000000
00000000
00000000
00000000
,
00000100
00000000
00000000
00001000
00000000
00000000
00000100
00000000
00000000
00001000
00000000
00000000
MMMM0000
00000000
00000000
00000000
0000MMMM
00000000
00000000
00000000
00000000
00000000
00000000
00000000
00000001
00000000
00000000
00001000
00000000
00000000
00000001
00000000
00000000
00001000
00000000
00000000
MMMM0000
00000000
00000000
00000000
0000MMMM
00000000
00000000
00000000
00000000
00000000
00000000
00000000
,
00000001
00000010
00000001
00000010
00000100
00001000
00000100
00001000
00000001
00000010
00000001
00000010
00000100
00001000
00000100
00001000
,
00000010
00010000
01000000
10010000
,
MMMMMMMM
00000000
00000000
00100000
01000000
00000000
00010000
00000000
10000000
00010000
00000000
00000000
00100000
00001000
00000000
00000000
,
00010000
00001000
00010000
00001000
00000000
00010000
00000100
00000000
00001000
00000100
00000000
00000000
00001000
00000010
00000000
00000000
,
00000001
00001000
00000001
00001000
00000000
00000010
00001000
00000010
00000000
00001000
00000000
00000000
00000100
00010000
00000000
00000000
,
00001000
00100000
00001000
00100000
00000000
00010000
01000000
00010000
00000000
00100000
00000000
00000000
MMMMMMMM
00000000
00000000
00000000
,
20000000
00000000
00000000
30010000
00100000
00000000
00001000
00000000
00020000
00000000
00000000
00030010
00001000
00000000
00000001
00000000
,
00002000
00000000
00000000
00003100
00010000
00000000
00001000
00000000
01000000
00000000
00010000
00000000
10000000
00000000
00010000
00000000
,
02000000
00000000
00000000
03010000
00100000
00000000
00001000
00000000
00020000
00000000
00000000
00030100
00001000
00000000
00000010
00000000
,
00000000
00000001
00000010
00000100
00000000
00001000
00000100
00010000
00000000
00001000
00100000
00010000
01000000
00000000
00000000
00000000
,
MMMMMMMM
00000000
00000000
00100000
00000000
01000000
00100000
00000000
10000000
00020000
00000000
00000000
00130000
00002000
00000000
00000000
,
00013000
00000100
00010000
00001000
00000000
00010000
00000100
00001000
00000000
00000020
00000000
00000000
00000000
00000230
00000000
00000000
,
00000301
00000000
00000000
00000001
00001000
00000100
00001000
00000001
00000000
00001000
00000100
00000000
00010000
00001000
00000000
00000000
,
00100000
00010000
01000000
00100000
00000000
10000000
01000000
00100000
00000000
00010000
00000000
00000000
MMMMMMMM
00000000
00000000
00000000
,
MMMMMMMM
00000000
00000000
00000000
00100000
10000000
01000000
10000000
00000000
00020000
00000000
00000000
00130000
00020000
00000000
00000000
,
00130000
00001000
00010000
00001000
00000000
00010000
00000100
00001000
00000000
00000020
00000000
00000000
00001030
00000200
00000000
00000000
,
00001300
00000001
00000100
00000010
00000000
00001000
00000100
00010000
00001000
00010000
00000000
00000000
00001000
01000000
00000000
00000000
,
00010000
00100000
01000000
10000000
00000000
00010000
00100000
01000000
00000000
00020000
00000000
00000000
00130000
00000000
00000000
00000000
,
00012000
00000000
00000000
00000000
,
02000000
00000000
00000000
03003000
;
