#TITLE:Chemical Cookie;
#SUBTITLE:;
#ARTIST:YUC'e;
#TITLETRANSLIT:;
#SUBTITLETRANSLIT:;
#ARTISTTRANSLIT:;
#GENRE:;
#CREDIT:;
#MENUCOLOR:;
#METERTYPE:DDR;
#BANNER:Chemical Cookie.png;
#BACKGROUND:Chemical Cookie-bg.png;
#LYRICSPATH:;
#CDTITLE:;
#MUSIC:Chemical Cookie.ogg;
#OFFSET:-1.860;
#SAMPLESTART:32.560;
#SAMPLELENGTH:16.000;
#SELECTABLE:YES;
#LISTSORT:;
#BPMS:0.000=180.000;
#STOPS:;
#BGCHANGES:;
#ATTACKS:;

//---------------dance-single - ----------------
#NOTES:
     dance-single:
     :
     Hard:
     13:
     0.689,0.642,0.277,0.188,0.213:
0000
0000
0000
0000
,
0000
0000
0000
0000
,
0000
0000
0000
0000
,
0000
0000
0000
0000
,
0010
0100
0010
0100
0010
0000
1000
0000
,
0001
0100
0001
0100
0001
0000
1000
0000
,
0001
0010
0001
0010
0001
0000
1000
0000
,
0002
0003
2000
3000
,
0010
0000
0100
0010
0000
1000
0001
0000
,
1000
0100
1000
0100
1000
0000
0010
0000
,
0100
0000
0001
0100
0000
0001
1000
0000
,
0001
0010
0001
0010
0001
0000
0100
0000
,
0010
0000
1010
0000
1001
0000
0100
0010
,
0100
1100
1001
1100
,
0002
0100
0100
0103
,
1001
1001
1001
0010
,
1000
0000
0000
0001
1000
0000
0001
0000
0000
0000
1000
0000
0010
0000
0100
0000
,
0001
0000
0000
0100
0001
0000
0100
0000
0000
0000
0010
0000
1000
0000
0010
0000
,
0100
0000
0000
0010
0100
0000
0010
0000
0000
0000
1000
0000
0100
0000
1000
0000
,
0010
0000
0000
0100
0010
0000
0100
0000
0000
0000
0001
0000
1001
0000
0000
0000
,
1000
0100
1000
0100
0010
0001
0010
0001
,
1000
0100
0010
0001
0100
0010
0100
0010
,
1000
0001
0100
0010
1000
0001
1000
0001
,
1000
1000
2000
0000
3001
0000
1001
0000
,
0010
0000
0100
0000
0010
0000
0100
0000
0001
0000
1000
0000
0001
1000
0000
1000
,
0001
0000
0000
1000
0100
0000
1000
0000
0010
0000
0100
0000
0010
0000
0000
0000
,
0100
0000
0010
0000
0100
0000
0010
0000
0100
0000
0001
0000
1000
0001
0000
0001
,
1000
0000
0000
0001
0100
0000
0001
0000
0100
0000
0100
0000
0010
0000
0000
0000
,
1000
0000
0100
0000
1000
0000
0100
0000
1000
0000
0001
0000
1000
0001
0000
0001
,
1000
0000
0000
0010
1000
0000
0010
0000
0100
0000
0010
0000
0010
0000
0000
0000
,
0001
0100
0001
0100
0010
0100
0010
0000
,
1100
0101
1001
0200
,
0310
0000
1000
0000
0010
0000
0100
0000
0010
0000
1000
0000
0010
1000
0000
1000
,
0010
0000
0000
1000
0001
0000
1000
0000
0010
0000
0010
0000
0100
0000
0000
0000
,
0001
0000
1000
0000
0001
0000
0100
0000
0001
0000
1000
0000
0001
1000
0000
1000
,
0001
0000
0000
0100
0001
0000
0100
0000
0020
0000
0000
0000
0230
0000
0000
0000
,
0301
0000
0100
0000
0001
0000
0100
0000
0001
0000
1000
0000
0001
1000
0000
1000
,
0001
0000
0000
0100
0001
0000
0100
0000
0010
0000
0010
0000
0100
0000
0000
0000
,
0001
1000
0001
1000
0010
0100
0010
0000
,
0110
0101
1001
0020
,
1030
0100
1000
0100
1000
0000
0010
0000
,
0001
0100
0001
0100
0001
0000
0010
0000
,
1000
0100
1000
0100
1000
0000
0010
0000
,
0002
0003
2000
3000
,
0001
0100
0001
0100
0001
0000
1000
0000
,
0001
0100
0001
0100
0001
0000
1000
0000
,
0010
0100
0010
0100
0010
0000
1000
0000
,
0202
0303
2020
3030
,
0001
0000
0000
1000
0001
0000
1000
0000
0000
0000
0010
0000
0100
0000
0010
0000
,
1000
0000
0000
0001
1000
0000
0001
0000
0000
0000
0100
0000
0010
0000
1000
0000
,
0001
0000
0000
0100
0001
0000
0100
0000
0000
0000
0001
0000
0100
0000
1000
0000
,
0100
0000
0000
1000
0100
0000
1000
0000
0000
0000
0100
0000
1100
0000
0000
0000
,
0001
0010
0001
0010
0100
1000
0100
1000
,
0001
0010
0100
1000
0010
0100
0001
1000
,
0010
0100
0010
0100
0001
1000
0001
1000
,
1000
1000
0002
0000
0103
0000
0110
0000
,
0000
0000
0000
0000
,
1001
0000
0000
0000
0101
0000
0000
0000
1100
0000
0000
0000
0100
1000
0100
1000
,
0100
0000
1000
0000
0010
0000
0100
0000
0001
0000
0100
0000
0010
1000
0000
1000
,
0010
0000
0000
0010
0100
0000
0010
0000
1000
0000
0001
0000
1000
0000
0000
0000
,
0001
0000
0100
0000
0001
0000
0100
0000
0010
0000
0100
0000
0010
1000
0000
1000
,
0010
0000
0000
1000
0010
0000
1000
0000
0100
0000
0100
0000
1000
0000
0000
0000
,
0010
1000
0100
1000
0010
0100
0001
0100
,
0010
0110
1001
0020
,
1030
0000
0100
0000
1000
0000
0100
0000
0010
0000
0001
0000
0010
0001
0000
0001
,
0100
0000
0000
0100
0010
0000
1000
0000
0001
0000
1000
0000
0001
0000
0100
0000
,
0010
0000
0100
0000
0010
0000
0100
0000
0001
0000
0100
0000
0001
0100
0000
0100
,
0010
0000
0000
0010
1000
0000
0100
0000
2000
0000
0000
0000
3002
0000
0000
0000
,
0103
0000
0001
0000
0100
0000
0010
0000
0100
0000
0001
0000
0100
0010
0000
0010
,
0100
0000
0000
0100
0001
0000
0001
0000
1000
0000
0010
0000
1000
0000
0100
0000
,
1000
0010
0100
0001
1000
0010
0200
0000
,
0301
0011
1100
0010
,
1001
0000
0000
0000
;

//---------------dance-single - ----------------
#NOTES:
     dance-single:
     :
     Medium:
     10:
     0.531,0.571,0.713,0.178,0.000:
0000
0000
0000
0000
,
0000
0000
0000
0000
,
0000
0000
0000
0000
,
0000
0000
0000
0000
,
0010
0100
1001
0000
,
0100
0010
1001
0000
,
0001
0100
1001
0000
,
0002
0003
2000
3000
,
0010
0000
0000
0010
0000
0000
0010
0000
,
1000
0001
1001
0000
,
0100
0000
0000
0100
0000
0000
0100
0000
,
0001
1000
1001
0010
,
0010
0010
1001
0000
,
0100
0100
1001
0000
,
0002
0000
1000
0000
,
1000
0000
1003
0000
,
1000
0001
0000
1000
0001
0000
0100
0000
,
0001
1000
0000
0001
1000
0000
0010
0000
,
1000
0100
0000
1000
0100
0000
1000
0000
,
0001
0100
0000
0001
0100
0000
1001
0000
,
0010
0100
0000
0010
0100
0000
1001
0000
,
0100
0010
0000
0100
0010
0000
1001
0000
,
1000
0100
0000
0010
0001
0000
0100
0000
,
0010
0100
0010
0000
1001
0000
1001
0000
,
1000
0100
1000
0000
0001
0000
0001
0000
,
0100
0100
1001
1001
,
0001
0100
0001
0000
0100
0000
0100
0000
,
1000
1000
1001
1001
,
0010
0100
0010
0000
1000
0000
1000
0000
,
0001
0001
1001
1001
,
0010
0100
0010
0000
1000
0000
1000
0000
,
0101
0101
2002
3003
,
0010
0000
0010
0000
1000
0010
1000
0000
,
0001
0001
1001
1001
,
0100
0000
0100
0000
0001
0100
0001
0000
,
0010
0010
2000
3002
,
0103
0000
0100
0000
0001
1000
0001
0000
,
0110
0110
1001
1001
,
0010
0100
0010
0000
1000
0001
1000
0000
,
0110
0110
0110
0000
,
1000
1000
1001
0000
,
0001
0001
1001
0000
,
1000
1000
0001
0001
,
2002
3003
0220
0330
,
0010
0010
1001
0000
,
0100
0100
1001
0000
,
0010
0010
0100
0100
,
2002
3003
0220
0330
,
1000
0100
0000
1000
0100
0000
1001
0000
,
0001
0100
0000
0001
0100
0000
1001
0000
,
1000
0010
0000
1000
0010
0000
1001
0000
,
0001
0010
0000
0001
0010
0000
1001
0000
,
1000
1000
0000
0001
0001
0000
1001
0000
,
0001
0001
0000
1000
1000
0000
1001
0000
,
0010
0010
0000
0100
0100
0000
0001
0100
,
0001
0100
0001
0000
1000
0000
1001
0000
,
0000
0000
0000
0000
,
1001
0110
1001
0110
,
1000
0010
1000
0010
1000
0010
1000
0000
,
0001
0110
1001
0110
,
0001
0100
0001
0100
0001
0100
0001
0000
,
1000
0110
1001
0110
,
0010
0100
0010
0100
0010
0100
0010
0000
,
1100
0110
0011
0200
,
0301
0010
0100
1000
,
0101
0101
1100
1100
,
1000
0100
0010
0001
,
1100
1100
0200
0320
,
1030
0001
1000
0001
1000
0001
1000
0000
,
0011
0011
1100
1100
,
0010
0100
0010
0100
0010
0100
0010
0000
,
1100
0011
1001
0000
,
1001
0000
0000
0000
;

//---------------dance-single - ----------------
#NOTES:
     dance-single:
     :
     Easy:
     6:
     0.419,0.606,0.654,0.357,0.000:
0000
0000
0000
0000
,
0000
0000
0000
0000
,
0000
0000
0000
0000
,
0000
0000
0000
0000
,
0010
0100
0010
0000
,
0100
0010
0100
0000
,
0001
1000
0001
0000
,
0002
0003
2000
3000
,
0010
0000
0100
0000
,
1000
0001
1000
0000
,
0100
0000
0010
0000
,
0001
1000
0001
0000
,
0010
0010
0010
0000
,
0100
0100
0100
0000
,
0002
0000
1000
0000
,
1000
0000
1003
0000
,
0010
0000
0000
0010
0000
0000
0000
0000
,
0100
0000
0000
0100
0000
0000
0000
0000
,
0001
0000
0000
0001
0000
0000
0000
0000
,
1000
0000
0000
1000
0000
0000
0000
0000
,
1001
0000
0000
1001
0000
0000
0000
0000
,
1001
0000
0000
1001
0000
0000
0000
0000
,
1001
0000
0000
1001
0000
0000
0001
0000
,
0010
0100
1000
1001
,
2000
3000
0002
0003
,
0110
0110
1001
1001
,
0002
0003
2000
3000
,
0110
0110
1001
1001
,
2000
3000
0002
0003
,
0110
0110
1001
1001
,
0220
0330
2002
3003
,
0110
0110
2002
3003
,
1000
0001
1000
0001
,
1000
1000
1001
1001
,
0001
1000
0001
1000
,
0001
0001
0002
0003
,
0100
0100
0010
0010
,
0100
0010
0220
0330
,
0010
0010
0100
0100
,
0001
0100
2002
3003
,
1000
1000
1000
0000
,
0001
0001
0001
0000
,
1000
1000
0001
0001
,
2000
3000
0002
0003
,
0010
0010
0010
0000
,
0100
0100
0100
0000
,
0010
0010
0100
0100
,
0020
0030
0200
0300
,
1000
0000
0000
1000
0000
0000
0000
0000
,
0001
0000
0000
0001
0000
0000
0000
0000
,
0010
0000
0000
0010
0000
0000
0000
0000
,
0100
0000
0000
0100
0000
0000
0000
0000
,
1001
0000
0000
1001
0000
0000
0000
0000
,
1001
0000
0000
1001
0000
0000
0000
0000
,
1001
0000
0000
1001
0000
0000
1000
0000
,
0100
0010
0001
1001
,
0000
0000
0000
0000
,
1001
1001
1001
0000
,
2000
3000
0002
0003
,
0110
0110
0110
0000
,
0202
0303
2020
3030
,
1001
1001
1001
0000
,
2200
3300
0022
0033
,
1001
1001
1001
0000
,
0001
0010
0100
1000
,
0101
0101
1100
1100
,
1000
0100
0010
0001
,
1100
1100
2002
3003
,
1000
0100
0010
0001
,
0101
0101
1100
1100
,
0001
0010
0100
1000
,
1001
1001
1001
0000
,
1001
0000
0000
0000
;

//---------------dance-single - Copied from----------------
#NOTES:
     dance-single:
     Copied from:
     Beginner:
     4:
     0.236,0.357,0.069,0.228,0.000: // measure 1
0000
0000
0000
0000
,  // measure 2
0000
0000
0000
0000
,  // measure 3
0000
0000
0000
0000
,  // measure 4
0000
0000
0000
0000
,  // measure 5
0010
0000
0010
0000
,  // measure 6
0100
0000
0100
0000
,  // measure 7
0001
0000
1000
0000
,  // measure 8
0001
0000
1000
0000
,  // measure 9
0010
0000
0010
0000
,  // measure 10
0100
0000
0100
0000
,  // measure 11
1000
0000
0001
0000
,  // measure 12
1000
0000
0001
0000
,  // measure 13
0010
0000
0010
0000
,  // measure 14
0100
0000
0100
0000
,  // measure 15
0002
0000
0000
0000
,  // measure 16
0000
0000
0003
0000
,  // measure 17
0020
0000
0030
0000
,  // measure 18
0200
0000
0300
0000
,  // measure 19
0002
0000
0003
0000
,  // measure 20
2000
0000
3000
0000
,  // measure 21
2002
0000
3003
0000
,  // measure 22
2002
0000
3003
0000
,  // measure 23
2002
0000
3003
0000
,  // measure 24
0010
0010
0010
0000
,  // measure 25
1000
0000
0001
0000
,  // measure 26
0010
0010
0010
0000
,  // measure 27
0001
0000
1000
0000
,  // measure 28
0010
0010
0010
0000
,  // measure 29
1000
0000
0001
0000
,  // measure 30
0100
0100
0100
0000
,  // measure 31
0001
0000
1000
0000
,  // measure 32
0100
0100
0100
0000
,  // measure 33
1000
0000
1000
0000
,  // measure 34
0100
0100
0100
0000
,  // measure 35
0001
0000
0001
0000
,  // measure 36
0100
0100
0100
0000
,  // measure 37
1000
0000
1000
0000
,  // measure 38
0010
0010
0010
0000
,  // measure 39
0001
0000
0001
0000
,  // measure 40
0010
0010
0010
0000
,  // measure 41
1000
0000
1000
0000
,  // measure 42
0001
0000
0001
0000
,  // measure 43
1000
0000
0001
0000
,  // measure 44
2000
0000
3000
0000
,  // measure 45
0010
0000
0010
0000
,  // measure 46
0100
0000
0100
0000
,  // measure 47
0010
0000
0100
0000
,  // measure 48
0020
0000
0030
0000
,  // measure 49
2000
0000
3000
0000
,  // measure 50
0002
0000
0003
0000
,  // measure 51
0020
0000
0030
0000
,  // measure 52
0200
0000
0300
0000
,  // measure 53
2002
0000
3003
0000
,  // measure 54
2002
0000
3003
0000
,  // measure 55
2002
0000
3003
0000
,  // measure 56
0100
0100
0100
0000
,  // measure 57
0000
0000
0000
0000
,  // measure 58
0001
0001
0001
0000
,  // measure 59
1000
0000
1000
0000
,  // measure 60
0001
0001
0001
0000
,  // measure 61
0100
0000
0010
0000
,  // measure 62
0100
0100
0100
0000
,  // measure 63
0010
0000
0100
0000
,  // measure 64
0010
0010
0010
0000
,  // measure 65
0001
0000
0001
0000
,  // measure 66
0100
0100
0100
0100
,  // measure 67
0100
0000
0010
0000
,  // measure 68
1000
1000
1000
1000
,  // measure 69
1000
0000
0010
0000
,  // measure 70
0001
0001
0001
0001
,  // measure 71
0001
0000
0100
0000
,  // measure 72
1000
1000
1000
0000
,  // measure 73
1001
0000
0000
0000
;
