#TITLE:Change The World;
#SUBTITLE:;
#ARTIST:Tatsh feat. 小田ユウ;
#TITLETRANSLIT:;
#SUBTITLETRANSLIT:;
#ARTISTTRANSLIT:Tatsh feat. Yu Oda;
#GENRE:;
#CREDIT:;
#BANNER:Change the World.png;
#BACKGROUND:Change the World-bg.png;
#LYRICSPATH:;
#CDTITLE:;
#MUSIC:Change the World.ogg;
#OFFSET:0.444000;
#SAMPLESTART:57.807747;
#SAMPLELENGTH:12.027977;
#SELECTABLE:YES;
#BPMS:0.000000=286.000000
,184.000000=143.000000
,200.000000=286.000000
,392.000000=143.000000
,400.000000=286.000000
,496.000000=143.000000
,504.000000=286.000000
,520.000000=143.000000
;
#STOPS:
;
#BGCHANGES:;
#KEYSOUNDS:;
#ATTACKS:;

//---------------dance-single - ----------------
#NOTES:
     dance-single:
     :
     Hard:
     15:
     0.768611,1.130711,0.357601,0.365729,0.032509,662.000000,618.000000,44.000000,45.000000,0.000000,0.000000,0.768611,1.130711,0.357601,0.365729,0.032509,662.000000,618.000000,44.000000,45.000000,0.000000,0.000000:
0000
0000
0000
0000
,
0000
0000
0000
0000
,
0000
0000
0000
0000
,
0000
0000
0000
0000
,
0000
0000
0000
0000
,
0000
0000
0000
0000
,
0000
0000
0000
0000
,
0000
0000
0000
0000
,
0000
0000
0000
0000
,
0000
0000
0000
0000
,
0000
0000
0000
0000
,
0000
0000
0000
0000
,
0000
0000
0000
0000
,
0000
0000
0000
0000
,
0002
0103
2000
3020
,
0130
0001
2000
0000
3010
0000
0200
0000
,
0310
2000
3100
0020
,
0031
2000
3010
1010
,
0002
0000
0103
0000
1000
0001
0100
0000
,
0010
2000
3001
0200
,
0310
2000
3100
0020
,
0031
0000
0110
0000
0001
0100
0010
1000
,
0020
0000
1030
0000
0001
0100
0010
0000
,
1000
0002
0103
0020
,
0130
0002
1003
0200
,
1300
0000
0010
0000
0100
0001
0010
0000
,
0002
0000
0103
0000
0010
1000
0002
0000
,
1003
0000
0100
0000
1000
0010
0100
0000
,
0101
0000
0000
1100
0000
0000
0110
0000
,
0000
1100
0011
1010
,
0001
0100
0010
1000
,
0001
0000
1000
0001
1000
0000
0001
0000
,
1000
0010
0100
0001
,
1000
0000
0100
0000
0010
0001
0010
0000
,
1000
0010
0001
0010
,
1000
0000
0100
1000
0100
0000
1000
0000
,
0100
0001
0100
0010
,
1000
0000
0001
0100
0010
0000
1000
0000
,
0001
0100
0010
0100
,
0001
0000
1000
0001
1000
0000
0010
0000
,
1000
0100
0010
0001
,
0100
0000
0001
1000
0001
0000
0100
0000
,
0010
1000
0100
0010
,
0001
0000
1000
0100
1000
0000
0001
0000
,
1001
0000
0010
0100
0010
0000
1001
0000
,
0000
2200
0000
3300
,
1001
0000
0000
0000
0010
0000
1000
0000
0100
0000
0001
1000
0001
0000
0000
0000
,
1001
0000
0000
0000
0010
0000
0001
0000
0100
0000
0001
1000
0001
0000
0000
0000
,
1100
0000
0000
0000
0001
0000
0010
0000
0100
0000
1000
0001
0100
0000
0000
0000
,
0011
0000
0000
0000
1000
0000
0100
0000
0001
1000
0001
1000
0001
0100
0001
0100
,
0010
0000
1001
0000
1000
0010
0100
0001
,
1000
0000
0101
0000
1000
0010
0100
0010
,
1000
0000
0011
0000
1000
0001
0100
0001
,
1000
0000
0101
0000
1000
0010
0100
0000
,
0001
0000
1000
0000
0100
1000
0001
1000
,
0100
0000
1000
0000
0001
0010
0001
1000
,
0001
0000
0100
0000
1000
0010
1000
0000
,
0001
0100
0001
0000
1000
0001
1000
0000
,
0010
1000
0010
0000
0100
0001
0100
0000
,
0001
0100
0010
1000
,
0001
0010
0001
0000
1000
0100
1000
0000
,
0001
0010
0100
1000
0001
0010
0100
0000
,
0011
0011
1100
1100
,
0101
0000
0000
1100
0000
0000
0022
0000
,
0000
0000
0000
0000
,
0033
0000
1000
0001
,
1000
0000
0001
0100
0000
0100
0001
0000
,
1000
0000
0010
0100
0000
0100
0010
0000
,
1000
0000
0100
0010
0001
0000
1000
0010
,
0100
0000
0001
0100
0010
0000
1000
0001
,
0100
0000
0001
1000
0100
1000
0001
0000
,
0010
0000
0001
1000
0001
1000
0100
0000
,
2000
3010
0110
1001
,
0001
0100
0010
0000
1000
0010
0200
0000
,
0000
0000
0310
1000
0010
0000
0001
0100
,
0010
0100
0001
0000
0010
1000
0001
0000
,
1000
0100
1000
0010
0100
0000
0001
0100
,
0010
0000
0000
0001
0000
0000
1000
0000
,
0010
0000
1000
0000
0001
0000
1000
0100
,
1000
0000
0001
0000
0100
0010
0100
0000
,
0001
0100
0001
0000
1000
0000
0010
0000
,
1000
0100
1000
0100
0010
0001
0010
0001
,
0100
0000
0001
1000
0000
0010
1000
0000
,
0100
0000
1000
0001
0000
0010
0001
0000
,
1000
0000
0001
0100
0010
0000
1000
0010
,
0100
0000
0001
1000
0100
0000
1000
0001
,
0010
0000
0001
0100
0000
0001
1000
0000
,
0010
0000
1000
0001
0000
1000
0100
0000
,
1100
0000
0000
1001
0000
0000
0010
0000
,
0101
0000
1000
0000
0001
0010
0100
0000
,
0000
0000
1000
0000
0001
0100
0010
0000
,
1000
0000
0001
1000
0010
1000
0100
0000
,
1000
0000
0001
0100
0001
0010
0001
0000
,
0000
1000
0101
1000
,
0010
0000
0000
1001
0000
0000
0100
0000
,
0001
0100
0001
0000
1000
0010
1000
0000
,
0001
0010
0100
1000
0001
0100
0010
0100
,
0001
1000
0100
0010
0001
0000
0000
0000
,
2002
0000
0000
0000
0000
0000
0003
0010
,
0020
0000
0000
3030
,
1000
0010
1000
0001
0100
0001
1000
0100
,
1000
0010
0100
0010
1000
0100
0010
0001
,
0100
0010
0100
0001
1000
0001
0100
0010
,
1000
0001
0010
0001
1000
0100
0010
0001
,
1000
0010
1000
0001
0010
0001
1000
0010
,
1000
0001
0010
0001
1000
0100
0010
0001
,
0100
0010
0100
0010
1000
0001
1000
0001
,
1000
0100
0010
0001
1000
0100
0010
0001
,
1000
0000
0001
0100
0010
0000
1000
0010
,
0100
0000
1001
0000
0001
0100
0010
1000
,
0100
0000
1000
0001
0100
0000
0010
1000
,
0100
0011
0110
1100
,
0110
0000
0001
1000
0100
0000
1000
0010
,
0100
0000
0001
0010
0100
0000
1000
0001
,
1000
0100
1000
0100
0010
0001
0010
0001
,
1000
0010
0100
0001
1000
0100
0010
0001
,
0200
0301
0002
0013
,
0020
0000
1030
0000
2000
0000
3001
0100
,
0020
1030
0200
2300
,
0000
0000
3020
0000
0130
0000
0001
1000
,
0200
0301
0010
2020
,
3030
0000
0110
0000
1000
0001
0100
0010
,
1000
0000
1001
0000
0001
0100
0010
1000
,
0002
0100
0103
2002
,
3003
0000
1001
0000
1000
0000
0100
0000
0010
0000
0001
1000
0001
0000
0100
0000
,
0010
1000
0001
1000
0100
0010
0001
0100
,
0010
1000
0010
1000
,
0010
1000
0010
1000
0010
1000
0010
1000
,
0001
0100
0001
0100
0010
1000
0010
1000
,
0001
0010
0100
1000
0001
0010
0100
1000
,
0002
0000
0000
0000
0000
0000
0000
1000
,
2000
0000
0000
0000
,
0000
0000
3003
0000
;

//---------------dance-single - ----------------
#NOTES:
     dance-single:
     :
     Medium:
     12:
     0.500410,0.753808,0.487638,0.381983,0.000000,431.000000,371.000000,60.000000,47.000000,0.000000,0.000000,0.500410,0.753808,0.487638,0.381983,0.000000,431.000000,371.000000,60.000000,47.000000,0.000000,0.000000:
0000
0000
0000
0000
,
0000
0000
0000
0000
,
0000
0000
0000
0000
,
0000
0000
0000
0000
,
0000
0000
0000
0000
,
0000
0000
0000
0000
,
0000
0000
0000
0000
,
0000
0000
0000
0000
,
0000
0000
0000
0000
,
0000
0000
0000
0000
,
0000
0000
0000
0000
,
0000
0000
0000
0000
,
0000
0000
0000
0000
,
0000
0000
0000
0000
,
1001
0000
1100
1100
,
0000
0101
0000
1100
,
0000
0101
0000
0110
,
0000
1000
0001
0100
,
0001
0000
1001
1001
,
0000
1010
0000
0011
,
0000
1010
0000
0011
,
0000
0100
0010
1000
,
0001
0000
1100
1100
,
0000
0101
0000
1100
,
0000
0011
0000
1010
,
0000
0001
0100
0000
,
2002
0000
3003
0110
,
0000
2002
3003
0000
,
0101
0000
0000
0101
0000
0000
0101
0000
,
0000
1001
1001
0000
,
0010
0100
0010
0100
,
0001
1000
0001
1000
,
0100
1000
0001
0010
,
0001
1000
0100
0010
,
0001
1000
0001
1000
,
0010
0100
0010
0100
,
0001
0100
1000
0100
,
0001
1000
0100
0001
,
0100
1000
0001
1000
,
0010
0100
0010
1000
,
0010
0001
0010
1000
,
0100
1000
0001
1000
,
0010
1000
0001
1000
,
0100
0001
1000
0001
,
1000
0000
0001
1001
,
0000
2002
3003
0000
,
0020
0030
1000
1001
,
0020
0030
0001
1001
,
0200
0300
1000
1001
,
0020
0030
0001
1100
,
0002
0000
0003
0000
,
1000
0000
0001
0000
,
1000
0100
0010
0000
,
0001
0100
0010
0000
,
1000
0001
1000
0001
,
1000
0100
0010
0001
,
0100
0010
0100
0001
,
0100
0010
0100
0001
,
1000
0010
0001
1000
,
0100
1000
0010
1000
,
0001
0100
0001
1000
,
0001
0100
0001
0000
,
1001
1001
1001
1001
,
1001
0000
0000
0110
0000
0000
2002
0000
,
0000
0000
0000
0000
,
3003
0000
0010
0100
,
0001
0000
0000
1001
0000
0000
1000
0000
,
0001
0000
0000
1001
0000
0000
1000
0000
,
0020
0030
0200
0300
,
0002
0003
2000
3000
,
0010
0000
0000
1010
0000
0000
0010
0000
,
0100
0000
0000
0101
0000
0000
0100
0000
,
0020
0030
1000
1001
,
0000
0110
0000
2000
,
0000
3001
0100
0001
,
1000
0100
0010
0001
,
1000
0001
1000
0001
,
0100
0000
0000
0110
0000
0000
1000
0000
,
0001
0100
0001
1000
,
0010
0100
0001
1000
,
0100
0010
0001
0100
,
0010
0000
1001
0000
,
0001
0000
0000
0110
0000
0000
1000
0000
,
0001
0000
0000
0110
0000
0000
1000
0000
,
0010
0100
0010
1000
,
0001
0100
0010
0100
,
0002
1000
0103
0000
,
2000
0001
3010
0000
,
1001
0000
0000
0010
0000
0000
1000
0000
,
0100
0000
1000
0001
,
0100
0000
0010
0000
,
1000
0001
1000
0001
,
0100
0000
0010
1000
,
0000
0101
0000
1000
,
0020
0000
0130
0001
,
2000
0000
3100
0000
,
0020
0000
0031
0000
,
0100
0010
1000
0001
,
0200
0000
0000
0000
0000
0000
0300
0001
,
2000
0000
0000
3000
,
0001
0100
0000
0001
0100
0000
0001
0000
,
1000
0100
0010
0001
,
1000
0100
0000
1000
0100
0000
1000
0000
,
0001
0100
0010
1000
,
0010
0100
0000
0010
0100
0000
0010
0100
,
0000
0010
0100
0000
0001
0000
1000
0000
,
0001
0100
0001
0000
0100
0000
0001
0000
,
0100
0010
0100
0000
0001
0000
2000
0000
,
0000
3010
0100
0010
,
1000
0000
0001
0000
1000
0001
1000
0000
,
0010
0100
0010
1000
,
0100
0000
0010
0000
0001
0100
0001
0000
,
0100
0010
1000
0010
,
1000
0010
1000
0001
,
1000
0100
0010
0001
,
0100
0010
1001
0000
,
0200
0300
0002
0003
,
0020
0030
2000
3000
,
0200
0300
0002
2003
,
0000
3020
0130
0001
,
2000
3000
0010
2020
,
3030
0110
1000
0100
,
0010
0001
0100
0010
,
2000
0000
3000
2002
,
3003
0010
1000
0001
,
1001
0010
0001
0110
,
0002
0000
0103
0000
,
2000
0000
3100
0000
,
0001
0010
0100
1000
,
0010
0100
0001
1000
,
2002
0000
0000
3003
,
0220
0000
0000
0000
,
0000
0000
0330
0000
;

//---------------dance-single - ----------------
#NOTES:
     dance-single:
     :
     Easy:
     7:
     0.284456,0.592277,0.146292,0.333220,0.000000,245.000000,227.000000,18.000000,41.000000,0.000000,0.000000,0.284456,0.592277,0.146292,0.333220,0.000000,245.000000,227.000000,18.000000,41.000000,0.000000,0.000000:
0000
0000
0000
0000
,
0000
0000
0000
0000
,
0000
0000
0000
0000
,
0000
0000
0000
0000
,
0000
0000
0000
0000
,
0000
0000
0000
0000
,
0000
0000
0000
0000
,
0000
0000
0000
0000
,
0000
0000
0000
0000
,
0000
0000
0000
0000
,
0000
0000
0000
0000
,
0000
0000
0000
0000
,
0000
0000
0000
0000
,
0000
0000
0000
0000
,
0001
0000
1000
0001
,
0000
1000
0000
0010
,
0000
0010
0000
0010
,
0000
1001
0000
0000
,
0001
0000
1000
0001
,
0000
0100
0000
0100
,
0000
0100
0000
0100
,
0000
0100
0000
0000
,
0001
0000
1000
0100
,
0000
0001
0000
0100
,
0000
1000
0000
0010
,
0000
0001
0100
0000
,
0020
0000
0030
0010
,
0000
0010
0000
0000
,
0100
0000
0000
0100
0000
0000
0100
0000
,
0000
2002
3003
0000
,
0010
0000
0100
0000
,
0001
0000
1000
0000
,
0100
0000
1000
0000
,
0001
0000
0010
0000
,
0001
0000
1000
0000
,
0001
0000
1000
0000
,
0001
0000
0100
0000
,
1000
0000
0100
0000
,
0001
0000
1000
0000
,
0010
0000
0100
0000
,
1000
0000
0010
0000
,
0001
0000
0010
0000
,
1000
0000
0001
1000
,
0000
0001
0000
0000
,
1000
0000
0001
1000
,
0000
0002
0003
0000
,
0020
0030
0000
1001
,
0020
0030
0000
1001
,
0200
0300
0000
1001
,
0020
0030
0000
1001
,
0020
0000
0030
0000
,
1000
0000
0001
0000
,
1000
0000
0100
0000
,
0010
0000
0001
0000
,
1000
0001
1000
0000
,
0001
0000
1000
0000
,
0001
1000
0001
0000
,
1000
0000
0001
0000
,
1000
0100
1000
0000
,
0001
0100
0001
0000
,
0010
0000
0100
0000
,
0001
0000
1000
0000
,
0010
0100
0010
0100
,
0010
0000
0000
2002
,
0000
0000
0000
0000
,
3003
0000
0010
0000
,
0001
0000
1000
0000
,
0001
0000
1000
0000
,
0010
0000
0010
0000
,
2002
0000
3003
0000
,
1000
0000
0001
0000
,
1000
0000
0001
0000
,
0100
0000
0100
0000
,
2002
0000
3003
0000
,
0010
0000
1000
0000
,
0100
0000
0001
0000
,
0010
0000
0001
0000
,
0100
0000
1000
0000
,
0020
0000
0000
0000
,
0200
0000
0000
0000
,
0000
0000
0330
0000
,
0001
0000
1100
0000
,
0010
0000
0010
0000
,
1001
0000
0001
0000
,
0100
0000
1000
0000
,
0100
0000
0001
0000
,
0010
0000
0000
0000
,
1001
0000
0000
0000
,
0100
0000
0010
0000
,
2002
0000
3003
0000
,
0001
0000
0100
0000
,
1000
0000
0100
0000
,
0001
0000
0010
0000
,
1000
0000
0010
0000
,
0002
0000
0003
0000
,
2000
0000
0000
0000
,
3000
0000
0000
0000
,
0020
0000
0030
0000
,
0002
0000
0000
0000
,
2000
0000
0000
3003
,
0001
0100
0001
0000
,
1000
0000
0010
0000
,
1000
0100
1000
0000
,
0001
0000
0010
0000
,
0010
0100
0010
0000
,
0100
0010
0100
0000
,
0001
0000
0100
0000
,
1000
0000
0100
0200
,
0000
0000
0310
0000
,
1000
0000
0001
0000
,
1000
0000
0010
0000
,
0100
0000
0001
0000
,
0100
0010
0100
0000
,
0001
1000
0001
0000
,
1000
0000
0010
0000
,
0100
0000
0001
0000
,
0200
0300
0002
0003
,
0020
0030
2000
3000
,
0200
0300
0000
0002
,
0000
0000
1003
0000
,
2000
0000
0000
0002
,
3003
0000
1001
0000
,
0010
0000
0100
0000
,
2000
0000
3000
2002
,
3003
0010
1000
0001
,
1001
0010
0001
0110
,
0002
0000
0103
0000
,
2000
0000
3100
0000
,
0002
0000
0103
0000
,
0010
0000
1001
0000
,
2000
0000
0000
0000
,
0002
0000
0000
0000
,
0000
0000
3003
0000
;

//---------------dance-single - ----------------
#NOTES:
     dance-single:
     :
     Beginner:
     5:
     0.195055,0.269217,0.016255,0.195055,0.000000,168.000000,166.000000,2.000000,24.000000,0.000000,0.000000,0.195055,0.269217,0.016255,0.195055,0.000000,168.000000,166.000000,2.000000,24.000000,0.000000,0.000000:
0000
0000
0000
0000
,
0000
0000
0000
0000
,
0000
0000
0000
0000
,
0000
0000
0000
0000
,
0000
0000
0000
0000
,
0000
0000
0000
0000
,
0000
0000
0000
0000
,
0000
0000
0000
0000
,
0000
0000
0000
0000
,
0000
0000
0000
0000
,
0000
0000
0000
0000
,
0000
0000
0000
0000
,
0000
0000
0000
0000
,
0000
0000
0000
0000
,
0001
0000
0000
0001
,
0000
0001
0000
1000
,
0000
1000
0000
1000
,
0000
1000
0000
0000
,
0010
0000
0000
0010
,
0000
0010
0000
0100
,
0000
0100
0000
0100
,
0000
0100
0000
0000
,
0001
0000
0000
1000
,
0000
1000
0000
1000
,
0000
0001
0000
0001
,
0000
0001
0000
0000
,
0010
0000
0000
0010
,
0000
0000
0000
0000
,
0100
0000
0000
0100
,
0000
0100
0000
0000
,
0000
0000
0100
0000
,
0001
0000
1000
0000
,
0000
0000
0100
0000
,
1000
0000
0001
0000
,
0000
0000
1000
0000
,
0001
0000
0010
0000
,
0000
0000
0001
0000
,
1000
0000
0010
0000
,
0000
0000
1000
0000
,
0010
0000
1000
0000
,
0000
0000
0001
0000
,
0010
0000
0001
0000
,
0000
0000
0001
0000
,
0100
0000
0001
0000
,
1000
0000
0000
1000
,
0000
2000
3000
0000
,
0010
0000
0000
1000
,
0001
0000
0000
0001
,
1000
0000
0000
1000
,
0001
0000
0000
0001
,
1000
0000
0000
0000
,
1000
0000
0001
0000
,
1000
0000
0000
0000
,
0010
0000
0000
0000
,
1000
0000
0001
0000
,
1000
0000
0000
0000
,
0001
0000
1000
0000
,
0001
0000
0000
0000
,
1000
0000
0100
0000
,
1000
0000
0000
0000
,
0001
0000
0100
0000
,
0001
0000
0000
0000
,
0010
0000
0010
0000
,
0010
0000
0000
2002
,
0000
0000
0000
0000
,
3003
0000
0010
0000
,
0002
0000
0003
0000
,
2000
0000
3000
0000
,
0010
0000
0010
0000
,
0020
0000
0030
0000
,
2000
0000
3000
0000
,
0002
0000
0003
0000
,
0100
0000
0100
0000
,
0200
0000
0300
0000
,
0000
0000
1000
0000
,
0000
0000
0001
0000
,
0000
0000
0001
0000
,
1000
0000
0001
0000
,
1000
0000
0000
0000
,
2002
0000
0000
0000
,
3003
0000
0000
0000
,
0001
0000
0001
0000
,
0001
0000
0000
0000
,
1000
0000
0000
0000
,
0010
0000
0010
0000
,
0010
0000
0000
0000
,
0100
0000
0000
0000
,
0010
0000
0000
0000
,
0100
0000
0100
0000
,
0200
0000
0300
0000
,
0000
0000
0100
0000
,
0000
0000
0100
0000
,
0000
0000
0010
0000
,
0000
0000
0010
0000
,
0010
0000
0000
0000
,
0200
0000
0000
0000
,
0300
0000
0000
0000
,
0010
0000
0000
0000
,
0002
0000
0000
0000
,
2000
0000
0000
3003
,
0000
0000
0001
0000
,
1000
0000
0001
0000
,
0000
0000
1000
0000
,
0001
0000
1000
0000
,
0010
0000
0010
0000
,
0100
0000
0100
0000
,
0001
0000
1000
0000
,
0001
0000
0000
0200
,
0000
0000
0300
0000
,
1000
0000
0001
0000
,
1000
0000
0000
0000
,
0001
0000
1000
0000
,
0002
0000
0003
0000
,
2000
0000
3000
0000
,
1000
0000
0010
0000
,
0100
0000
0001
0000
,
1000
0000
1000
0000
,
1000
0000
0000
0000
,
0001
0000
0000
0001
,
0000
0000
0001
0000
,
1000
0000
0000
0001
,
0000
0000
1000
0000
,
0010
0000
1000
0000
,
0001
0000
0000
0020
,
0000
0030
0000
1000
,
0000
0001
0000
0100
,
0200
0000
0300
0000
,
0200
0000
0300
0000
,
0020
0000
0030
0000
,
1000
0000
0001
0000
,
2000
0000
0000
0000
,
0002
0000
0000
0000
,
0000
0000
3003
0000
;

//---------------dance-double - ----------------
#NOTES:
     dance-double:
     :
     Easy:
     7:
     0.289100,0.430747,0.130037,0.121910,0.000000,249.000000,233.000000,16.000000,15.000000,0.000000,0.000000,0.289100,0.430747,0.130037,0.121910,0.000000,249.000000,233.000000,16.000000,15.000000,0.000000,0.000000:
00000000
00000000
00000000
00000000
,
00000000
00000000
00000000
00000000
,
00000000
00000000
00000000
00000000
,
00000000
00000000
00000000
00000000
,
00000000
00000000
00000000
00000000
,
00000000
00000000
00000000
00000000
,
00000000
00000000
00000000
00000000
,
00000000
00000000
00000000
00000000
,
00000000
00000000
00000000
00000000
,
00000000
00000000
00000000
00000000
,
00000000
00000000
00000000
00000000
,
00000000
00000000
00000000
00000000
,
00000000
00000000
00000000
00000000
,
00000000
00000000
00000000
00000000
,
10010000
00000000
01000000
00001000
,
00000000
00010000
00000000
00000100
,
00000000
00001000
00000000
00000001
,
00000000
00001000
00000001
00001000
,
00000001
00000000
00001000
00000100
,
00000000
00010000
00000000
00001000
,
00000000
01000000
00000000
00100000
,
00000000
10000000
00010000
00000000
,
10000000
00000000
00010000
00100000
,
00000000
00001000
00000000
00010000
,
00000000
00000010
00000000
00001000
,
00000000
00000001
00000100
00000000
,
00001010
00000000
00000000
00011000
,
00000000
00000000
00100000
00000000
,
00010000
00000000
00000000
00010000
00000000
00000000
00010000
00000000
,
00000000
10000000
00010000
00000000
,
10000000
00000000
01000000
00000000
,
00100000
00000000
00010000
00000000
,
01000000
00000000
00001000
00000000
,
00010000
00000000
00000100
00000000
,
00001000
00000000
00000100
00000000
,
00000010
00000000
00000001
00000000
,
00000100
00000000
00010000
00000000
,
00001000
00000000
01000000
00000000
,
00100000
00000000
10000000
00000000
,
00010000
00000000
01000000
00000000
,
00001000
00000000
00010000
00000000
,
00000010
00000000
00001000
00000000
,
00000001
00000000
00000100
00000000
,
00000010
00000000
00010000
00000000
,
00001000
00000000
01000000
01000000
,
00000000
20020000
00000000
30030000
,
10000000
00000000
00000000
00011000
,
00010000
00000000
00000000
00001001
,
00001000
00000000
00000000
00011000
,
00010000
00000000
00000000
10010000
,
10000000
00000000
01000000
00000000
,
10000000
00000000
00010000
00000000
,
01000000
00000000
00001000
00000000
,
00010000
00000000
00000010
00000000
,
00001000
00000000
00000100
00000000
,
00000010
00000000
00000001
00000000
,
00001000
00000000
00000000
00000000
,
00000100
00000000
00000000
00000000
,
00010000
00000000
00000000
00000000
,
00001000
00000000
00000000
00000000
,
01000000
00000000
00010000
00000000
,
10000000
00000000
00100000
00000000
,
10000000
00010000
10000000
00010000
,
10000000
00000000
00000000
00010000
00000000
00000000
20020000
00000000
,
00000000
00000000
00000000
00000000
,
30030000
00000000
00100000
00000000
,
10000000
00000000
01000000
00000000
,
00001000
00000000
00000100
00000000
,
00000001
00000000
00000100
00000000
,
00010000
00000000
01000000
00000000
,
10000000
00000000
00100000
00000000
,
00001000
00000000
00000010
00000000
,
00000001
00000000
00000010
00000000
,
00010000
00000000
00000000
00100000
,
00000000
00000000
00010000
00000000
,
10000000
00000000
01000000
00000000
,
10010000
00000000
00000000
00000000
,
00100000
00000000
00000000
00100000
00000000
00000000
00001000
00000000
,
00020000
00030000
00000000
00000010
,
00000200
00000000
00000000
00000300
,
00000001
00000000
00001000
00000000
,
00000001
00000000
00001001
00000000
,
00000001
00000000
00000100
00000000
,
00010000
00000000
01000000
00000000
,
10000000
00000000
01000000
00000000
,
00010000
00000000
00000100
00000000
,
00000001
00000000
00000000
00000000
,
00001001
00000000
00000000
00000000
,
00001000
00000000
00010000
00000000
,
01000000
00000000
10000000
00010000
,
00000000
00000000
10010000
00000000
,
01000000
00000000
00100000
00000000
,
00001000
00000000
00010000
00000000
,
00000010
00000100
00000010
00000000
,
00001001
00000000
00000000
00001000
,
00000200
00000000
00000000
00000000
,
00010300
00000000
00001000
00000000
,
01000000
00000000
00100000
00000000
,
20020000
00000000
00000000
30000000
,
00200000
00000000
00000000
00330000
,
01000000
00000000
00010000
00000000
,
00001000
00000000
00000100
00000000
,
00000001
00000000
00000100
00000000
,
00001000
00000000
00100000
00000000
,
10000000
00000000
01000000
00000000
,
00010000
00000000
00100000
00000000
,
00001000
00000000
00000100
00000000
,
00000001
00000000
00001001
00000000
,
00000010
00001000
00000010
00001000
,
00000010
00000000
00010000
00000000
,
00001000
01000000
00001000
01000000
,
00001000
00000000
00100000
00000000
,
10000000
01000000
10000000
00000000
,
00001000
00000000
00010000
00000000
,
00000001
00000100
00000001
00000000
,
00010000
00000000
00001000
00000000
,
00100000
00000000
00010000
00000000
,
01000000
00000000
10000000
00000000
,
00100000
00000000
00001000
00010000
,
00000000
00000100
00001000
00000010
,
00000001
00000000
00000100
00000000
,
00010000
00000000
00100000
00000000
,
01000000
00000000
10000000
00000000
,
00100000
00000000
01000000
00010000
,
00000000
00000000
00001000
00000000
,
00000001
00000000
00001000
00000000
,
00000020
00000000
00000030
00000000
,
00000200
00000000
00000300
00000000
,
00020000
00000000
00030000
00000000
,
00001000
00000000
01000000
00000000
,
00200000
00000000
00000000
00000000
,
02000000
00000000
00000000
00000000
,
00000000
00000000
03300000
00000000
;

//---------------dance-double - ----------------
#NOTES:
     dance-double:
     :
     Hard:
     15:
     0.683855,0.915338,0.162546,0.349474,0.028446,589.000000,569.000000,20.000000,43.000000,0.000000,0.000000,0.683855,0.915338,0.162546,0.349474,0.028446,589.000000,569.000000,20.000000,43.000000,0.000000,0.000000:
// measure 0
00000000
00000000
00000000
00000000
,  // measure 1
00000000
00000000
00000000
00000000
,  // measure 2
00000000
00000000
00000000
00000000
,  // measure 3
00000000
00000000
00000000
00000000
,  // measure 4
00000000
00000000
00000000
00000000
,  // measure 5
00000000
00000000
00000000
00000000
,  // measure 6
00000000
00000000
00000000
00000000
,  // measure 7
00000000
00000000
00000000
00000000
,  // measure 8
00000000
00000000
00000000
00000000
,  // measure 9
00000000
00000000
00000000
00000000
,  // measure 10
00000000
00000000
00000000
00000000
,  // measure 11
00000000
00000000
00000000
00000000
,  // measure 12
00000000
00000000
00000000
00000000
,  // measure 13
00000000
00000000
00000000
00000000
,  // measure 14
20200000
00000000
30300000
00000000
00010000
01000000
00100000
00000000
,  // measure 15
10000000
00000000
00100000
00000000
00010000
01000000
00001000
00000000
,  // measure 16
00010000
00000000
00000100
00000000
00001000
00000010
00000100
00000000
,  // measure 17
00000001
00001000
00000100
00000000
00001000
00000001
00000100
00000000
,  // measure 18
00000002
00000000
00000103
00000000
00001000
00000100
00001000
00000000
,  // measure 19
00000100
00000000
00010000
00000000
00001000
01000000
00001000
00000000
,  // measure 20
01000000
00000000
00100000
00000000
10000000
00010000
10000000
00000000
,  // measure 21
00200000
02300000
03002000
00000000
,  // measure 22
00013000
00000000
00000100
00000000
00001000
00000010
00000100
00000000
,  // measure 23
00000001
00000000
00001000
00000000
00000100
00010000
00001000
00000000
,  // measure 24
01000000
00000000
00010000
00000000
10000000
01000000
00100000
00000000
,  // measure 25
00010000
01000000
00001000
00010000
,  // measure 26
00000100
00000000
00001000
00000001
00001000
00000000
00000010
00001000
,  // measure 27
00000010
00000000
00001000
00000100
00001000
00000000
00000100
00000000
,  // measure 28
00010000
00000000
00000000
00001000
00000000
00000000
00100000
00000000
,  // measure 29
00000000
10010000
10010000
01010000
,  // measure 30
10010000
00000000
00100000
10000000
,  // measure 31
01000000
00100000
00001000
00010000
,  // measure 32
00000100
00000000
00001000
00000010
00000100
00000000
00000001
00000100
,  // measure 33
00000010
00000000
00001000
00000100
00010000
00000000
00001000
00000000
,  // measure 34
00100000
00010000
01000000
00001000
,  // measure 35
00010000
00000100
00001000
00000001
,  // measure 36
00001000
00000000
00000100
00010000
00001000
00000000
01000000
00010000
,  // measure 37
10000000
00100000
10000000
01000000
,  // measure 38
10000000
00000000
00010000
01000000
00010000
00000000
10000000
01000000
,  // measure 39
10000000
00010000
00100000
00001000
,  // measure 40
00010000
00000000
00000010
00001000
00000010
00000000
00001000
00000001
,  // measure 41
00001000
00000100
00010000
00001000
,  // measure 42
01000000
00000000
00100000
10000000
00100000
00000000
01000000
00010000
,  // measure 43
01000000
00100000
10000000
01000000
,  // measure 44
00100000
00001000
00000000
00011000
,  // measure 45
00000000
00001001
00000000
00010000
,  // measure 46
00002000
00000000
00000000
00000000
00000000
00000000
00100000
00000000
00013000
00000000
01000000
00100000
01000000
00000000
00000000
00000000
,  // measure 47
20000000
00000000
00000000
00000000
00000000
00000000
30010000
00000000
00100000
00000000
00001000
00010000
00001000
00000000
00000000
00000000
,  // measure 48
00020000
00000000
00000000
00000000
00000000
00000000
00030010
00000000
00001000
00000000
00000001
00000100
00000001
00000000
00000000
00000000
,  // measure 49
00002000
00000000
00000000
00000000
00000000
00000000
00003100
00000000
00010000
00001000
00010000
00001000
00100000
00010000
00100000
00010000
,  // measure 50
01000000
00010000
10000000
01000000
,  // measure 51
10000000
00010000
01000000
00001000
,  // measure 52
00010000
00000100
00001000
00000001
,  // measure 53
00001000
00000010
00000100
00000000
00000001
00000100
00000010
00000000
,  // measure 54
00001000
00000000
00000100
00000000
00001000
00000100
00010000
00000000
,  // measure 55
00010000
00001000
01000000
00000000
00010000
10000000
01000000
00000000
,  // measure 56
10000000
00000000
00100000
00000000
01000000
00001000
00010000
00000000
,  // measure 57
00010000
00000100
00001000
00000000
00001000
00000010
00000100
00000000
,  // measure 58
00000010
00001000
00000100
00001001
,  // measure 59
00000100
00010000
00001000
00100000
,  // measure 60
00010000
01000000
10000000
00010000
,  // measure 61
01000000
00001000
00010000
00000100
,  // measure 62
00001100
00001100
00000101
00000101
,  // measure 63
00001100
00000000
00000000
00010100
00000000
00000000
00022000
00000000
,  // measure 64
00000000
00000000
00000000
00000000
,  // measure 65
00033000
00000000
00100000
00001000
,  // measure 66
01000000
00000000
00010000
01000000
00000000
00010000
01000000
00000000
,  // measure 67
00001000
00000000
00010000
00000100
00000000
00010000
00000100
00000000
,  // measure 68
00001000
00000010
00000100
00000000
00000001
00001000
00000100
00000000
,  // measure 69
00010000
00001000
01000000
00000000
00010000
10000000
01000000
00000000
,  // measure 70
10000000
00000000
00010000
01000000
00000000
00010000
01000000
00000000
,  // measure 71
00001000
00000000
00010000
00000100
00000000
00010000
00000100
00000000
,  // measure 72
00001000
00000000
00000010
00000100
00000001
00000000
00001000
00000000
,  // measure 73
00000100
00010000
00001000
00000000
00010000
00000000
00002000
00000000
,  // measure 74
00000000
01003000
00010000
01000000
,  // measure 75
00100000
00000000
10000000
00000000
00100000
01000000
00010000
00000000
,  // measure 76
01000000
00001000
00010000
00000100
,  // measure 77
00001000
00000100
00000010
00000001
00000100
00000000
00000010
00000000
,  // measure 78
00002000
00000100
00003100
00010000
,  // measure 79
00002000
00100000
00100000
00010000
,  // measure 80
00103000
00010000
01000000
00000000
00100000
10000000
01000000
00000000
,  // measure 81
10000000
00010000
10010000
00000000
,  // measure 82
10000000
00010000
01000000
00010000
10000000
00000000
00010000
00000000
,  // measure 83
00100000
00001000
00010000
00001000
00100000
00000000
00001000
00000000
,  // measure 84
00010000
00000100
00001000
00000000
00001000
00000001
00000100
00000000
,  // measure 85
00000010
00001000
00000100
00000000
00010000
00001000
01000000
00000000
,  // measure 86
00100000
10000000
01000000
00100000
00010000
00000000
00100000
00000000
,  // measure 87
00001000
00010000
00000100
00001000
00000010
00000000
00000100
00000000
,  // measure 88
00000001
00000100
00000000
00000001
00001000
00000000
00000100
00000000
,  // measure 89
00010000
00001000
01000000
00020000
,  // measure 90
00000000
10030000
00100000
10000000
,  // measure 91
00020000
00000000
02000000
00030000
,  // measure 92
00002000
03000000
00013000
00000010
,  // measure 93
00001000
00000100
00000010
00000001
,  // measure 94
00000200
00000000
00000310
00000000
00001000
00000100
00010000
00000000
,  // measure 95
00002000
00000000
01003000
00000000
00010000
10000000
00010000
00000000
,  // measure 96
10000000
00010000
10000000
00000000
00010000
01000000
00001000
00000000
,  // measure 97
00010000
00001000
00010000
00000000
00000100
00001000
00000010
00000000
,  // measure 98
00002002
00000000
00000000
00000000
00000000
00000000
00003003
00010000
,  // measure 99
00022000
00000000
00000000
00033000
,  // measure 100
00100000
00010000
00000000
01000000
00010000
00000000
10000000
01000000
,  // measure 101
00100000
00000000
01000000
00000000
00001000
00010000
00000100
00000000
,  // measure 102
00001000
00000010
00000000
00000100
00000001
00000000
00001000
00000100
,  // measure 103
00001000
00000000
00000100
00000000
00010000
00001000
01000000
00001000
,  // measure 104
01000000
00001000
00000000
01000000
00010000
00000000
10000000
01000000
,  // measure 105
00100000
00010000
00000000
01000000
00001000
00010000
00001000
01000000
,  // measure 106
00001000
00000000
00010000
00000100
00001000
00000000
00000010
00001000
,  // measure 107
00000100
00001000
00000010
00000100
00000001
00000000
00001000
00000000
,  // measure 108
00000010
00000000
00001000
00000100
00001000
00000000
00000100
00010000
,  // measure 109
00000100
00000000
00010000
00000000
00001000
00100000
00010000
01000000
,  // measure 110
00100000
00000000
10000000
01000000
10000000
00000000
00010000
01000000
,  // measure 111
00010000
00000000
01000000
00000000
00001000
00010000
00000100
00010000
,  // measure 112
00000010
00000000
00001000
00000001
00000100
00000000
00000010
00000000
,  // measure 113
00010000
00000000
00001000
00010000
00001000
00000000
01000000
00000000
,  // measure 114
00100000
10000000
01000000
10000000
00100000
01000000
00010000
00100000
,  // measure 115
00010000
01000000
00100000
10000000
00020000
00000000
01030000
00000000
,  // measure 116
00200000
10300000
20000000
31000000
,  // measure 117
02000000
00000000
03010000
00000000
00100000
00000000
00001000
00010000
,  // measure 118
00000200
00001300
00002000
00003020
,  // measure 119
00000000
00000000
00000130
00000000
00000001
00001000
00000100
00001000
,  // measure 120
00000002
00001003
00002000
00003200
,  // measure 121
00010300
00020000
00032000
02003000
,  // measure 122
03200000
10000000
01000000
10300000
,  // measure 123
00010000
01000000
00100000
20020000
,  // measure 124
30030000
00000000
01100000
00000000
10000000
01000000
00100000
00010000
,  // measure 125
00001000
00000100
00000010
00000001
00001000
00000100
00010000
00001000
,  // measure 126
00100000
00001000
00010000
00001000
,  // measure 127
00100000
00010000
01000000
00000000
00100000
10000000
01000000
00000000
,  // measure 128
10000000
00010000
10000000
00010000
01000000
00001000
01000000
00001000
,  // measure 129
00010000
00000100
00010000
00000100
00001000
00000001
00001000
00000100
,  // measure 130
00020000
00000000
00000000
00000000
00000000
00000000
00000000
00001000
,  // measure 131
00002000
00000000
00000000
00000000
,  // measure 132
00000000
00000000
00033000
00000000
;

//---------------dance-double - ----------------
#NOTES:
     dance-double:
     :
     Medium:
     11:
     0.416815,0.646121,0.081273,0.308838,0.000000,359.000000,349.000000,10.000000,38.000000,0.000000,0.000000,0.416815,0.646121,0.081273,0.308838,0.000000,359.000000,349.000000,10.000000,38.000000,0.000000,0.000000:
// measure 0
00000000
00000000
00000000
00000000
,  // measure 1
00000000
00000000
00000000
00000000
,  // measure 2
00000000
00000000
00000000
00000000
,  // measure 3
00000000
00000000
00000000
00000000
,  // measure 4
00000000
00000000
00000000
00000000
,  // measure 5
00000000
00000000
00000000
00000000
,  // measure 6
00000000
00000000
00000000
00000000
,  // measure 7
00000000
00000000
00000000
00000000
,  // measure 8
00000000
00000000
00000000
00000000
,  // measure 9
00000000
00000000
00000000
00000000
,  // measure 10
00000000
00000000
00000000
00000000
,  // measure 11
00000000
00000000
00000000
00000000
,  // measure 12
00000000
00000000
00000000
00000000
,  // measure 13
00000000
00000000
00000000
00000000
,  // measure 14
20200000
30300000
00010000
00100000
,  // measure 15
00000000
00001000
00000000
00010000
,  // measure 16
00000000
00000100
00001000
00000010
,  // measure 17
00000000
00000001
00001000
00000000
,  // measure 18
00000002
00000003
00001000
00000100
,  // measure 19
00000000
00010000
00001000
01000000
,  // measure 20
00000000
00100000
10000000
00010000
,  // measure 21
00000000
01000000
00001000
00000000
,  // measure 22
00010000
00000100
00001000
00000100
,  // measure 23
00000000
00001000
00000100
00010000
,  // measure 24
00000000
01000000
00010000
10000000
,  // measure 25
00000000
00010000
01000000
00001000
,  // measure 26
00010000
00000000
00000010
00001000
,  // measure 27
00000000
00002200
00003300
00000000
,  // measure 28
00010000
00000000
00000000
00001000
00000000
00000000
00100000
00000000
,  // measure 29
00000000
10010000
10010000
01010000
,  // measure 30
10010000
00000000
00100000
10000000
,  // measure 31
01000000
00100000
00001000
00010000
,  // measure 32
00000100
00001000
00000010
00001000
,  // measure 33
00000100
00010000
00001000
00100000
,  // measure 34
00010000
01000000
00001000
00010000
,  // measure 35
00000100
00001000
00000001
00001000
,  // measure 36
00000100
00010000
00001000
01000000
,  // measure 37
00010000
10000000
00100000
10000000
,  // measure 38
00010000
01000000
00010000
10000000
,  // measure 39
01000000
10000000
00100000
01000000
,  // measure 40
00001000
00010000
00001000
00010000
,  // measure 41
00000100
00010000
00001000
00100000
,  // measure 42
00010000
01000000
00100000
10000000
,  // measure 43
00100000
01000000
00010000
01000000
,  // measure 44
00001000
00010000
00000100
00001000
,  // measure 45
00000000
00001001
00000000
00010000
,  // measure 46
00002000
00000000
00000000
00100000
00013000
00000000
01000000
00000000
,  // measure 47
20000000
00000000
00000000
30010000
00100000
00000000
00001000
00000000
,  // measure 48
00020000
00000000
00000000
00030010
00001000
00000000
00000001
00000000
,  // measure 49
00002000
00000000
00000000
00003100
00010000
00000000
00001000
00000000
,  // measure 50
01000000
00010000
10000000
01000000
,  // measure 51
10000000
00010000
01000000
00001000
,  // measure 52
00010000
00000100
00001000
00000001
,  // measure 53
00001000
00000100
00000000
00010000
,  // measure 54
00001000
00010000
00001000
00100000
,  // measure 55
00000000
00010000
00000000
01000000
,  // measure 56
00100000
00000000
10000000
01000000
,  // measure 57
00010000
00000000
01000000
00100000
,  // measure 58
20000000
00000000
00000000
30000000
,  // measure 59
00000000
00010000
01000000
00002000
,  // measure 60
00010000
00000000
00010000
00000000
,  // measure 61
00010000
00000000
00013000
00000000
,  // measure 62
00000100
00001000
00000010
00001000
,  // measure 63
00000100
00000000
00000000
00000100
00000000
00000000
00022000
00000000
,  // measure 64
00000000
00000000
00000000
00000000
,  // measure 65
00033000
00000000
00100000
00001000
,  // measure 66
01000000
00000000
00000000
00010000
00000000
00000000
01000000
00000000
,  // measure 67
00001000
00000000
00000000
00010000
00000000
00000000
00000100
00000000
,  // measure 68
00001000
00000000
00000100
00000000
,  // measure 69
00001000
00000000
01000000
00000000
,  // measure 70
00100000
00000000
00000000
01000000
00000000
00000000
00010000
00000000
,  // measure 71
00100000
00000000
00000000
00001000
00000000
00000000
00010000
00000000
,  // measure 72
00000010
00000000
00000100
00000001
,  // measure 73
00000000
00001000
00000000
00002000
,  // measure 74
00000000
00003100
00010000
00001000
,  // measure 75
00000000
00100000
00010000
10000000
,  // measure 76
01000000
00000000
00010000
00000000
,  // measure 77
01000000
00000000
00000000
00010000
00000000
00000000
00000100
00000000
,  // measure 78
00002000
00000100
00003100
00010000
,  // measure 79
00002000
00100000
00100000
00000000
,  // measure 80
00103000
00010000
01000000
00000000
,  // measure 81
01000000
00000000
10010000
00000000
,  // measure 82
10000000
00000000
00000000
00010000
00000000
00000000
00100000
00000000
,  // measure 83
00001000
00000000
00000000
00010000
00000000
00000000
00000100
00000000
,  // measure 84
00010000
00000000
00000100
00001000
,  // measure 85
00000010
00001000
00000100
00000000
,  // measure 86
00020000
00000000
00000000
00130000
,  // measure 87
00002000
00000000
00000000
00013000
,  // measure 88
00000100
00000000
00000000
00001000
00000000
00000000
00000100
00000000
,  // measure 89
00010000
00000000
00010000
02000000
,  // measure 90
00000000
00000000
03100000
00000000
,  // measure 91
00020000
00000000
02000000
00030000
,  // measure 92
00002000
03000000
00013000
00000010
,  // measure 93
00000000
00000000
00001000
00000000
,  // measure 94
00000001
00000000
00000000
00001000
00000000
00000000
00000100
00000000
,  // measure 95
00020000
00000000
00031000
00000000
,  // measure 96
02000000
00000000
03010000
00000000
,  // measure 97
00001000
00000000
00010000
00000000
,  // measure 98
00002000
00000000
00000000
00000000
00000000
00000000
00000000
00010000
,  // measure 99
00020000
00000000
00000000
00033000
,  // measure 100
00100000
00000000
00000000
00010000
00000000
00000000
01000000
00000000
,  // measure 101
00100000
01000000
00001000
00010000
,  // measure 102
00000100
00000000
00000000
00001000
00000000
00000000
00000001
00000000
,  // measure 103
00001000
00000100
00010000
00001000
,  // measure 104
01000000
00000000
00000000
00010000
00000000
00000000
10000000
00000000
,  // measure 105
00000000
00010000
00000000
00000000
01000000
00000000
00001000
00000000
,  // measure 106
00010000
00000100
00001000
00000010
,  // measure 107
00001000
00000100
00000001
00000100
,  // measure 108
00001000
00010000
00001000
00100000
,  // measure 109
00010000
01000000
00001000
00010000
,  // measure 110
00000100
00001000
00000001
00001000
,  // measure 111
00000100
00010000
00001000
00100000
,  // measure 112
00010000
01000000
10000000
01000000
,  // measure 113
00010000
00100000
00001000
00010000
,  // measure 114
00000100
00001000
00000100
00000001
,  // measure 115
00000100
00001000
00000100
00010000
,  // measure 116
00002000
00000000
00023000
00000000
,  // measure 117
02030000
00000000
03010000
00100000
,  // measure 118
00002000
00003000
00010000
00000020
,  // measure 119
00000000
00000130
00000001
00001000
,  // measure 120
00000100
00000000
00020000
00030200
,  // measure 121
00000000
00010300
00001000
01000000
,  // measure 122
00100000
00000000
10000000
00010000
,  // measure 123
20000000
00000000
00000000
00020000
,  // measure 124
30030000
01100000
10000000
00100000
,  // measure 125
00001000
00100000
10000000
00010000
,  // measure 126
00200000
00000000
00000000
00300000
,  // measure 127
10000000
00000000
00100000
00000000
,  // measure 128
01000000
00000000
00001000
00000000
,  // measure 129
00010000
00000000
00000010
00000000
,  // measure 130
00020000
00000000
00000000
00000000
00000000
00000000
00000000
00001000
,  // measure 131
00002000
00000000
00000000
00000000
,  // measure 132
00000000
00000000
00033000
00000000
;
