#TITLE:Campanella;
#SUBTITLE:;
#ARTIST:Cashew;
#TITLETRANSLIT:;
#SUBTITLETRANSLIT:;
#ARTISTTRANSLIT:;
#GENRE:;
#CREDIT:;
#MENUCOLOR:;
#METERTYPE:DDR;
#BANNER:Campanella.png;
#BACKGROUND:Campanella-bg.png;
#LYRICSPATH:;
#CDTITLE:;
#MUSIC:Campanella.ogg;
#OFFSET:-0.080;
#SAMPLESTART:33.940;
#SAMPLELENGTH:15.000;
#SELECTABLE:YES;
#LISTSORT:;
#DISPLAYBPM:140.000;
#BPMS:0.000=140.000,242.000=130.000,243.000=119.800,244.000=115.000,245.000=108.400;
#STOPS:;
#BGCHANGES:0.000=Campanella.avi=1.000=1=1=0,
99999=-nosongbg-=1.000=0=0=0 // don't automatically add -songbackground-
;
#ATTACKS:;

//---------------dance-single - ----------------
#NOTES:
     dance-single:
     :
     Hard:
     12:
     0.571,0.533,0.182,0.055,0.994:
0000
0000
0000
0000
,
0000
0000
0000
0000
,
0000
0000
0000
0000
,
0000
0000
0000
0000
0000
0000
1000
0000
1000
0000
0001
0000
,
0100
0000
0100
0000
0001
0000
1000
0000
1000
0000
0001
0000
,
0010
0000
0010
0000
0001
0000
0100
0000
0100
0000
0010
0000
,
1000
0000
1000
0000
0001
0000
1000
0000
1000
0000
0100
0000
,
1000
0000
0100
0000
0010
0000
0001
0000
0010
0000
0100
0000
,
1000
0000
1000
0000
0001
0000
0100
0000
0100
0000
0010
0000
,
1000
0000
1000
0000
0100
0000
0010
0000
0010
0000
0001
0000
,
1000
0000
0010
0100
0010
0100
0010
0000
1000
0001
1000
0001
,
1000
0000
0010
0100
0010
0100
0010
0000
0000
0001
0000
0001
,
0010
0000
0010
0100
0000
0100
1000
0000
0000
0001
0000
0001
,
1000
0000
1000
0100
0000
0100
0010
0000
0000
1000
0000
1000
,
0001
0000
0001
0100
0000
0100
0010
0000
0000
0001
0000
0001
,
0100
0000
0100
0010
0000
0010
1000
0000
0000
1001
0000
0001
,
1000
0000
1000
0100
0000
0100
1000
0000
0000
1001
0000
1000
,
0001
0000
0001
0100
0000
0100
0010
0000
0000
0010
0000
0010
,
1000
0000
1000
0100
0000
0000
0001
0000
0001
0100
0000
0000
,
1000
0100
1000
0001
0100
0001
0100
0000
0000
0010
0000
0010
,
1000
0000
1000
0001
0000
0001
1000
0000
0000
0010
0000
0010
,
0001
0000
0001
1000
0000
1000
0001
0000
0000
0100
0000
0100
,
0001
0000
0001
1000
0000
1000
0001
0000
0001
0100
0000
0100
,
0010
0100
0010
0100
0010
0100
0010
0000
0000
1100
0000
1000
,
0100
0000
0100
1000
0000
1000
0010
0000
0000
0011
0000
0001
,
0010
0000
0010
0001
0000
0001
0100
0000
0100
0010
0000
0010
,
1000
0000
1000
0001
0000
0000
0001
0000
0001
1000
0000
0000
,
0010
0000
0100
0010
0000
0100
0010
0000
0000
1001
0000
0000
,
1000
0100
1000
0100
1000
0100
1000
0000
0000
0010
0000
0000
,
0100
0001
0100
0001
0100
0001
0100
0000
0000
0010
0000
0000
,
1000
0100
1000
0100
0000
1000
0100
1000
0000
0010
0100
0000
,
0001
0010
0000
0001
0100
0001
0100
0000
0000
0010
0100
0010
,
0100
0001
0100
0001
0100
0001
0100
0000
0000
0010
0000
0000
,
1000
0100
1000
0100
1000
0100
1000
0000
0000
0010
0000
0000
,
0100
0010
0100
0010
0100
0010
0100
0000
0001
0100
0000
0000
,
0001
0010
0001
0010
0000
0001
0200
0000
0000
0310
0000
0000
,
1000
0000
0100
0000
0010
0000
0001
0000
0010
0000
0100
0000
,
1000
0000
0010
0000
0100
0000
0001
0000
1001
0000
1001
0000
,
1001
0000
0001
0000
0010
0000
0100
0000
1000
0000
0010
0000
,
0100
0000
0001
0000
0100
0000
0010
0000
1000
0000
0001
0000
,
1001
0000
1000
0100
0000
0100
0010
0000
0010
0001
0000
0001
,
0100
0000
0100
0010
0000
0010
0100
0000
0100
0001
0000
0001
,
0100
0000
0010
0100
0000
0001
1000
0001
1000
0001
1000
0001
,
2000
0000
0000
0000
0000
0000
3001
0000
0001
0100
0000
0100
,
0010
0000
0010
1000
0000
1000
0001
0000
0001
0100
0000
0100
,
0001
0000
0001
1000
0000
1000
0010
0000
0010
0100
0000
0100
,
0001
0000
0001
1000
0000
1000
0100
0000
0100
0010
0000
0010
,
0001
0000
0001
0100
0000
0100
0010
0000
0010
1000
0000
1000
,
0100
0000
0100
1000
0000
1000
0010
0000
0010
0100
0000
0100
,
0001
0000
0001
0100
0000
0100
0010
0000
0010
1000
0000
1000
,
0100
0000
0010
0001
0000
0200
0000
0000
0310
1000
0000
0200
,
0000
0010
0010
0310
,
0101
0000
0001
0100
0000
0100
1000
0000
0000
1100
0000
0000
,
1010
0000
1000
0010
0000
0010
0001
0000
0000
0011
0000
0000
,
0001
0100
0001
0100
0000
0000
1000
0100
1000
0100
0000
0000
,
2002
0000
0000
3003
0000
0000
0001
0000
0010
0000
0100
1000
,
0100
0000
0000
0000
0100
0000
1000
0100
1000
0000
0010
0100
,
0010
0100
0010
0000
1000
0001
1000
0001
1000
0000
0010
0100
,
0010
0100
0010
0000
1001
0000
0001
0100
0001
0000
1001
0000
,
1000
0100
1000
0000
1001
0000
0000
0000
0000
0000
1000
0000
,
0100
0000
0010
0000
0001
0000
1001
0000
0000
0000
0000
0000
,
0110
0000
0000
0000
0000
0000
0000
0000
0000
0000
0000
0000
0000
0000
0000
0000
0000
1001
0000
0000
0000
0000
0000
0000
0000
0000
0000
0000
0000
0000
0000
0000
;

//---------------dance-double - ----------------
#NOTES:
     dance-double:
     :
     Hard:
     12:
     0.550,0.505,0.192,0.027,0.990:
00000000
00000000
00000000
00000000
,
00000000
00000000
00000000
00000000
,
00000000
00000000
00000000
00000000
,
00000000
00000000
00000000
00000000
00000000
00000000
00100000
00000000
00100000
00000000
00100000
00000000
,
10000000
00000000
01000000
00000000
10000000
00000000
00010000
00000000
01000000
00000000
00010000
00000000
,
00100000
00000000
00100000
00000000
00001000
00000000
00010000
00000000
00010000
00000000
00000010
00000000
,
00001000
00000000
00000100
00000000
00001000
00000000
00000001
00000000
00000100
00000000
00000001
00000000
,
00000100
00000000
00000100
00000000
00010000
00000000
00001000
00000000
00001000
00000000
01000000
00000000
,
00010000
00000000
00100000
00000000
00010000
00000000
10000000
00000000
00100000
00000000
10000000
00000000
,
00100000
00000000
01000000
00000000
01000000
00000000
00001000
00000000
00010000
00000000
00001000
00000000
,
00010000
00000000
00000010
00000000
00000010
00000000
00000100
00000000
00000001
00000000
00000001
00000000
,
00001000
00000000
00000001
00000000
00000001
00000000
00001001
00000000
00000000
00000001
00000000
00000001
,
00000010
00000000
00000010
00000100
00000010
00000100
00000010
00000000
00000000
00001000
00000000
00001000
,
00000100
00000000
00000100
00010000
00001000
00010000
00001000
00000000
00000000
00010000
00000000
00010000
,
00001000
00000000
00001000
00100000
00001000
00100000
00001000
00000000
00001000
00100000
00000000
00100000
,
00010000
00000000
00010000
10000000
00000000
10000000
01000000
00000000
00000000
11000000
00000000
10000000
,
01000000
00000000
01000000
10000000
01000000
10000000
01000000
00000000
00000000
10000000
00000000
10000000
,
00100000
00000000
00100000
01000000
00100000
01000000
00100000
00000000
01000000
00010000
00000000
00010000
,
00100000
00000000
00100000
00001000
00000000
00001000
00010000
00000000
00010000
00000010
00000000
00000010
,
00000100
00000000
00000001
00000010
00000001
00000100
00000001
00000000
00000000
00001100
00000000
00000100
,
00001000
00000000
00001000
00000100
00000000
00000100
00010000
00000000
00000000
00011000
00000000
00001000
,
01000000
00000000
01000000
00010000
00000000
00010000
01000000
00000000
00000000
10010000
00000000
10000000
,
01000000
00000000
01000000
00100000
00000000
00100000
00010000
00000000
00000000
00110000
00000000
00000000
,
00100000
00001000
00100000
00001000
00010000
00001000
00010000
00000000
00000000
00000100
00000000
00000100
,
00001000
00000000
00001000
00000010
00000000
00000010
00000100
00000000
00000000
00001001
00000000
00000001
,
00000010
00000000
00000010
00000100
00000000
00000100
00001000
00000000
00000000
00001001
00000000
00001000
,
00000100
00000000
00000100
00010000
00000000
00000000
00010100
00000000
00000100
00010000
00000000
00000000
,
00011000
00000000
00001000
00010000
00001000
00010000
00001000
00000000
00000000
00010000
00000000
00000000
,
00001000
00100000
00001000
00100000
00001000
00100000
00001000
00000000
00000000
01000000
00000000
00000000
,
00010000
10000000
00010000
10000000
00010000
10000000
00010000
00000000
00000000
00100000
00000000
00000000
,
00001000
00010000
00001000
00010000
00001000
00010000
00001000
00000000
00000000
00010000
00000000
00000000
,
00000100
00000000
00000000
00001000
00000000
00000000
00000010
00000000
00000000
00000001
00000100
00000001
,
00001000
00000100
00001000
00000100
00001000
00000100
00001000
00000000
00000000
00000100
00000000
00000000
,
00010000
00001000
00010000
00001000
00010000
00001000
00010000
00000000
00000000
00001000
00000000
00000000
,
01000000
00010000
01000000
00010000
00000000
00000000
01000000
00000000
00100000
01000000
00000000
00000000
,
00010000
00100000
00010000
00100000
00000000
00010000
02000000
00000000
00000000
03000000
00000000
00000000
,
11000000
00000000
10000000
00000000
01000000
00000000
00100000
00000000
01000000
00000000
10000000
00000000
,
00010000
00000000
01000000
00000000
00100000
00000000
01000000
00000000
00010000
00000000
00110000
00000000
,
00110000
00000000
00100000
00000000
00001000
00000000
00010000
00000000
00000100
00000000
00001000
00000000
,
00000001
00000000
00001000
00000000
00000100
00000000
00001000
00000000
00000010
00000000
00000010
00000000
,
00001001
00000000
00000001
00001000
00000000
00001000
00000100
00000000
00000100
00010000
00000000
00000000
,
00011000
00000000
00010000
00001000
00000000
00001000
00100000
00000000
00100000
00010000
00000000
00000000
,
10010000
00000000
00100000
10000000
00000000
10000000
01000000
00000000
01000000
00100000
00000000
00100000
,
00010000
00000000
00000000
00000000
00000000
00010000
10000000
00000000
00010000
10000000
00000000
00100000
,
00000000
00000000
10000000
00010000
00000000
00100000
00000000
00000000
00010000
01000000
00000000
00100000
,
00000000
00000000
00010000
00100000
00000000
00100000
00010000
00000000
00100000
00001000
00000000
00001000
,
00000000
00000000
00001000
00010000
00000000
00010000
00000000
00000000
00010000
00000100
00000000
00000100
,
00000000
00000000
00001000
00000010
00000000
00001000
00000001
00000000
00001000
00000100
00000000
00001000
,
00000000
00000000
00000010
00001000
00000000
00000100
00000000
00000000
00010000
00001000
00000000
00010000
,
00000000
00000000
00001000
00010000
00000000
00001000
00000000
00000000
00010000
00001000
00000000
00010000
,
00001000
00000000
00001000
01000000
00000000
00010000
01000000
00000000
00100000
01000000
00000000
00200000
,
00000000
10000000
10000000
10300000
,
11000000
00000000
10000000
00100000
00000000
00100000
01000000
00000000
01000000
00010000
00000000
00000000
,
00110000
00000000
00100000
00001000
00000000
00001000
00010000
00000000
00010000
00000010
00000000
00000000
,
00001000
00000010
00001000
00000010
00001000
00000010
00001000
00000001
00001000
00000001
00001000
00000001
,
00002000
00000000
00000000
00003000
00000000
00000000
00000001
00000000
00000010
00000000
00000100
00000000
,
00001000
00000000
00000000
00000000
00000100
00000000
00001000
00000100
00001000
00000000
00010000
00001000
,
00010000
00001000
00010000
00000000
00000100
00010000
00000100
00010000
00000100
00000000
00010000
00001000
,
00010000
00001000
00010000
00000000
00001000
00000000
00100000
00010000
00100000
00000000
00010000
00000000
,
10000000
01000000
10000000
00000000
00100000
00000000
00000000
00000000
00000000
00000000
10000000
00000000
,
01000000
00000000
00100000
00000000
00010000
00000000
10010000
00000000
00000000
00000000
00000000
00000000
,
01100000
00000000
00000000
00000000
00000000
00000000
00000000
00000000
00000000
00000000
00000000
00000000
00000000
00000000
00000000
00000000
00000000
10010000
00000000
00000000
00000000
00000000
00000000
00000000
00000000
00000000
00000000
00000000
00000000
00000000
00000000
00000000
;

//---------------dance-double - ----------------
#NOTES:
     dance-double:
     :
     Medium:
     8:
     0.377,0.477,0.483,0.219,0.173:
00000000
00000000
00000000
00000000
,
00000000
00000000
00000000
00000000
,
00000000
00000000
00000000
00000000
,
00000000
00000000
00000000
00000000
,
10000000
00000000
00010000
00000000
,
01000000
00000000
00010000
00000000
,
00001000
00000000
00000100
00000000
,
00001000
00000000
00000001
00000000
,
00001000
00000000
00000100
00000000
,
00010000
00000000
00001000
00000000
,
00100000
00000000
00010000
00000000
,
02000000
00000000
03000000
00100000
,
10000000
01000000
10010000
00000000
,
00010000
01000000
10010000
00000000
,
00100000
00010000
00011000
00000000
,
00011000
00000100
00001000
00000010
,
00000010
00001001
00000100
00000000
,
00000010
00001001
00000100
00001000
,
00000010
00000001
00000100
00010000
,
00001000
01000000
00200000
00300000
,
11000000
11000000
01010000
01010000
,
10010000
10010000
01100000
00000000
,
00011000
00011000
00001010
00001010
,
00000011
00000110
00001100
00000000
,
00000101
00000101
00001100
00001100
,
00000110
00001100
00001100
00000002
,
00001003
00000200
00010300
00002000
,
01003000
00000000
00000000
00020000
00000000
00000000
10030000
00000000
00000000
00100000
00000000
00100000
,
10000000
00000000
10000000
00100000
00000000
00000000
01000000
00000000
00000000
00010000
00000000
00010000
,
01000000
00000000
01000000
00010000
00000000
00000000
00100000
00000000
00000000
00001000
00000000
00001000
,
00010000
00000000
00010000
00001000
00000000
00000000
00020000
00000000
00000000
00030200
00000000
00000000
,
00002300
00003002
00000203
00000310
,
00000010
00000000
00000010
00001000
00000000
00000000
00001001
00000000
00000000
00000110
00000000
00000000
,
00001000
00000000
00001000
00000100
00000000
00000000
00001100
00000000
00000000
00011000
00000000
00000000
,
00001000
00000000
00001000
01000000
00000000
01000000
00010000
00000000
00000000
10010000
00000000
00000000
,
00100000
00000000
00100000
01000000
00000000
00000000
20020000
00000000
00000000
30030000
00000000
00000000
,
10010000
00000000
20000000
30000000
,
00020000
00000000
00000000
00030000
00000000
00000000
01000000
00000000
00100000
00000000
01000000
00000000
,
00100000
00000000
00002000
00003000
,
00020000
00000000
00000000
00030000
00000000
00000000
00000100
00000000
00001000
00000000
00000100
00000000
,
00001000
00000100
00000010
00001001
,
00000001
00000010
00000100
00001001
,
00001100
00010100
00101000
00010100
,
00011000
00000000
00000000
00000000
00000000
00000000
00001000
00000000
00001000
00010000
00000000
00000000
,
00001000
00000000
00001000
01000000
00000000
00000000
01000000
00000000
01000000
00100000
00000000
00000000
,
10000000
00000000
00000000
01000000
00000000
00000000
10000000
00000000
10000000
00100000
00000000
00000000
,
01000000
00000000
01000000
00010000
00000000
00000000
00100000
00000000
00100000
00001000
00000000
00000000
,
00010000
00000000
00000000
00000010
00000000
00000000
00000100
00000000
00000100
00001000
00000000
00000000
,
00001001
00000000
00000000
00000100
00000000
00000000
00001000
00000000
00001000
00000100
00000000
00000000
,
00010000
00000000
00000000
00001000
00000000
00000000
01000000
00000000
01000000
00010000
00000000
00000000
,
10000000
00000000
00100000
01000000
00000000
00000000
00010000
00000000
00000000
01000000
00000000
00000000
,
20020000
00000000
30030000
00000000
,
11000000
01100000
00110000
00000000
,
00001100
00000110
00000011
00000000
,
00000002
00000023
00000230
00002300
,
00000002
00000000
00000000
00003003
00000000
00000000
00000010
00000000
00000100
00000000
00000010
00000000
,
00000100
00000000
00000000
00000000
00000001
00000000
00000000
00000000
00001000
00000000
00000000
00000000
,
00010000
00000000
00000000
00000000
00001000
00000000
00000000
00000000
01000000
00000000
00000000
00000000
,
00100000
00000000
00000000
00000000
10010000
00000000
00000000
00000000
00000000
00000000
00011000
00000000
,
00000000
00000000
00000000
00000000
00001001
00000000
00000000
00000000
00000000
00000000
00001000
00000000
,
00000001
00000000
00001000
00000000
00000001
00000000
00001000
00000000
00000000
00000000
00000000
00000000
,
00010000
00000000
00000000
00000000
00000000
00000000
00000000
00000000
00000000
00000000
00000000
00000000
00000000
00000000
00000000
00000000
00000000
00011000
00000000
00000000
00000000
00000000
00000000
00000000
00000000
00000000
00000000
00000000
00000000
00000000
00000000
00000000
;

//---------------dance-single - ----------------
#NOTES:
     dance-single:
     :
     Medium:
     8:
     0.377,0.477,0.483,0.219,0.173:
0000
0000
0000
0000
,
0000
0000
0000
0000
,
0000
0000
0000
0000
,
0000
0000
0000
0000
,
0001
0000
1000
0000
,
0010
0000
1000
0000
,
0001
0000
0010
0000
,
0001
0000
1000
0000
,
0001
0000
0010
0000
,
1000
0000
0001
0000
,
0100
0000
1000
0000
,
0020
0000
0030
0100
,
0001
0010
1001
0000
,
1000
0010
1001
0000
,
0100
1000
1001
0000
,
1001
0010
0001
0100
,
0100
1001
0010
0000
,
0100
1001
0010
0001
,
0100
1000
0010
1000
,
0001
0010
0200
0300
,
0011
0011
1010
1010
,
1001
1001
0110
0000
,
1001
1001
0101
0101
,
1100
0110
0011
0000
,
1010
1010
0011
0011
,
0110
0011
0011
2000
,
3001
0020
1030
0002
,
0013
0000
0000
2000
0000
0000
3001
0000
0000
0100
0000
0100
,
0001
0000
0001
0100
0000
0000
0010
0000
0000
1000
0000
1000
,
0010
0000
0010
1000
0000
0000
0100
0000
0000
0001
0000
0001
,
1000
0000
1000
0001
0000
0000
2000
0000
0000
3020
0000
0000
,
0032
2003
3020
0130
,
0100
0000
0100
0001
0000
0000
1001
0000
0000
0110
0000
0000
,
0001
0000
0001
0010
0000
0000
0011
0000
0000
1001
0000
0000
,
0001
0000
0001
0010
0000
0010
1000
0000
0000
1001
0000
0000
,
0100
0000
0100
0010
0000
0000
2002
0000
0000
3003
0000
0000
,
1001
0000
0002
0003
,
2000
0000
0000
3000
0000
0000
0010
0000
0100
0000
0010
0000
,
0100
0000
0002
0003
,
2000
0000
0000
3000
0000
0000
0010
0000
0001
0000
0010
0000
,
0001
0010
0100
1001
,
1000
0100
0010
1001
,
0011
1010
0101
1010
,
1001
0000
0000
0000
0000
0000
0001
0000
0001
1000
0000
0000
,
0001
0000
0001
0010
0000
0000
0010
0000
0010
0100
0000
0000
,
0001
0000
0000
0010
0000
0000
0001
0000
0001
0100
0000
0000
,
0010
0000
0010
1000
0000
0000
0100
0000
0100
0001
0000
0000
,
1000
0000
0000
0100
0000
0000
0010
0000
0010
0001
0000
0000
,
1001
0000
0000
0010
0000
0000
0001
0000
0001
0010
0000
0000
,
1000
0000
0000
0001
0000
0000
0010
0000
0010
1000
0000
0000
,
0001
0000
0100
0010
0000
0000
1000
0000
0000
0010
0000
0000
,
2002
0000
3003
0000
,
0011
0110
1100
0000
,
0011
0110
1100
0000
,
2000
3200
0320
0032
,
2000
0000
0000
3003
0000
0000
0100
0000
0010
0000
0100
0000
,
0010
0000
0000
0000
1000
0000
0000
0000
0001
0000
0000
0000
,
1000
0000
0000
0000
0001
0000
0000
0000
0010
0000
0000
0000
,
0100
0000
0000
0000
1001
0000
0000
0000
0000
0000
1001
0000
,
0000
0000
0000
0000
1001
0000
0000
0000
0000
0000
0001
0000
,
1000
0000
0001
0000
1000
0000
0001
0000
0000
0000
0000
0000
,
1000
0000
0000
0000
0000
0000
0000
0000
0000
0000
0000
0000
0000
0000
0000
0000
0000
1001
0000
0000
0000
0000
0000
0000
0000
0000
0000
0000
0000
0000
0000
0000
;

//---------------dance-double - ----------------
#NOTES:
     dance-double:
     :
     Easy:
     5:
     0.223,0.253,0.055,0.000,0.005:
00000000
00000000
00000000
00000000
,
00000000
00000000
00000000
00000000
,
00000000
00000000
00000000
00000000
,
00000000
00000000
00000000
00000000
,
10000000
00000000
00010000
00000000
,
01000000
00000000
00000000
00000000
,
00010000
00000000
00001000
00000000
,
00000100
00000000
00000000
00000000
,
00000001
00000000
00001000
00000000
,
00000100
00000000
00000000
00000000
,
00010000
00000000
00001000
00000000
,
01000000
00000000
00000000
00000000
,
00100000
00100000
10000000
00000000
,
00100000
00100000
00010000
00000000
,
01000000
01000000
00010000
00000000
,
01000000
01000000
00001000
00010000
,
00000100
00001000
00000001
00000000
,
00000100
00000001
00001000
00000000
,
00000010
00000010
00000100
00000100
,
00010000
00001000
00010000
00000000
,
01000000
01000000
00100000
00100000
,
10000000
00010000
10000000
00000000
,
00100000
00100000
01000000
01000000
,
00001000
00010000
00001000
00000000
,
00010000
00010000
00000100
00000100
,
00001000
00001000
00000001
00000001
,
00000010
00000100
00001000
00000001
,
00001000
00000100
00000010
00000000
,
00001000
00000100
00010000
00000000
,
00001000
01000000
00010000
00000000
,
10000000
00100000
00010000
00000000
,
00010000
00100000
00001000
00000000
,
00001000
00000100
00000010
00000000
,
00010000
00000100
00001000
00000000
,
00001000
01000000
00010000
00000000
,
10000000
01000000
00010000
00000000
,
01100000
00000000
10000000
00000000
,
00010000
00000000
10000000
00000000
,
01100000
00000000
00010000
00000000
,
10000000
00000000
00010000
00000000
,
10000000
10000000
01000000
00000000
,
00100000
00100000
00010000
00000000
,
00001000
00000100
00000010
00000001
,
00001001
00000000
00000010
00000000
,
00000100
00000100
00000001
00000001
,
00000100
00000100
00001000
00001000
,
00100000
00100000
00010000
00010000
,
00100000
00100000
10000000
10000000
,
01000000
10000000
01000000
00010000
,
00001000
00000100
00000001
00000100
,
00001000
00100000
00010000
00100000
,
10000000
01000000
00100000
00010000
,
10000000
10000000
00010000
00000000
,
00001000
00001000
00000001
00000000
,
00000010
00000010
00000100
00000100
,
00001001
00000000
00000000
00000000
,
00000010
00000000
00001000
00000000
,
00010000
00000000
00100000
00000000
,
10010000
00000000
00010000
00000000
,
10000000
00000000
00010000
00000000
,
00000000
00000000
00001000
00000000
,
00010000
00000000
00000000
00000000
00000000
00000000
00000000
00000000
00000000
00000000
00000000
00000000
00000000
00000000
00000000
00000000
00000000
00011000
00000000
00000000
00000000
00000000
00000000
00000000
00000000
00000000
00000000
00000000
00000000
00000000
00000000
00000000
;

//---------------dance-single - ----------------
#NOTES:
     dance-single:
     :
     Easy:
     5:
     0.223,0.253,0.055,0.000,0.005:
0000
0000
0000
0000
,
0000
0000
0000
0000
,
0000
0000
0000
0000
,
0000
0000
0000
0000
,
1000
0000
0001
0000
,
0100
0000
0000
0000
,
0001
0000
1000
0000
,
0100
0000
0000
0000
,
0001
0000
1000
0000
,
0100
0000
0000
0000
,
0001
0000
1000
0000
,
0100
0000
0000
0000
,
0010
0010
1000
0000
,
0010
0010
0001
0000
,
0100
0100
0001
0000
,
0100
0100
1000
0001
,
0100
1000
0001
0000
,
0100
0001
1000
0000
,
0010
0010
0100
0100
,
0001
1000
0001
0000
,
0100
0100
0010
0010
,
1000
0001
1000
0000
,
0010
0010
0100
0100
,
1000
0001
1000
0000
,
0001
0001
0100
0100
,
1000
1000
0001
0001
,
0010
0100
1000
0001
,
1000
0100
0010
0000
,
1000
0100
0001
0000
,
1000
0100
0001
0000
,
1000
0010
0001
0000
,
0001
0010
1000
0000
,
1000
0100
0010
0000
,
0001
0100
1000
0000
,
1000
0100
0001
0000
,
1000
0100
0001
0000
,
0110
0000
1000
0000
,
0001
0000
1000
0000
,
0110
0000
0001
0000
,
1000
0000
0001
0000
,
1000
1000
0100
0000
,
0010
0010
0001
0000
,
1000
0100
0010
0001
,
1001
0000
0010
0000
,
0100
0100
0001
0001
,
0100
0100
1000
1000
,
0010
0010
0001
0001
,
0010
0010
1000
1000
,
0100
1000
0100
0001
,
1000
0100
0001
0100
,
1000
0010
0001
0010
,
1000
0100
0010
0001
,
1000
1000
0001
0000
,
1000
1000
0001
0000
,
0010
0010
0100
0100
,
1001
0000
0000
0000
,
0010
0000
1000
0000
,
0001
0000
0010
0000
,
1001
0000
0001
0000
,
1000
0000
0001
0000
,
0000
0000
1000
0000
,
0001
0000
0000
0000
0000
0000
0000
0000
0000
0000
0000
0000
0000
0000
0000
0000
0000
1001
0000
0000
0000
0000
0000
0000
0000
0000
0000
0000
0000
0000
0000
0000
;

//---------------dance-single - Copied from ----------------
#NOTES:
     dance-single:
     Copied from:
     Beginner:
     4:
     0.149,0.196,0.046,0.082,0.005: // measure 1
0000
0000
0000
0000
,  // measure 2
0000
0000
0000
0000
,  // measure 3
0000
0000
0000
0000
,  // measure 4
0000
0000
0000
0000
,  // measure 5
1000
0000
1000
0000
,  // measure 6
1000
0000
0000
0000
,  // measure 7
0001
0000
0001
0000
,  // measure 8
0001
0000
0000
0000
,  // measure 9
1000
0000
1000
0000
,  // measure 10
1000
0000
0000
0000
,  // measure 11
0001
0000
0001
0000
,  // measure 12
0001
0000
0000
0000
,  // measure 13
0002
0000
0003
0000
,  // measure 14
0002
0000
0003
0000
,  // measure 15
2000
0000
3000
0000
,  // measure 16
2000
0000
3000
0000
,  // measure 17
0100
0000
0100
0000
,  // measure 18
0100
0000
0100
0000
,  // measure 19
1000
0000
1000
0000
,  // measure 20
0001
0000
0001
0000
,  // measure 21
0200
0000
0300
0000
,  // measure 22
2000
0000
3000
0000
,  // measure 23
0020
0000
0030
0000
,  // measure 24
0002
0000
0003
0000
,  // measure 25
0100
0000
0100
0000
,  // measure 26
1000
0000
1000
0000
,  // measure 27
0010
0000
0010
0000
,  // measure 28
0001
0000
0001
0000
,  // measure 29
0100
0100
0100
0000
,  // measure 30
0010
0010
0010
0000
,  // measure 31
1000
0000
1000
0000
,  // measure 32
0001
0000
0001
0000
,  // measure 33
0100
0100
0100
0000
,  // measure 34
0010
0010
0010
0000
,  // measure 35
1000
0000
1000
0000
,  // measure 36
0001
0000
0001
0000
,  // measure 37
1001
0000
0000
0000
,  // measure 38
0000
0000
0000
0000
,  // measure 39
1001
0000
0000
0000
,  // measure 40
0000
0000
0000
0000
,  // measure 41
1000
0000
1000
0000
,  // measure 42
0001
0000
0001
0000
,  // measure 43
1000
0000
0001
0000
,  // measure 44
1001
0000
0000
0000
,  // measure 45
0000
0100
0000
0100
,  // measure 46
0000
0010
0000
0010
,  // measure 47
0000
0100
0000
0100
,  // measure 48
0000
0010
0000
0010
,  // measure 49
0000
1000
0000
1000
,  // measure 50
0000
0001
0000
0001
,  // measure 51
0000
0100
0000
0010
,  // measure 52
0020
0000
0030
0000
,  // measure 53
1000
1000
1000
0000
,  // measure 54
0001
0001
0001
0000
,  // measure 55
0010
0000
0100
0000
,  // measure 56
1001
0000
0000
0000
,  // measure 57
0010
0000
0100
0000
,  // measure 58
0010
0000
0100
0000
,  // measure 59
0001
0000
1000
0000
,  // measure 60
0001
0000
1000
0000
,  // measure 61
0000
0000
1000
0000
,  // measure 62
0001
0000
0000
0000
0000
0000
0000
0000
0000
0000
0000
0000
0000
0000
0000
0000
0000
1001
0000
0000
0000
0000
0000
0000
0000
0000
0000
0000
0000
0000
0000
0000
;
