#TITLE:CAMP!CAMP!CORE!CORE!;
#SUBTITLE:;
#ARTIST:raikoverground UK style;
#TITLETRANSLIT:;
#SUBTITLETRANSLIT:;
#ARTISTTRANSLIT:;
#GENRE:;
#CREDIT:;
#BANNER:CAMP!CAMP!CORE!CORE!.png;
#BACKGROUND:CAMP!CAMP!CORE!CORE!-bg.png;
#LYRICSPATH:;
#CDTITLE:;
#MUSIC:CAMP!CAMP!CORE!CORE!.ogg;
#OFFSET:0.014000;
#SAMPLESTART:69.000000;
#SAMPLELENGTH:11.242352;
#SELECTABLE:YES;
#BPMS:0.000000=170.000000
;
#STOPS:
;
#BGCHANGES:;
#KEYSOUNDS:;
#ATTACKS:;

//---------------dance-single - ----------------
#NOTES:
     dance-single:
     :
     Hard:
     13:
     0.628186,0.718151,0.206404,0.161533,0.305119,490.000000,467.000000,23.000000,18.000000,0.000000,0.000000,0.628186,0.718151,0.206404,0.161533,0.305119,490.000000,467.000000,23.000000,18.000000,0.000000,0.000000:
0000
0000
0000
0000
,
0000
0000
0000
0000
,
0000
0000
0000
0000
,
0000
0000
0000
0000
,
1001
1001
1001
1001
,
0110
0110
0110
0110
,
1000
0000
0000
0001
1000
0000
0010
0000
1000
0000
0000
0001
1000
0000
0010
0000
,
0100
0010
0100
0000
0010
0100
0010
0000
1000
0001
1000
0000
0001
1000
0001
0000
,
1001
0000
0000
0000
0000
1000
0001
0200
,
0000
0000
0000
0320
0000
0000
0000
0000
,
2030
0000
0000
0000
0000
3001
1000
0200
,
0000
0000
0320
0000
,
2030
0000
0000
0000
0000
3001
0100
0020
,
0000
0000
0000
2030
0000
0000
0000
0000
,
3002
0000
0000
0000
0000
0103
0010
2000
,
0000
0000
0000
0000
3000
0001
1000
0001
,
0100
0000
0100
0000
0001
0000
0100
0000
0001
0000
0000
1000
0000
0000
0001
0000
,
1000
0000
0010
0000
1000
0000
0100
0000
1000
0000
0000
0001
0000
0000
1000
0000
,
0010
0000
0100
0000
0001
0000
0100
0000
0010
0000
0000
1000
0000
0000
0010
0000
,
0100
0000
0001
0000
0100
0000
0010
0000
1000
0000
0000
1000
0000
0000
0001
0000
,
0100
0000
0010
0000
0100
0000
0001
0000
1000
0000
0000
1000
0000
0000
0001
0000
,
0100
0000
1000
0000
0010
0000
1000
0000
0100
0000
0000
0100
0000
0000
1000
0000
,
0010
0000
0100
0000
0001
0000
0100
0001
0000
0000
0100
0000
0010
1000
0000
0000
,
0001
0100
0010
0100
0001
0000
1001
0000
,
0010
0000
0100
0000
0010
0000
0100
0000
0010
0000
1000
0001
0000
1000
0001
0000
,
0100
0000
0010
0000
0100
0000
0010
0000
0100
0000
0001
1000
0000
0001
1000
0000
,
0010
0000
1000
0000
0100
0000
1000
0000
0010
0000
0100
0001
0000
0100
0001
0000
,
0010
0000
0000
1000
0000
0000
0100
0000
1000
0000
0000
0010
0000
0000
0001
0000
,
0100
0000
0010
0000
1000
0000
0001
0000
0100
0000
0010
0100
0000
0010
0100
0000
,
0001
0000
0100
0000
0010
0000
1000
0000
0010
0000
0100
0010
0000
0100
0010
0000
,
1000
0000
0100
0000
0010
0000
0001
0000
0100
0000
0010
0100
0000
0010
0100
0000
,
0001
0000
1000
0001
0000
1000
0001
0000
0100
0000
0010
0100
0000
0010
0100
0000
,
0001
0000
0100
0000
1000
0000
0100
0000
0001
0100
0000
0001
0000
0000
1000
0000
,
0100
0000
0001
0000
0100
0000
1000
0000
0010
0100
0000
0010
0000
0000
1000
0000
,
0010
0000
0001
0000
0010
0000
1000
0000
0010
0100
0000
0100
0000
0000
0001
0000
,
0100
0000
1000
0000
0100
0000
0001
0000
0100
0000
0100
0010
0000
0000
1000
0000
,
1001
0000
0010
1000
1001
0000
0010
0001
,
1001
0000
0010
1000
1001
0000
0010
0100
,
0110
1010
0110
0101
,
0020
0000
0000
0030
,
0110
0000
0000
0000
1001
0000
0000
0000
0110
0000
0000
0110
0000
0000
0001
0000
,
1000
0000
0100
0000
1000
0000
0001
0000
1000
0000
0000
0010
0000
0000
0100
0000
,
0001
0000
1000
0000
0100
0000
1000
0000
0010
0000
0000
0100
0000
0000
0001
0000
,
1000
0000
0100
0000
1000
0000
0010
0000
0100
0000
0000
0001
0000
0000
0100
0000
,
0010
0000
0000
1000
0000
0000
0010
0000
0100
0000
0000
0100
0000
0000
0100
0000
,
0001
0000
0010
0000
0100
0000
1000
0000
0010
0000
1000
0010
0000
0000
1000
0000
,
0100
0000
0010
0000
0001
0000
0100
0000
0010
0000
0100
0010
0000
0000
0100
0000
,
0001
0000
0010
0000
0001
0000
0100
0000
0010
0000
1000
0010
0000
1000
0010
0000
,
0100
0000
0001
0100
0000
0001
0100
0000
0010
0000
1000
0100
0000
1000
0100
0000
,
1000
0000
0010
0000
0100
0000
0001
0000
0100
0000
0010
0100
0000
0000
0001
0000
,
1000
0000
0010
0000
1000
0000
0001
0100
0000
0000
0001
0000
1000
0000
0100
0000
,
1000
0001
0100
0010
0100
0010
1000
0001
,
0100
0010
0000
0100
0000
0000
0001
0000
1000
0001
0000
1000
0000
0000
0010
0000
,
1000
0100
0000
1000
0000
0000
0001
0000
0100
0000
0001
0100
0000
0000
0010
0000
,
1000
0000
0100
0000
0010
0000
0001
0000
0100
0000
0010
0100
0000
0010
0100
0000
,
0001
0000
0010
0000
0100
0000
1000
0010
0000
0000
0100
0000
0001
1000
0000
0000
,
0001
0000
0100
0001
0000
0100
0001
0000
0100
0000
0000
0000
0110
0000
0000
0000
,
0010
1000
0010
1000
0001
0100
0001
0100
,
0010
1000
0100
1000
0010
0100
0001
0010
,
0001
0001
2000
3000
0001
0001
2000
3000
,
0010
0010
0100
0100
0001
1000
0001
1000
,
0010
0010
1000
1000
0100
0100
1000
1000
,
0001
0010
0100
1000
0100
0010
0001
1000
,
0001
0100
0001
0100
0010
1000
0010
1000
,
0001
0010
0001
0010
0100
1000
0100
1000
,
0020
0000
0130
0001
2000
0000
3010
0100
,
0002
0000
0013
0100
2000
0000
3100
0010
,
0001
0100
0001
0000
1000
0010
1000
0000
,
0010
0100
0010
0000
1000
0010
1000
0000
,
0001
0010
0100
0010
0001
0010
0100
0010
,
0001
1000
0100
1000
0001
1000
0100
1000
,
0001
0100
0001
0100
0010
1000
0010
1000
,
0020
0000
0000
0030
;

//---------------dance-single - ----------------
#NOTES:
     dance-single:
     :
     Challenge:
     15:
     0.748695,0.848724,0.287171,0.161533,0.583315,584.000000,552.000000,32.000000,18.000000,0.000000,0.000000,0.748695,0.848724,0.287171,0.161533,0.583315,584.000000,552.000000,32.000000,18.000000,0.000000,0.000000:
0000
0000
0000
0000
,
0000
0000
0000
0000
,
0000
0000
0000
0000
,
0000
0000
0000
0000
,
1001
0110
1001
0110
,
1100
0011
1010
0101
,
1000
0000
0000
0001
1000
0000
0010
0000
1000
0000
0000
0001
1000
0000
0010
0100
,
0010
0100
0010
0100
0001
1000
0001
1000
0001
0100
0001
0100
0010
1000
0010
1000
,
0001
0000
0000
0000
0000
1000
0001
0200
,
0000
0000
0000
0320
0000
0000
0000
0000
,
2030
0000
0000
0000
0000
3001
0010
0220
,
0000
0030
0320
0030
,
2002
0000
0000
0000
0003
3001
0100
0020
,
0000
0000
0000
2030
0000
0000
3000
0000
,
0102
0000
0000
0000
0000
0103
0010
2000
,
0000
0000
0000
0000
3000
0001
1000
0001
,
0100
0000
0010
0000
0100
0000
0010
0000
0100
0000
0001
0100
0000
0001
0100
0000
,
0010
0000
1000
0000
0010
0000
0100
0000
0010
0000
1000
0010
0000
1000
0010
0000
,
0100
0000
0001
0000
0010
0000
0001
0000
0100
0000
0001
0010
0000
0001
0010
0000
,
0100
0000
0001
0000
1000
0000
0010
0000
0100
0000
0010
0100
0000
0010
0100
0000
,
0001
0000
1000
0000
0100
0000
1000
0000
0001
0000
0100
0001
0000
0100
0001
0000
,
1000
0000
0010
0000
0100
0000
0010
0000
1000
0000
0010
0100
0000
0010
0100
0000
,
0001
0000
1000
0000
0001
0000
1000
0001
0000
0000
0100
0000
0010
0100
0000
0000
,
0010
0000
1000
0000
0100
0000
0010
0000
0001
0000
0100
0010
0000
0100
0010
0000
,
1000
0000
0001
0000
0100
0000
0001
0000
1000
0000
0001
0100
0000
0001
0100
0000
,
0001
0000
1000
0000
0010
0000
1000
0000
0001
0000
0100
0001
0000
0100
0001
0000
,
1000
0000
0010
0000
0100
0000
0010
0000
1000
0000
0010
0100
0000
0010
0100
0000
,
0001
0000
0100
0001
0000
0100
0001
0000
1000
0000
0010
1000
0000
0010
1000
0000
,
0010
0000
0100
0000
0001
0000
1000
0000
0010
0000
0100
0001
0000
0100
0010
0000
,
0001
0000
1000
0000
0010
0000
0100
0000
0001
0000
1000
0010
0000
1000
0100
0000
,
0001
0000
1000
0000
0010
0000
0100
0000
0001
0000
0100
0001
0000
0100
0010
0000
,
0001
0000
1000
0010
0000
0100
0001
0000
1000
0000
0010
0100
0000
0001
1000
0000
,
0010
0000
0100
0000
0001
0000
1000
0000
0001
1000
0000
0001
1000
0000
0010
0000
,
0100
0000
0001
0000
1000
0000
0100
0000
0010
0001
0000
0010
0001
0000
0100
0000
,
0010
0000
1000
0000
0100
0000
1000
0000
0001
0100
0000
0001
0100
0000
0001
0000
,
0100
0000
1000
0000
0100
0000
0001
0000
0100
0000
0100
0010
0000
0000
1000
0000
,
1001
0001
0010
0100
0110
0100
0010
0001
,
1001
1000
0010
0100
0220
0000
0330
0000
,
0110
1010
0110
0101
,
0020
0000
0000
0030
,
0110
0000
0000
0000
1001
0000
0000
0000
0110
0000
0000
0110
0000
0000
0001
0000
,
1000
0000
0010
0000
0100
0000
0010
0000
1000
0000
0010
0100
0000
0010
0100
0000
,
0010
0000
1000
0000
0001
0000
0100
0000
0001
0000
0100
0010
0000
0100
0010
0000
,
1000
0000
0001
0000
0100
0000
0010
0000
1000
0000
0010
1000
0000
0010
1000
0000
,
0001
0000
0010
0001
0000
0100
0001
0000
1000
0000
0010
1000
0000
0100
1000
0000
,
0001
0000
0100
0010
0100
0000
0001
1000
0001
0000
0100
0010
0000
0100
0010
0000
,
1000
0000
0010
0100
0010
0000
1000
0010
1000
0000
0001
0100
0000
0001
0100
0000
,
0001
0000
1000
0100
1000
0000
0001
0100
0001
0000
1000
0010
0000
0100
0001
0000
,
1000
0000
0001
0100
0000
0001
1000
0000
0001
0000
0100
0000
0010
0000
0100
0010
,
0100
0000
0010
0000
1000
0000
0001
0000
1001
0000
0001
0100
0000
0100
0010
0000
,
1000
0000
0100
1000
0010
0000
1000
0100
1000
0000
0001
0000
0100
0000
0010
1000
,
0010
0000
0100
0000
0001
0000
0100
0010
0100
0000
0001
0000
0100
0000
0010
0000
,
1000
0100
0000
0100
0000
1000
0010
0000
0100
0001
0000
0001
0000
0100
0010
0000
,
1000
0100
0000
1000
0000
0000
0010
0000
0100
0000
0001
0010
0000
0010
0001
0000
,
0100
0000
0010
0000
1000
0000
0001
0000
0100
0000
0010
0100
0000
0100
0010
0000
,
1000
0000
0100
0000
0010
0000
0001
0100
0000
0100
0001
0000
0100
0010
0000
0010
,
0100
0001
1000
0010
2000
0000
3002
0000
,
0103
0010
0100
0000
0001
0000
0100
0000
0010
1000
0010
1000
0010
0000
0100
0000
,
0001
0000
0010
0000
0001
0100
0001
0010
0001
0100
0001
0010
0001
0100
0001
0000
,
1000
0100
1000
0010
0100
0000
0010
0000
1000
0010
0100
0001
0100
0000
0010
0000
,
1000
1000
0010
0010
0100
0100
0001
0001
,
1100
0010
0100
0001
0101
0100
0010
1000
,
0101
0100
0010
1000
1000
0010
0110
0100
,
0001
0010
0100
1000
0001
0010
0100
1000
,
0001
0010
0001
0000
0100
0010
0100
0000
0001
0010
0001
0000
1000
0100
1000
0000
,
0010
0010
1010
0000
0100
0001
0101
0000
,
0010
1000
0010
1000
0010
0000
0000
0000
0100
0001
0100
0001
0100
0000
0000
0000
,
0010
1000
1100
0000
0010
0001
0101
0000
,
0010
1000
0100
1000
0010
0000
0000
0000
0010
0001
0100
0001
0010
0000
0000
0000
,
1000
0001
1000
0001
0100
0010
0100
0010
,
1000
0100
1000
0100
0010
0001
0010
0001
,
1000
0010
1000
0000
0001
0100
0001
0000
1000
0010
1000
0000
0001
0100
0001
0000
,
0020
0000
0000
0030
;

//---------------dance-single - ----------------
#NOTES:
     dance-single:
     :
     Medium:
     9:
     0.451268,0.554935,0.385886,0.296145,0.000000,352.000000,309.000000,43.000000,33.000000,0.000000,0.000000,0.451268,0.554935,0.385886,0.296145,0.000000,352.000000,309.000000,43.000000,33.000000,0.000000,0.000000:
0000
0000
0000
0000
,
0000
0000
0000
0000
,
0000
0000
0000
0000
,
0000
0000
0000
0000
,
0010
0010
0010
0010
,
0100
0100
0100
0100
,
0001
0000
1000
0001
1000
0000
0001
0000
,
1000
0100
1000
0000
0001
0100
0001
0000
,
2002
0000
0000
0000
3003
0100
0000
0020
,
0000
0000
0000
2030
0000
0000
3000
0000
,
0002
0000
0000
0000
0003
0100
0000
0020
,
0000
0000
2030
0000
,
3002
0000
0000
0000
0000
1003
0000
0200
,
0000
0000
0000
0320
0000
0000
0030
0000
,
2000
0000
0000
0000
0000
0001
0000
3002
,
0000
0000
0003
0000
,
0010
1000
0010
0000
0100
0000
0100
0000
,
0001
0100
0001
0000
0010
0000
0010
0000
,
1000
0100
1000
0000
0001
0000
0001
0000
,
0100
0001
0100
0000
0010
0000
0010
0000
,
1000
0100
1000
0000
0010
0000
0100
0000
,
0001
0010
0001
0010
0001
0000
0000
0000
,
0010
0010
0100
0010
,
1001
1001
1001
0000
,
0020
0030
2000
3000
,
0200
0300
0002
0003
,
0020
0030
0002
0003
,
0200
0300
2000
3000
,
0010
0001
0010
0001
0010
0000
0001
0000
,
1000
0100
1000
0100
1000
0000
0100
0000
,
0010
0100
0010
0100
0010
0000
1000
0000
,
0010
0100
0010
0100
0010
0000
0001
0000
,
1000
0100
1000
0000
0101
0000
1100
0000
,
0001
0100
0001
0000
1100
0000
0101
0000
,
0010
0100
0010
0000
1001
0000
0110
0000
,
0100
0010
0100
0000
1001
0000
0110
0000
,
1000
0001
0100
0010
,
0100
0100
0200
0000
,
0301
0001
1000
1000
,
2002
0000
0000
0000
,
0000
3003
0020
0030
,
1000
0101
0002
1003
,
1000
0101
0020
0130
,
0001
0101
1000
0101
,
0001
1010
1000
1010
,
0001
0100
0001
0100
0001
0000
1001
0000
,
1000
0100
1000
0100
1000
0000
1001
0000
,
0010
0100
0010
0100
0010
0000
1001
0000
,
0100
0001
1000
0000
0100
0001
1000
0000
,
0010
1000
0100
1000
0010
1000
0100
1000
,
0010
0100
0001
0100
0010
0100
0001
0000
,
0001
0100
0010
0100
0001
0100
0010
0000
,
0010
1000
0100
0000
0010
0001
0100
0000
,
0010
0100
0010
0100
0010
0100
0010
0000
,
1000
0001
1000
0001
1000
0001
1000
0000
,
0001
0100
0010
0000
0001
1000
0010
0000
,
1000
0100
1000
0010
1000
0000
0101
0000
,
1000
0010
0100
0000
0010
0100
0001
0000
,
0100
0010
0100
0010
1000
0001
1000
0001
,
0100
0100
0100
0000
0010
0010
0010
0000
,
1100
0011
0110
1001
,
0001
0100
0010
0000
1000
0010
0100
0000
,
0001
1000
0001
0100
0010
0100
0010
0000
,
1100
0011
1010
0101
,
1100
1100
0101
0101
,
0020
0000
0130
0000
0001
1000
0100
0000
,
0200
0000
0310
0000
1000
0001
0100
0000
,
0020
0130
0200
0310
,
2000
3001
0002
1003
,
0101
0101
1100
1100
,
0011
0011
1010
1010
,
0001
1000
0001
1000
0010
0100
0010
0000
,
0200
0000
0000
0300
;

//---------------dance-single - ----------------
#NOTES:
     dance-single:
     :
     Easy:
     6:
     0.314093,0.457005,0.251274,0.367937,0.000000,245.000000,217.000000,28.000000,41.000000,0.000000,0.000000,0.314093,0.457005,0.251274,0.367937,0.000000,245.000000,217.000000,28.000000,41.000000,0.000000,0.000000:
// measure 0
0000
0000
0000
0000
,  // measure 1
0000
0000
0000
0000
,  // measure 2
0000
0000
0000
0000
,  // measure 3
0000
0000
0000
0000
,  // measure 4
0010
0010
0010
0010
,  // measure 5
0100
0100
0100
0100
,  // measure 6
0001
1000
0001
1000
,  // measure 7
2002
0000
0000
3003
,  // measure 8
2002
0000
3003
0000
,  // measure 9
0002
0000
0003
0000
,  // measure 10
2000
0000
3000
0000
,  // measure 11
0020
0000
0030
0000
,  // measure 12
0200
0000
0300
0000
,  // measure 13
0002
0000
0003
0000
,  // measure 14
2000
0000
3000
0000
,  // measure 15
0020
0000
0030
0000
,  // measure 16
0010
0010
0100
0100
,  // measure 17
0001
1000
0001
1000
,  // measure 18
0100
0100
0010
0010
,  // measure 19
2200
3300
0022
0033
,  // measure 20
1000
0001
1000
1000
,  // measure 21
0001
1000
0001
0000
,  // measure 22
0010
0010
0100
0010
,  // measure 23
2002
0000
3003
0000
,  // measure 24
0020
0030
2000
3000
,  // measure 25
0200
0300
0002
0003
,  // measure 26
0020
0030
0002
0003
,  // measure 27
0200
0300
2000
3000
,  // measure 28
0010
0010
0100
0001
,  // measure 29
0010
0010
1000
0100
,  // measure 30
0010
0010
0001
1000
,  // measure 31
0010
0010
1000
0001
,  // measure 32
1000
1000
0100
1001
,  // measure 33
0001
0000
0100
1001
,  // measure 34
0010
0010
1000
0100
,  // measure 35
0010
0010
0001
0100
,  // measure 36
1001
0000
0110
0000
,  // measure 37
1001
0000
0110
0000
,  // measure 38
0011
0011
1100
1100
,  // measure 39
2002
0000
0000
0000
,  // measure 40
0000
3003
0220
0330
,  // measure 41
1000
0100
0002
0003
,  // measure 42
1000
0100
0020
0030
,  // measure 43
0001
0100
1000
0000
,  // measure 44
0001
0010
1000
0000
,  // measure 45
0001
0001
0100
1001
,  // measure 46
1000
1000
0100
1001
,  // measure 47
0010
0010
0010
1001
,  // measure 48
0100
0100
0100
1001
,  // measure 49
0010
0010
0020
0130
,  // measure 50
1000
0001
1000
0001
,  // measure 51
0100
0100
0200
0310
,  // measure 52
0001
1000
0001
1000
,  // measure 53
0010
0010
0110
1001
,  // measure 54
0100
0100
0110
1001
,  // measure 55
0001
0010
0001
0010
,  // measure 56
1000
0100
1000
0100
,  // measure 57
1000
0100
0010
0001
,  // measure 58
0100
0100
0010
0010
,  // measure 59
0001
0010
0100
1000
,  // measure 60
0010
0010
0100
0100
,  // measure 61
0001
0010
1000
0100
,  // measure 62
0001
0001
1000
1000
,  // measure 63
0010
0001
0100
1000
,  // measure 64
0100
0100
0010
0010
,  // measure 65
0020
0130
0001
1001
,  // measure 66
0200
0310
1000
1001
,  // measure 67
0020
0130
0200
0310
,  // measure 68
2000
3001
0002
1003
,  // measure 69
0100
0001
0100
1000
,  // measure 70
0010
0001
0010
1000
,  // measure 71
0100
0001
0010
1000
,  // measure 72
2002
0000
0000
3003
;

//---------------dance-single - ----------------
#NOTES:
     dance-single:
     :
     Beginner:
     4:
     0.194866,0.261146,0.089741,0.143585,0.000000,152.000000,142.000000,10.000000,16.000000,0.000000,0.000000,0.194866,0.261146,0.089741,0.143585,0.000000,152.000000,142.000000,10.000000,16.000000,0.000000,0.000000:
// measure 0
0000
0000
0000
0000
,  // measure 1
0000
0000
0000
0000
,  // measure 2
0000
0000
0000
0000
,  // measure 3
0000
0000
0000
0000
,  // measure 4
0010
0000
0010
0000
,  // measure 5
0100
0000
0100
0000
,  // measure 6
0001
0000
1000
0000
,  // measure 7
2002
0000
0000
3003
,  // measure 8
2002
0000
3003
0000
,  // measure 9
0001
0000
0000
0000
,  // measure 10
1000
0000
0000
0000
,  // measure 11
0010
0000
0000
0000
,  // measure 12
0100
0000
0000
0000
,  // measure 13
0001
0000
0000
0000
,  // measure 14
1000
0000
0000
0000
,  // measure 15
0010
0000
0000
0000
,  // measure 16
0010
0000
0100
0000
,  // measure 17
0001
0000
0001
0000
,  // measure 18
0100
0000
0010
0000
,  // measure 19
1000
0000
1000
0000
,  // measure 20
0001
0000
1000
0000
,  // measure 21
0010
0000
0010
0000
,  // measure 22
1000
0000
0001
0000
,  // measure 23
0100
0000
0100
0000
,  // measure 24
0010
0000
1000
0000
,  // measure 25
0100
0000
0001
0000
,  // measure 26
0010
0000
0001
0000
,  // measure 27
0100
0000
1000
0000
,  // measure 28
0010
0000
0100
0000
,  // measure 29
0010
0000
0100
0000
,  // measure 30
1000
0000
0001
0000
,  // measure 31
1000
0000
0001
0000
,  // measure 32
1000
0000
1001
0000
,  // measure 33
0001
0000
1001
0000
,  // measure 34
0010
0000
1001
0000
,  // measure 35
0100
0000
1001
0000
,  // measure 36
0010
0000
0010
0000
,  // measure 37
0100
0000
0100
0000
,  // measure 38
1000
0001
1000
0001
,  // measure 39
2002
0000
0000
0000
,  // measure 40
0000
3003
1001
0000
,  // measure 41
1000
0000
0001
0000
,  // measure 42
1000
0000
0001
0000
,  // measure 43
0001
0000
1000
0000
,  // measure 44
0001
0000
1000
0000
,  // measure 45
0001
0001
0001
0000
,  // measure 46
1000
1000
1000
0000
,  // measure 47
0010
0010
0010
0000
,  // measure 48
0100
0100
0100
0000
,  // measure 49
0010
0000
0010
0000
,  // measure 50
0100
0000
0100
0000
,  // measure 51
1000
0001
1000
0000
,  // measure 52
0001
0000
1001
0000
,  // measure 53
0010
0010
0010
0000
,  // measure 54
0100
0100
0100
0000
,  // measure 55
1000
0000
0001
0000
,  // measure 56
1000
0000
0001
0000
,  // measure 57
1000
0000
0001
0000
,  // measure 58
0100
0100
0100
0000
,  // measure 59
0001
0000
1000
0000
,  // measure 60
0010
0010
0010
0000
,  // measure 61
0001
0000
1000
0000
,  // measure 62
0001
0000
1000
0000
,  // measure 63
0010
0010
0010
0000
,  // measure 64
0100
0100
0100
0000
,  // measure 65
0020
0030
0002
0003
,  // measure 66
0200
0300
2000
3000
,  // measure 67
0020
0030
2000
3000
,  // measure 68
0200
0300
0002
0003
,  // measure 69
0100
0100
0100
0000
,  // measure 70
0010
0010
0010
0000
,  // measure 71
0100
0100
0100
0000
,  // measure 72
2002
0000
0000
3003
;
