#TITLE:CAMP CAMP SONG SONG;
#SUBTITLE:;
#ARTIST:Miles Luna;
#TITLETRANSLIT:;
#SUBTITLETRANSLIT:;
#ARTISTTRANSLIT:;
#GENRE:;
#CREDIT:;
#MENUCOLOR:;
#METERTYPE:DDR X;
#BANNER:CAMP CAMP SONG SONG.png;
#BACKGROUND:CAMP CAMP SONG SONG-bg.png;
#LYRICSPATH:;
#CDTITLE:;
#MUSIC:CAMP CAMP SONG SONG.ogg;
#OFFSET:-0.260;
#SAMPLESTART:1.500;
#SAMPLELENGTH:13.140;
#SELECTABLE:YES;
#LISTSORT:;
#BPMS:0.000=300.000,8.000=314.800,48.000=313.960,72.000=314.860,112.000=238.180,113.000=209.540,114.000=180.700,115.000=167.100,116.000=149.080,118.000=131.060,120.000=315.000,128.000=319.980,152.000=330.000,156.000=340.000,164.000=345.000,188.000=350.000;
#STOPS:;
#BGCHANGES:0.000=CAMP CAMP SONG SONG.avi=1.000=1=1=0,
99999=-nosongbg-=1.000=0=0=0 // don't automatically add -songbackground-
;
#ATTACKS:;

//---------------dance-single - ----------------
#NOTES:
     dance-single:
     :
     Medium:
     13:
     0.785,0.810,0.253,0.101,0.000:
2002
0000
0000
0000
,
0000
0000
3003
1000
,
0001
1000
0001
1000
,
0100
0000
1000
0100
0000
0000
1000
0000
,
0001
0000
0100
0000
0001
0000
0100
0010
,
0000
0000
1000
0000
0001
0000
0000
1000
,
0100
1000
0010
1000
,
0001
0000
1000
0001
0000
0000
1000
0000
,
0010
0000
1000
0010
0000
0000
0100
0000
,
0001
0100
0000
0001
0000
0000
1000
0000
,
0001
0100
0001
0100
,
0010
0000
1000
0010
0000
0000
0001
0000
,
0100
0100
0010
0010
,
1001
0000
0000
0010
,
1000
0001
1000
0001
,
0100
0000
0010
0000
1000
0001
0000
0000
,
0110
0000
0001
0100
0001
0100
0001
0100
,
0001
0000
0000
1000
,
0001
0100
0010
1000
,
0001
0000
0100
0001
0000
0000
1000
0000
,
0010
0010
0100
0100
,
0001
1000
0000
0010
0000
0000
1000
0000
,
0001
0001
1000
1000
,
0010
0100
0000
0010
0000
0000
1000
0000
,
0001
0001
0100
0100
,
0010
1000
0000
0010
0000
0000
1000
0000
,
0010
0010
0100
0100
,
1000
0001
1000
0001
,
1000
0100
0010
0001
,
2002
0000
0000
3003
,
1001
0000
1001
0000
,
0010
0100
0010
0000
1000
0000
0001
0000
,
1000
0100
1000
0100
1000
0000
0010
0000
,
0100
0000
0001
0000
1000
0010
1000
0010
,
1000
0001
1000
0001
1000
0001
1000
0000
,
0010
0100
0001
1000
,
0001
0100
0001
0100
0001
0000
0100
0000
,
0010
1000
0010
0100
,
0010
1000
0010
0100
,
1001
0001
1000
0001
,
0100
0001
0101
0100
,
0001
0000
0100
0000
0001
1000
0001
0000
,
1000
0000
0001
0000
0100
0010
0100
0000
,
0010
0000
1000
0010
1000
0000
0100
0000
,
1000
0000
0001
0100
0001
0000
0100
0000
,
0010
0000
1000
0001
1000
0000
0010
0000
,
1000
0000
0001
1000
0001
0000
0010
0000
,
1000
0100
0010
0001
,
1000
0010
1000
0000
0010
0000
0100
0000
,
1001
1001
0000
0000
;

//---------------dance-single - ----------------
#NOTES:
     dance-single:
     :
     Hard:
     15:
     0.962,0.935,0.531,0.329,0.000:
2002
0000
0000
0000
,
0000
0000
0000
0000
0000
3003
0001
1000
,
0100
0001
1000
0001
,
1000
0000
0001
1000
0000
0000
0001
0100
,
0001
0000
0100
0000
0010
0000
1000
0020
,
0000
0000
0130
0000
1001
0000
0000
1000
,
0001
1000
0010
1000
,
0001
0000
0100
0010
0000
0000
1000
0000
,
0001
0100
0000
0001
0000
0100
0000
0000
,
0010
1000
0000
1100
0000
0000
0010
0000
,
0100
0001
1000
0010
,
0101
0000
1000
0200
0000
0000
1300
0000
,
0010
0010
0100
0100
,
2002
0000
3003
0010
,
1000
0100
0001
1000
,
0001
0000
0100
0000
1000
0002
0000
0000
,
0103
0000
0001
1000
0001
0100
0010
0100
,
0001
0000
0000
1000
,
1001
0001
0100
0010
,
1000
0001
0000
0110
0000
0000
0001
0000
,
1000
0100
1000
0001
,
0100
0001
0000
0101
0000
0000
0010
0000
,
1000
0100
1000
0010
,
0001
0100
0000
0101
0000
0000
0010
0000
,
0110
1001
0100
0010
,
1000
0000
0001
0100
0000
0000
0010
0000
,
0110
0110
1001
1001
,
1000
0100
0010
0001
,
0100
0100
0010
0010
,
2002
0000
0000
3003
,
0220
0330
2002
3003
,
0001
0100
0001
0000
1000
0000
0100
0000
,
1000
0100
1000
0010
1000
0000
0001
0000
,
0100
0010
0100
0010
1000
0001
1000
0001
,
1000
0100
0010
0001
0100
0010
1000
0000
,
0001
0100
0001
0000
1000
0100
1000
0000
,
0010
0100
0010
0100
0010
0000
1001
0000
,
1000
0010
1000
0000
0001
0100
0001
0000
,
1000
0001
0100
0000
0001
1000
0010
0000
,
1000
0010
0100
0000
0001
0100
0010
0000
,
0010
0100
0001
0000
1000
0010
0100
0000
,
1000
0100
1000
0001
1000
0100
1000
0000
,
0001
1000
0001
0100
0001
1000
0001
0000
,
1000
0010
1000
0010
1000
0000
0001
0100
,
0001
0010
0001
0100
0001
0000
1000
0010
,
0100
0000
1000
0001
0100
0000
0001
1000
,
0010
0000
1000
0001
0100
0000
0001
1000
,
0010
0100
0010
0100
0001
1000
0001
1000
,
0001
0100
0010
1000
0001
0000
1000
0000
,
1001
1001
0000
0000
;

//---------------dance-single - ----------------
#NOTES:
     dance-single:
     :
     Beginner:
     6:
     0.235,0.312,0.025,0.025,0.000:
0000
0000
0000
0000
,
0000
0000
0000
0000
,
1000
0000
0000
0000
,
1000
0000
0000
0000
,
0001
0000
0000
0000
,
0001
0000
0000
0000
,
0100
0000
0000
0000
,
0100
0000
0000
0000
,
0010
0000
0000
0000
,
0010
0000
0000
0000
,
1000
0000
0000
0000
,
1000
0000
0000
0000
,
0001
0000
0001
0000
,
0001
0000
0000
0000
,
0100
0000
0100
0000
,
0100
0000
0000
0000
,
1001
0000
0000
0000
,
0000
0000
0000
0000
,
0010
0000
0000
0000
,
0010
0000
0000
0000
,
0100
0000
0000
0000
,
0100
0000
0000
0000
,
0010
0000
0000
0000
,
0010
0000
0000
0000
,
1000
0000
1000
0000
,
1000
0000
0000
0000
,
0001
0000
0000
0000
,
0001
0000
0000
0000
,
0100
0000
0100
0000
,
0200
0000
0000
0000
,
0300
0000
0000
0000
,
0010
0000
0000
0000
,
0010
0000
0000
0000
,
0100
0000
0000
0000
,
0100
0000
0000
0000
,
0001
0000
0000
0000
,
0001
0000
0000
0000
,
1000
0000
1000
0000
,
1000
0000
1000
0000
,
0001
0000
0001
0000
,
0001
0000
0001
0000
,
0100
0000
0100
0000
,
0100
0000
0100
0000
,
0010
0000
0010
0000
,
0010
0000
0010
0000
,
1000
0000
1000
0000
,
0001
0000
0001
0000
,
0100
0000
0100
0000
,
0010
0000
0010
0000
,
1000
1000
0000
0000
;

//---------------dance-double - ----------------
#NOTES:
     dance-double:
     :
     Medium:
     12:
     0.636,0.623,0.177,0.101,0.000:
00022000
00000000
00000000
00000000
,
00000000
00000000
00033000
00001000
,
00000010
00000100
00000001
00000000
,
00000001
00001000
00000001
00000000
,
00001000
00000010
00010000
00000000
,
00001000
00010000
00001000
00000000
,
00001000
01000000
00010000
00000000
,
00010000
10000000
00010000
00000000
,
10000000
00100000
01000000
00000000
,
00100000
01000000
00001000
00000000
,
00010000
00001000
00010000
00000000
,
00010000
00000100
00001000
00000000
,
00000010
00000100
00000010
00000100
,
00001001
00000000
00000000
00000010
,
00000001
00000001
00001000
00001000
,
00000010
00000000
00001000
00000000
00000001
00001000
00000000
00000000
,
00000100
00000000
00000010
00000100
00000010
00000100
00000010
00000100
,
00000010
00000000
00000000
00001000
,
00000010
00010000
00000010
00010000
,
00001000
01000000
00001000
00000000
,
01000000
00100000
10000000
00000000
,
01000000
00001000
00010000
00000000
,
00010000
00000010
00000100
00000000
,
00000100
00000001
00001000
00000000
,
00000010
00000100
00000010
00000100
,
00000010
00000000
00001001
00000000
,
00000010
00000010
00000100
00000100
,
00001000
00000001
00001000
00000001
,
00001000
00000000
00010000
00000000
,
20020000
00000000
00000000
30030000
,
01000000
00000000
00100000
00000000
,
10000000
01000000
10000000
01000000
,
00100000
00010000
00100000
00010000
,
00001000
00000100
00001000
00000100
,
00000010
00000001
00000010
00000001
,
00001000
00000001
00001000
00000001
,
00000100
00000010
00000100
00000010
00000100
00000000
00000010
00000000
,
00001000
00000100
00001000
00000000
,
00010000
00100000
00010000
00000000
,
10000000
01000000
00010000
00000000
,
00010000
00000100
00001000
00000000
,
00001001
00000001
00000100
00000001
,
00001000
00000100
00010000
00001000
,
01000000
00010000
01000000
00001000
,
00010000
00000100
00001000
00000010
,
00000100
00000001
00001000
00000100
,
00010000
00001000
01000000
00100000
,
10000000
01000000
00100000
00010000
,
00001000
00000100
00000010
00000001
,
00001001
00001001
00000000
00000000
;

//---------------dance-double - ----------------
#NOTES:
     dance-double:
     :
     Hard:
     15:
     0.875,0.872,0.253,0.152,0.000: // measure 1
20020000
00000000
00000000
00000000
,  // measure 2
00000000
00000000
00000000
00000000
30030000
00000000
10000000
00010000
,  // measure 3
01000000
00010000
10000000
00010000
,  // measure 4
01000000
00000000
00001000
01000000
00000000
00000000
00001000
00010000
,  // measure 5
00001000
00000000
00010000
00000000
00000100
00000000
00001000
00000020
,  // measure 6
00000000
00000000
00000130
00000000
00000001
00000000
00000000
00001000
,  // measure 7
00000001
00001000
00000100
00001000
,  // measure 8
00000010
00000000
00010000
00001000
00000000
00000000
00010000
00000000
,  // measure 9
00001000
00000000
01000000
00010000
00000000
01000000
00000000
00000000
,  // measure 10
00100000
10000000
00000000
01000000
00000000
00000000
10000000
00000000
,  // measure 11
00100000
01000000
00001000
00010000
,  // measure 12
00000100
00000000
00001000
00000010
00000000
00000000
00000100
00000000
,  // measure 13
00000001
00000010
00000100
00001000
,  // measure 14
00001001
00000000
00000000
00001000
,  // measure 15
00001100
00001100
00001000
00000100
,  // measure 16
00010000
00000000
00001000
00000000
01000000
00010000
00000000
00000000
,  // measure 17
10010000
00000000
10000000
00100000
10000000
01000000
10000000
00100000
,  // measure 18
01000000
00000000
20000000
00000000
,  // measure 19
30010000
00100000
00001000
00010000
,  // measure 20
00000100
00000000
00001000
00000010
00000000
00000000
00000100
00000000
,  // measure 21
00000001
00001000
00000001
00000000
00000100
00000000
00000010
00000000
,  // measure 22
00001000
00000100
00000000
00010000
00000000
00000000
00001000
00000000
,  // measure 23
01000000
00010000
01000000
00000000
00100000
00000000
10000000
00000000
,  // measure 24
01000000
10000000
00000000
00100000
00000000
00000000
01000000
00000000
,  // measure 25
00001000
00010000
00000100
00001000
,  // measure 26
00000010
00000000
00001000
00000001
00000000
00000000
00000100
00000000
,  // measure 27
00000001
00000010
00000100
00001000
,  // measure 28
00010000
00100000
01000000
10000000
,  // measure 29
00100000
00010000
00001000
00000100
,  // measure 30
00002002
00000000
00000000
00003003
,  // measure 31
00000110
00000000
00001100
00000000
,  // measure 32
00001000
00000010
00001000
00000000
00000001
00000100
00000001
00000000
,  // measure 33
00001000
00000100
00001000
00000100
00001000
00000000
00000100
00000000
,  // measure 34
00010000
00000000
00001000
00000000
01000000
00010000
01000000
00010000
,  // measure 35
01000000
00100000
01000000
00100000
01000000
00010000
01000000
00000000
,  // measure 36
00010000
10000000
01000000
00100000
,  // measure 37
00001000
00010000
00001000
00010000
00001000
00000000
00010000
00000000
,  // measure 38
00000100
00001000
00000100
00000000
00001000
00000010
00001000
00000000
,  // measure 39
00000001
00000100
00000001
00000000
00001000
00000100
00001000
00000000
,  // measure 40
00000010
00010000
00000010
00000000
00010000
00001000
00010000
00000000
,  // measure 41
00001000
01000000
00001000
00000000
01000000
00010000
01000000
00000000
,  // measure 42
10000000
00100000
10000000
00100000
10000000
00000000
00010000
00000000
,  // measure 43
01000000
00100000
01000000
00100000
01000000
00000000
00010000
00000000
,  // measure 44
10000000
01000000
10000000
01000000
10000000
00000000
00100000
00010000
,  // measure 45
00100000
00010000
00100000
00010000
00100000
00000000
00001000
00000000
,  // measure 46
00010000
00000100
00001000
00000000
00001000
00000010
00000100
00000000
,  // measure 47
00000100
00000001
00001000
00000000
00001000
00000100
00010000
00000000
,  // measure 48
00010000
00001000
00100000
00000000
00100000
00010000
01000000
00000000
,  // measure 49
01000000
00100000
10000000
00000000
01000000
00100000
00010000
00000000
,  // measure 50
10010000
10010000
00000000
00000000
;

//---------------dance-double - ----------------
#NOTES:
     dance-double:
     :
     Easy:
     8:
     0.463,0.623,0.405,0.354,0.000:
00022000
00000000
00000000
00000000
,
00000000
00000000
00033000
00000000
,
00001000
00000000
00001000
00000000
,
00001000
00000000
00000001
00000000
,
00000100
00000000
00000100
00000000
,
00000100
00000000
00000001
00000000
,
00001000
00000000
00001000
00000000
,
00010000
00000000
00010000
00000000
,
01000000
00000000
01000000
00000000
,
10000000
00000000
10000000
00000000
,
00100000
00000000
00100000
00000000
,
00001000
00000000
00001000
00000000
,
00010000
00000100
00010000
00000100
,
00010000
00000000
00000000
00000000
,
00000010
00000000
00000010
00000000
,
00000001
00000100
00001000
00000000
,
00000020
00000000
00000000
00000000
,
00000030
00000000
00000000
00000000
,
00001000
00000000
00001000
00000000
,
00000100
00010000
00000100
00000000
,
00010000
00000000
00010000
00000000
,
00001000
01000000
00001000
00000000
,
01000000
00000000
01000000
00000000
,
00010000
10000000
00010000
00000000
,
00100000
00000000
00100000
00000000
,
10000000
01000000
10000000
00000000
,
00100000
00000000
00100000
00000000
,
00001000
00000000
00001000
00000000
,
00010000
00000000
00001000
00000000
,
00022000
00000000
00000000
00033000
,
00010000
00000000
00010000
00000000
,
00002000
00003000
00000002
00000003
,
00000200
00000300
00000020
00000030
,
00002000
00003000
00000200
00000000
,
00000000
00000000
00000300
00000000
,
00020000
00030000
02000000
03000000
,
20000000
00000000
30000000
00000000
,
10000000
00000000
01000000
00000000
,
00100000
00000000
00010000
00000000
,
00001000
00000000
00000100
00000000
,
00000010
00000000
00000001
00000000
,
00001001
00000000
00001100
00000000
,
00011000
00000000
01010000
00000000
,
11000000
00000000
10100000
00000000
,
00110000
00000000
00011000
00000000
,
00001010
00000000
00000011
00000000
,
00001100
00000000
00011000
00000000
,
01000000
00100000
01000000
00000000
,
00010000
10000000
00010000
00000000
,
10010000
10010000
00000000
00000000
;

//---------------dance-single - ----------------
#NOTES:
     dance-single:
     :
     Easy:
     8:
     0.466,0.623,0.278,0.380,0.000:
2002
0000
0000
0000
,
0000
0000
3003
0000
,
0010
0000
0100
0000
,
0001
0000
1000
0000
,
0100
0000
0010
0000
,
1000
0000
0001
0000
,
1000
0000
0100
0000
,
0001
0000
1000
0000
,
0001
0000
0100
0000
,
1000
0000
0001
0000
,
1000
0000
1000
0000
,
0001
0000
0001
0000
,
1000
0001
1000
0001
,
1000
0000
0000
0000
,
0010
0000
0010
0000
,
0100
0010
0100
0000
,
2002
0000
0000
0000
,
3003
0000
0000
0000
,
1000
0100
1000
0000
,
1000
0000
0001
0000
,
0001
0100
0001
0000
,
0001
0000
1000
0000
,
1000
0010
1000
0000
,
1000
0000
0001
0000
,
0001
0010
0001
0000
,
1000
0000
0100
0000
,
0001
0000
0001
0000
,
1000
0000
1000
0000
,
0010
0000
0100
0000
,
2002
0000
0000
3003
,
0010
0000
0010
0000
,
2000
3000
0002
0003
,
2000
3000
0002
0003
,
0200
0300
0020
0000
,
0100
0000
0130
0000
,
2000
3000
0002
0003
,
0200
0000
0000
0300
,
0010
0000
0010
0000
,
1000
0000
1000
0000
,
0001
0000
0001
0000
,
0100
0000
0100
0000
,
1001
0000
1001
0000
,
1100
0000
1100
0000
,
0101
0000
0101
0000
,
0110
0000
0110
0000
,
1000
0001
1000
0000
,
0001
1000
0001
0000
,
0100
0010
0100
0010
,
0100
0010
0100
0000
,
0001
0001
0000
0000
;
