#TITLE:Break A Spell;
#SUBTITLE:;
#ARTIST:Daisuke Ishiwatari;
#TITLETRANSLIT:;
#SUBTITLETRANSLIT:;
#ARTISTTRANSLIT:;
#GENRE:;
#CREDIT:;
#MENUCOLOR:;
#METERTYPE:DDR;
#BANNER:Break A Spell.png;
#BACKGROUND:Break A Spell-bg.png;
#LYRICSPATH:;
#CDTITLE:;
#MUSIC:Break A Spell.ogg;
#OFFSET:0.040;
#SAMPLESTART:44.349;
#SAMPLELENGTH:20.000;
#SELECTABLE:YES;
#LISTSORT:;
#BPMS:0.000=100.000,24.000=200.000;
#STOPS:;
#BGCHANGES:0.000=Break A Spell.avi=1.000=0=0=0,
99999=-nosongbg-=1.000=0=0=0 // don't automatically add -songbackground-
;
#ATTACKS:;

//---------------dance-single - ----------------
#NOTES:
     dance-single:
     :
     Hard:
     13:
     0.707,0.875,0.392,0.196,0.073:
0000
0000
0000
0000
,
0000
0000
0000
0000
,
1000
0000
0000
0001
1000
0001
0001
0000
1000
0010
0000
0010
0010
0100
0001
0000
,
1000
0000
0000
0001
1000
0001
0001
0000
0001
1000
0000
1000
1000
0010
0100
0000
,
0001
0000
0000
0001
1000
0001
0001
0000
1000
0010
0000
0010
0010
0100
0001
0000
,
2000
0000
0000
3020
0000
0000
0230
0000
0000
0302
0000
0000
2003
0000
0000
0000
,
3010
0100
0001
0000
0010
0100
0001
0000
,
0010
0100
0001
0000
0010
0100
0001
1000
,
0010
0100
0001
0000
0010
0100
0001
0000
,
0010
0100
0001
0000
0010
0001
1000
0100
,
1000
0010
0100
0000
1000
0010
0100
0000
,
1000
0010
0100
0000
1000
0010
0100
0001
,
0000
1000
0010
0100
0000
1000
0010
0100
,
0000
1000
0010
0100
0010
0100
0001
1000
,
0001
0000
0011
0000
1100
0000
1000
0010
,
0100
0000
0110
0000
0001
0100
1000
0100
,
0000
1010
1000
1100
,
0100
0000
0101
0000
0001
0010
0100
0010
,
0001
1000
0101
1000
,
0110
0000
1000
0000
0101
0000
1000
0100
,
0000
1000
0010
0100
0000
0100
0001
0010
,
0000
0001
1000
0100
1000
0001
0100
0010
,
1000
0100
1000
0100
0000
1000
0100
0002
,
0000
1000
0100
1003
,
1001
0000
0000
0110
0000
0000
2001
0000
,
0000
0010
0100
3010
,
0001
0100
0010
2000
0000
3010
0100
0002
,
0000
1000
0100
0013
,
0100
0001
0100
0010
0000
1000
0010
0100
,
0000
0001
0100
0010
1000
0100
0010
0001
,
0200
0000
0000
0000
,
0010
0010
0010
0310
,
1000
0000
0001
0100
0000
0001
0100
0000
,
0001
0010
0000
0001
0100
0010
1000
0100
,
0010
0000
1000
0010
0000
1000
0010
0000
,
1000
0001
0000
1000
0001
0100
0010
0000
,
1000
0000
0100
1000
0000
0100
1000
0000
,
1000
0010
0000
0010
0100
0001
0100
0010
,
1000
0000
0010
1000
0000
0010
0100
0000
,
0001
0100
0001
0100
1000
0100
1000
0000
,
0001
0000
0010
0001
0000
0100
0001
0000
,
1000
0010
0000
0010
0010
0100
0001
0000
,
0010
0000
0001
0100
0000
0001
1000
0000
,
0001
0010
0000
0001
0001
0100
0010
0000
,
1100
0000
0100
0001
0000
1000
0100
0000
,
0101
0001
0000
1000
1000
0010
0100
0000
,
0001
0100
0010
1000
0001
0100
0010
0100
,
0001
1000
0010
0100
0001
0100
0010
0100
,
0002
0000
0000
2000
0000
0000
3003
0000
,
0000
0110
0000
0110
0000
0000
0010
0000
,
1000
0000
0001
0000
1000
0000
0001
0100
,
0001
0000
1000
0000
0001
0000
1000
0100
,
1000
0000
0001
0000
0100
0000
0001
1000
,
0001
0000
1000
0000
0010
0000
0100
0001
,
0100
1100
1100
1100
,
0101
0000
0101
0000
0011
0000
0010
0001
,
0100
0101
0101
1100
,
1100
0000
1010
0000
1010
0000
0010
1000
,
0100
0101
0101
1100
,
1100
0000
0110
0000
0110
0000
1000
0001
,
0100
0110
0110
1001
,
1001
0000
1100
0000
1000
0001
0100
0001
,
0010
0000
0001
0100
0001
0000
0020
0000
0000
0000
1030
0000
0100
0000
2000
0000
,
0000
3010
0100
0001
0100
0100
0001
0001
,
0001
0100
0001
0020
0000
0031
1000
0020
,
0000
0130
0001
0100
0010
1000
0100
0010
,
0001
0100
0010
2000
0000
3001
0100
0020
,
0000
1030
0100
0010
0001
0100
0001
0001
,
0010
0000
1000
1100
0000
0010
0011
0000
,
0100
0010
1000
0001
0100
0010
1000
0001
,
0100
0001
0100
0002
0000
1003
0010
2000
,
0000
3001
0100
0010
0100
0001
1000
0100
,
1000
0001
1000
0200
0000
0301
1000
0001
,
1000
0001
0100
0010
1000
0010
0100
0002
,
0000
0000
0000
0000
,
1000
1000
1000
1003
,
1001
0000
1000
0100
0010
0100
1000
0000
,
0001
0100
0000
0100
0100
0010
1000
0100
,
1001
0000
0001
0010
0100
0010
0001
0000
,
1000
0001
0000
0001
0001
0010
0100
0000
,
1001
0000
0100
0010
0100
0010
0100
0000
,
1000
0001
0000
0001
0001
0100
0010
1000
,
0001
0000
0100
0010
0100
0010
0100
0000
,
0001
0010
0001
1000
0100
1000
0010
1000
,
0100
0000
0001
0100
0001
0100
0001
0000
,
1000
0010
1000
0010
0010
0100
0001
0000
,
0010
0000
1000
0010
1000
0010
1000
0000
,
0001
0100
0001
0100
0100
0010
1000
0000
,
0101
0000
1000
0100
1000
0100
1000
0000
,
0101
0001
0000
0010
0100
1000
0001
0000
,
0100
0001
1000
0001
0100
0001
0010
0001
,
1000
0100
0010
0001
0100
0010
1000
0001
,
2000
0000
0000
0002
0000
3003
0000
0000
,
1001
1001
0000
0000
;

//---------------dance-single - ----------------
#NOTES:
     dance-single:
     :
     Medium:
     10:
     0.510,0.685,0.547,0.261,0.020:
0000
0000
0000
0000
,
0000
0000
0000
0000
,
0010
0000
0000
0000
0010
0000
0010
0000
1000
0001
0000
0000
0100
0000
0100
0000
,
1000
0000
0000
0000
0010
0000
0010
0000
1000
0001
0000
0000
0100
0000
0100
0000
,
0001
0000
0000
0000
0010
0000
0010
0000
1000
0100
0000
0000
0010
0000
0010
0000
,
2000
0000
0000
3020
0000
0000
0230
0000
0000
0302
0000
0000
2003
0000
0000
0000
,
3001
1000
1001
0110
,
0010
0000
0010
0000
1000
0100
0000
1001
,
0000
0010
0100
1000
,
0001
0010
0000
1002
0000
0100
0000
0103
,
0000
0000
0010
0000
1000
0000
0000
0100
,
0010
0000
1001
0000
0101
0000
0001
2000
,
0000
0001
0000
3020
0000
0130
0001
0000
,
1000
0001
0010
0000
0001
1000
0000
0000
,
0001
0000
0110
0000
1001
0000
0000
1000
,
0010
0000
0110
0000
1001
0000
0000
0110
,
0000
1000
0010
0100
,
0001
0001
0000
1020
0000
0100
0000
0000
,
1030
0001
1100
0001
,
1010
0000
0001
0000
0110
0000
0000
2000
,
0001
0000
3010
0001
0000
1000
0001
0000
,
1000
0100
0010
0001
,
0100
0000
0000
1001
0000
0000
0000
1001
,
0000
0010
0100
1000
,
0101
0000
0000
0110
0000
0000
1001
0000
,
0000
0110
0110
0000
,
1100
0000
0000
0101
0000
0000
0000
0101
,
0000
1000
0010
0100
,
1001
0000
0000
0110
0000
0000
1001
0000
,
0000
0010
1000
0001
,
0200
0000
0000
0000
,
0010
0010
0010
0310
,
1000
0002
0000
0100
,
0000
0100
0000
0100
0100
0000
1003
0000
,
0010
0000
0000
0100
0000
0000
0010
0000
,
1000
0000
0000
0001
0000
1000
0001
0000
,
0200
0000
0000
0320
0000
0000
0001
0000
,
0000
1000
0000
0000
0001
0000
0031
0000
,
0100
0000
0010
0100
0000
0010
0100
0000
,
0002
2003
3020
0230
,
0000
0302
0000
0010
,
0000
1000
0000
1000
1000
0000
0100
0000
,
1003
0000
0001
1000
0000
0001
1000
0000
,
0020
0000
0000
0230
0000
0000
0301
0000
,
1001
0000
0001
1000
0000
0000
0110
0000
,
1001
0000
1000
0001
0000
0000
1000
0000
,
1100
0000
0000
0001
0000
0000
0010
0000
,
0110
0000
1000
0001
0000
1000
0010
0000
,
0200
0000
0000
0020
0000
0000
0330
0000
,
0000
0110
0000
0110
0000
0000
0010
0000
,
1000
0001
1000
0100
,
0001
1000
0001
0100
,
1000
0001
0100
1000
,
0001
1000
0010
0100
,
0001
1000
1000
1100
,
0100
0001
0001
0011
,
0101
0100
0100
1100
,
1000
1000
1000
1010
,
0100
0101
0101
0100
,
1000
1010
1010
1000
,
0100
0110
0110
0001
,
1000
1001
1001
0100
,
0010
0000
0000
1000
0000
0000
0000
0101
,
0000
1000
0010
0100
,
0001
0000
0000
1100
0000
0000
0000
0101
,
0000
0000
0010
0000
0100
0010
0100
0000
,
0001
0000
0000
1100
0000
0000
0000
0010
,
0000
0001
0010
0100
,
1001
0000
0000
0110
0000
0000
1001
0000
,
0000
1100
0011
0000
,
0110
0000
0000
1001
0000
0000
0000
1100
,
0000
0001
0010
0100
,
1001
0000
0000
0200
0000
0000
0000
0000
,
0310
1000
0001
0100
,
0002
0000
0000
0000
,
1000
1000
1000
1003
,
0020
0000
0200
0000
0000
0000
0000
0030
,
0000
0001
0000
0000
0001
0000
0301
0000
,
0010
0000
1000
0010
0000
1000
0010
0000
,
0100
0001
0000
0001
1000
0000
0001
0000
,
0200
0000
0000
0320
0000
0000
1000
0000
,
0000
0100
0000
1000
1000
0000
0030
0000
,
0001
0000
0000
0100
0000
0000
0010
0000
,
1000
0100
0010
0001
,
0100
0020
0000
1000
,
0000
0100
0100
0030
,
0001
0000
1000
0010
0000
1000
0010
0000
,
0100
0001
0000
1000
0100
0010
0001
0000
,
0110
0000
0000
1000
0000
0001
0100
0000
,
1001
0000
0000
0100
0000
0010
1000
0000
,
0101
0000
0000
1100
0000
0010
0100
0000
,
0001
1000
0010
0000
1000
0000
0001
0000
,
2000
0000
0000
0002
0000
3003
0000
0000
,
1001
1001
0000
0000
;

//---------------dance-single - Copied from----------------
#NOTES:
     dance-single:
     Copied from:
     Easy:
     7:
     0.391,0.457,0.375,0.278,0.000: // measure 1
0000
0000
0000
0000
,  // measure 2
0000
0000
0000
0000
,  // measure 3
0010
0010
1001
0100
,  // measure 4
0001
0001
0110
1000
,  // measure 5
0100
0100
1001
0010
,  // measure 6
2002
0000
0000
3003
,  // measure 7
0000
0010
0010
1000
,  // measure 8
1000
0001
1001
0000
,  // measure 9
0100
0100
0001
0001
,  // measure 10
1000
1000
1001
0000
,  // measure 11
0110
0001
0001
0000
,  // measure 12
0110
0000
1000
0000
1000
0000
0000
0002
,  // measure 13
0000
0000
0003
2000
0000
3000
0020
0000
,  // measure 14
0030
0000
1000
0000
0000
0110
0000
0000
,  // measure 15
0001
0001
1100
0000
,  // measure 16
1000
1000
0101
0000
,  // measure 17
0010
0010
0100
0100
,  // measure 18
0010
1000
0101
0000
,  // measure 19
0001
0001
1010
0000
,  // measure 20
1000
0000
1000
0000
0101
0000
0000
0020
,  // measure 21
0000
0000
0030
2000
0000
0000
3002
0000
,  // measure 22
0000
0003
0100
0010
,  // measure 23
1000
0000
0000
1001
0000
0000
0000
1001
,  // measure 24
0000
0000
0000
0000
,  // measure 25
0001
0000
0000
1001
0000
0000
1001
0000
,  // measure 26
0000
0100
0110
0000
,  // measure 27
1000
0000
0000
1001
0000
0000
0000
1001
,  // measure 28
0000
0000
0000
0000
,  // measure 29
0001
0000
0000
0100
0000
0000
1000
0000
,  // measure 30
0000
0010
0100
0000
,  // measure 31
0200
0000
0000
0000
,  // measure 32
0010
0010
0010
0310
,  // measure 33
0000
0002
0000
1000
,  // measure 34
0000
1000
0000
1000
,  // measure 35
0000
1003
0000
0010
,  // measure 36
2000
3000
0002
0003
,  // measure 37
1000
0000
0200
0000
,  // measure 38
0000
1000
0000
1000
,  // measure 39
0000
0001
0000
0301
,  // measure 40
0001
0010
0100
1000
,  // measure 41
0000
0020
0000
1000
,  // measure 42
0000
1000
0000
1000
,  // measure 43
0000
1030
0000
0001
,  // measure 44
0200
0300
0020
0030
,  // measure 45
2000
0000
3000
0100
,  // measure 46
0002
0000
0003
0010
,  // measure 47
2000
3000
0002
0003
,  // measure 48
0200
0300
0020
0030
,  // measure 49
2002
0000
3003
0000
,  // measure 50
0020
0000
0030
0010
,  // measure 51
1000
0001
1000
0100
,  // measure 52
0001
1000
0001
0100
,  // measure 53
1000
0001
0100
1000
,  // measure 54
0001
1000
0010
0100
,  // measure 55
0001
1000
1000
1100
,  // measure 56
0100
0001
0001
0011
,  // measure 57
0101
0100
0100
1000
,  // measure 58
1000
1000
1000
1010
,  // measure 59
0100
0001
0100
0001
,  // measure 60
1000
0010
1000
0010
,  // measure 61
0100
0010
0100
0001
,  // measure 62
1000
0001
1000
0100
,  // measure 63
0010
0000
0000
1001
0000
0000
0000
1001
,  // measure 64
0000
0000
0000
0000
,  // measure 65
0001
0000
0000
1001
0000
0000
0000
1001
,  // measure 66
0000
0000
0000
0000
,  // measure 67
0001
0000
0000
0110
0000
0000
0000
1001
,  // measure 68
0000
0001
0010
0100
,  // measure 69
1001
0000
0000
0110
0000
0000
1001
0000
,  // measure 70
0000
1100
0011
0000
,  // measure 71
0010
0000
0000
1000
0000
0000
0000
1001
,  // measure 72
0000
0001
0010
0100
,  // measure 73
1001
0000
0000
0200
0000
0000
0000
0000
,  // measure 74
0310
1000
0001
0100
,  // measure 75
0002
0000
0000
0000
,  // measure 76
1000
1000
1000
1003
,  // measure 77
0020
0200
0000
0000
,  // measure 78
0030
0001
0001
0301
,  // measure 79
0010
1000
0010
1010
,  // measure 80
0100
0001
1001
0001
,  // measure 81
0200
0000
0000
0320
0000
0000
1000
0000
,  // measure 82
0000
0100
1000
0030
,  // measure 83
0001
0000
0100
0010
,  // measure 84
1000
0100
0010
0001
,  // measure 85
0100
0020
0000
1000
,  // measure 86
0000
0100
0100
0030
,  // measure 87
0001
1000
0010
1000
,  // measure 88
0100
0001
0100
0001
,  // measure 89
0110
0000
1000
0100
,  // measure 90
1000
0000
0100
1000
,  // measure 91
0100
0000
0100
0110
,  // measure 92
0001
0010
1000
0001
,  // measure 93
2002
0000
0000
3003
,  // measure 94
0110
1001
0000
0000
;

//---------------dance-single - ----------------
#NOTES:
     dance-single:
     :
     Beginner:
     5:
     0.213,0.266,0.122,0.098,0.000:
0000
0000
0000
0000
,
0000
0000
0000
0000
,
0000
0000
1001
0000
,
0000
0000
1001
0000
,
0000
0000
1001
0000
,
0020
0000
0030
0000
,
0000
0001
0000
0001
,
0000
0001
0000
0001
,
0000
0100
0000
0100
,
0000
1000
0000
1000
,
0000
0001
0000
0001
,
0000
0001
0000
0001
,
0000
1000
0000
1000
,
0000
0010
0000
0010
,
0000
1000
0000
1000
,
0000
1000
0000
1000
,
0000
0100
0000
0100
,
0000
0001
0000
0001
,
0000
1000
0000
1000
,
0000
1000
0000
1000
,
0000
0010
0000
0010
,
0000
0001
0000
0000
,
1001
0000
0000
0000
0000
0000
0000
1001
,
0000
0000
0000
0000
,
1000
0000
0000
1001
,
0000
0000
1001
0000
,
0001
0000
0000
0000
0000
0000
0000
1001
,
0000
0000
0000
0000
,
0100
0000
0000
0000
,
0100
0000
0100
0000
,
0200
0000
0000
0000
,
0300
0000
0000
0000
,
0000
0020
0000
0000
,
0030
0000
0000
0000
,
0000
1000
0000
1000
,
0000
0001
0000
0001
,
0000
0200
0000
0000
,
0300
0000
0000
0000
,
0000
0001
0000
0001
,
0000
0010
0000
0010
,
0000
2000
0000
0000
,
3000
0000
0000
0000
,
0000
0010
0000
0010
,
0000
1000
0000
1000
,
0000
0001
0000
0001
,
0000
1000
0000
1000
,
0000
0010
0000
0010
,
0000
0100
0000
0100
,
0200
0000
0300
0000
,
0000
0000
0000
0000
,
0000
0010
0000
0010
,
0000
1000
0000
1000
,
0000
0010
0000
0010
,
0000
0001
0000
0001
,
0000
0100
0100
0100
,
0000
0100
0100
0100
,
0000
0010
0010
0010
,
0000
0010
0010
0010
,
0000
1000
1000
1000
,
0000
1000
1000
1000
,
0000
0001
0001
0001
,
0000
0001
0001
0001
,
0000
0000
0000
0000
0000
0000
0000
1001
,
0000
0000
0010
0000
,
0100
0000
0000
0000
0000
0000
0000
1001
,
0000
0000
0010
0000
,
0100
0000
0000
0000
0000
0000
0000
1001
,
0000
0000
0010
0000
,
0100
0000
0000
1001
,
0000
0010
0010
0000
,
0100
0000
0000
0000
0000
0000
0000
1001
,
0000
0000
0010
0000
,
1000
0000
0000
0000
,
0001
0000
1000
0000
,
0002
0000
0000
0000
,
0003
0000
0000
0000
,
0000
0100
0000
0100
,
0000
0100
0100
0000
,
0000
0010
0000
0010
,
0000
0010
0010
0000
,
0000
1000
0000
1000
,
0000
1000
1000
0000
,
0000
0001
0000
0001
,
0000
0001
0001
0000
,
0000
0100
0000
0100
,
0000
0010
0010
0000
,
0000
1000
0000
1000
,
0000
0001
0001
0000
,
2000
3000
0000
0001
,
0002
0003
0000
1000
,
2000
3000
0000
0010
,
0020
0030
0000
0100
,
0200
0300
0000
0000
,
1001
1001
0000
0000
;
