#TITLE:Brand New Sky;
#SUBTITLE:;
#ARTIST:KOCHO;
#TITLETRANSLIT:;
#SUBTITLETRANSLIT:;
#ARTISTTRANSLIT:;
#GENRE:;
#CREDIT:;
#BANNER:Brand New Sky.png;
#BACKGROUND:Brand New Sky-bg.png;
#LYRICSPATH:;
#CDTITLE:;
#MUSIC:Brand New Sky.ogg;
#OFFSET:-0.551000;
#SAMPLESTART:64.080414;
#SAMPLELENGTH:12.352943;
#SELECTABLE:YES;
#BPMS:0.000000=136.000000
;
#STOPS:
;
#BGCHANGES:-0.750=Brand New Sky.avi=1.000=0=0=0=StretchNoLoop====,
99999=-nosongbg-=1.000=0=0=0 // don't automatically add -songbackground-
;
#KEYSOUNDS:;
#ATTACKS:;

//---------------dance-single - ----------------
#NOTES:
     dance-single:
     :
     Hard:
     12:
     0.517273,0.548236,0.246494,0.203995,0.297493,426.000000,397.000000,29.000000,24.000000,0.000000,0.000000,0.517273,0.548236,0.246494,0.203995,0.297493,426.000000,397.000000,29.000000,24.000000,0.000000,0.000000:
// measure 0
0000
0000
0000
0000
,  // measure 1
0000
0000
0000
0000
,  // measure 2
0000
0000
0000
0000
,  // measure 3
0000
0000
0000
0000
,  // measure 4
0020
0000
0000
0000
0030
0001
1000
0001
,  // measure 5
1001
0000
0000
1000
0000
0000
0001
0000
0200
0000
0000
0000
0300
0000
0000
0000
,  // measure 6
0011
0000
0000
0010
0001
0000
0000
0001
0100
0000
0000
0100
0010
0000
0000
0010
,  // measure 7
2000
0000
0100
3200
0000
1000
0310
0000
,  // measure 8
1000
0000
0000
1000
0001
0000
0000
0001
0100
0000
0010
0000
1000
0000
0001
0000
,  // measure 9
1000
0000
0000
1001
0000
0000
0001
0000
0010
0000
0100
0000
1000
0000
0001
0000
,  // measure 10
1000
0000
0000
1000
0001
0000
0000
0001
0100
0000
0000
0100
0010
0000
1000
0000
,  // measure 11
1010
0000
0000
0010
0000
0000
0100
0000
0001
0100
0001
0100
0001
0000
0010
0000
,  // measure 12
1000
0000
0000
1000
0001
0000
0100
0000
0010
0000
1000
0000
0100
0000
1000
0000
,  // measure 13
0001
0000
0000
0100
0001
0000
0100
0000
0010
0000
1000
0000
0100
0000
1000
0000
,  // measure 14
0001
0000
0000
0100
0001
0000
0010
0000
0001
0000
0100
0000
0010
0000
1000
0000
,  // measure 15
0100
0000
0000
1000
0100
0000
1000
0000
0010
0000
0100
0000
0001
0000
0100
0000
,  // measure 16
0010
0000
0000
1000
0100
0000
1000
0000
0010
0000
0000
0100
0001
0000
0100
0000
,  // measure 17
0010
0000
0000
1000
0100
0000
0010
0000
0001
0000
0100
0000
0010
0000
0100
0000
,  // measure 18
0001
0000
0000
0100
0010
0000
1000
0000
0100
0000
0000
1000
0010
0000
0100
0000
,  // measure 19
0001
0000
0000
0100
0010
0000
1000
0000
0100
0000
0000
0000
1001
0000
0000
0000
,  // measure 20
0210
0000
0010
0000
0310
0000
0001
0100
,  // measure 21
0010
0000
1001
0000
1000
0010
0100
0000
,  // measure 22
1001
0000
1000
0001
0100
0000
1001
0000
,  // measure 23
0010
1000
0010
0100
0000
0010
1000
0010
,  // measure 24
0100
0000
0001
0100
0010
0000
1010
0000
,  // measure 25
0101
0000
1000
0000
0010
0100
0001
0100
,  // measure 26
0010
0000
1000
0100
0001
0000
1000
0000
,  // measure 27
0001
0000
0000
1000
0000
0000
0100
0000
0010
0000
0000
0000
1001
0000
0000
0000
,  // measure 28
0110
0000
0000
0010
0000
0000
1000
0000
0010
0000
0100
0000
0001
0000
0100
0000
,  // measure 29
0010
0000
0000
0110
0000
0000
0001
0000
1000
0000
0010
0000
1000
0000
0001
0000
,  // measure 30
0100
0000
0000
0010
1000
0000
0010
1000
0000
0000
0100
0001
0100
0000
0010
0000
,  // measure 31
0200
0000
0302
0000
0023
0000
1030
0100
,  // measure 32
0001
0010
0001
0010
0001
0010
0001
0100
,  // measure 33
1000
0010
1000
0010
1000
0010
1000
0100
,  // measure 34
1000
0000
0000
0001
1000
0000
0010
0000
0100
0000
0000
0010
0100
0000
0010
0000
,  // measure 35
2000
0000
0002
3003
,  // measure 36
0010
0000
0000
0000
0010
0000
0000
1000
0001
0000
1000
0000
0010
0000
0100
0000
,  // measure 37
0010
0000
0000
0000
0100
0000
0000
0001
0100
0000
0010
0000
0100
0000
0001
0000
,  // measure 38
1000
0000
0000
0000
0001
0000
0000
1000
0001
0000
1000
0000
0100
0000
0010
0000
,  // measure 39
0001
0000
0000
0100
0010
0000
0100
0000
0010
0000
0000
1000
0001
0000
1000
0000
,  // measure 40
0100
0000
0000
0000
1001
0000
1000
0001
0000
0000
0100
0000
0010
0200
0000
0000
,  // measure 41
0301
0000
0000
0000
1001
0000
0000
0001
0100
0000
0000
0010
0000
0000
1000
0000
,  // measure 42
0001
0000
0000
0002
0010
0000
0000
0023
0100
0000
0000
0130
0000
0000
0001
0000
,  // measure 43
1001
0000
0000
1001
0000
0000
0100
0000
0001
0000
1000
0000
0001
1000
0001
1000
,  // measure 44
0001
0000
0100
0000
0010
0000
1000
0100
0000
0000
1000
0000
0010
0000
0100
0000
,  // measure 45
0001
0000
0010
0000
0001
0000
0100
0010
0000
0000
1000
0000
0001
0000
0100
0000
,  // measure 46
0001
0000
0000
0000
1001
0000
0000
0001
0100
0000
0010
0000
0010
0000
0100
0000
,  // measure 47
0002
0000
0000
0100
0000
0000
0103
0000
0010
0000
1000
0000
0100
0000
1000
0000
,  // measure 48
1001
0000
0000
0000
0010
0000
0100
0010
0000
0000
0100
0000
0001
0000
0100
0000
,  // measure 49
0010
0000
0000
0020
1000
0000
0000
2030
0100
0000
0000
3200
0001
0000
0000
0301
,  // measure 50
0020
0000
0001
0000
0130
0000
0001
0100
,  // measure 51
1001
0000
0110
0000
1000
0100
0010
0001
,  // measure 52
0100
0000
0000
0001
0100
0000
0010
0000
0100
0000
0000
0001
1000
0000
0001
0000
,  // measure 53
0100
0000
0000
0010
1000
0000
0010
0000
0100
0000
0001
0000
0100
0000
0010
0000
,  // measure 54
1000
0000
0000
0100
1000
0000
0001
0000
1000
0000
0000
0100
0001
0000
1000
0000
,  // measure 55
0001
0000
0000
1000
0010
0000
0100
0000
0010
0000
1000
0000
1001
0000
0000
0000
,  // measure 56
1100
0000
0000
0001
0100
0000
0010
0000
0010
0000
0000
1000
0010
0000
0100
0000
,  // measure 57
0100
0000
0000
0001
1000
0000
0010
0000
0010
0000
0000
1000
0001
0000
0100
0000
,  // measure 58
0220
0000
0000
0330
,  // measure 59
0001
0000
1000
0000
0100
0000
1000
0001
0100
0000
0010
0000
1000
0010
0000
0100
,  // measure 60
0001
0100
0010
1000
0001
0010
0100
1000
,  // measure 61
0010
0000
0000
0000
1001
0000
0000
1100
0000
0000
0202
0000
0000
0000
0000
0000
,  // measure 62
0000
0303
2002
0000
,  // measure 63
0000
0000
0000
0000
,  // measure 64
0000
0000
3003
0000
;

//---------------dance-single - ----------------
#NOTES:
     dance-single:
     :
     Medium:
     8:
     0.356991,0.411177,0.314492,0.203995,0.008500,294.000000,257.000000,37.000000,24.000000,0.000000,0.000000,0.356991,0.411177,0.314492,0.203995,0.008500,294.000000,257.000000,37.000000,24.000000,0.000000,0.000000:
0000
0000
0000
0000
,
0000
0000
0000
0000
,
0000
0000
0000
0000
,
0000
0000
0000
0000
,
0020
0000
0000
0000
0030
0001
1000
0001
,
1000
0000
0000
1000
0000
0000
0001
0000
0200
0000
0000
0000
0300
0000
0000
0000
,
0001
1000
0001
0100
,
0020
0000
0000
0200
0000
0000
0330
0000
,
1000
0000
0001
0000
0100
0010
0100
0000
,
0001
0000
1000
0000
0010
0100
0010
0000
,
1000
0000
0001
0000
0001
0000
0010
1000
,
0010
0100
2002
3003
,
1000
0000
0001
1000
0001
0000
1000
0001
,
0100
0110
1000
1001
,
0001
0000
0100
0001
0100
0000
1000
0010
,
1000
1100
0010
0011
,
0010
0000
0100
1000
0010
0000
0001
0100
,
0010
0110
0001
0110
,
0001
0000
0010
1000
0100
0000
0010
0100
,
0001
0000
0010
1000
0100
0000
0001
0000
,
0010
0000
0100
0000
0010
0000
0001
1000
,
0001
0100
0001
1001
,
0001
0000
1000
0001
0100
0000
0001
0000
,
0010
0000
0010
0100
0000
0000
0110
0000
,
1000
0000
0001
0100
0010
0000
0010
0000
,
0001
0000
1000
0000
0001
1000
0100
0000
,
0000
0000
1000
0001
0100
0000
0010
0000
,
1001
0000
0010
0100
0010
0000
0000
0000
,
0010
0000
0001
1000
0001
0000
0100
0000
,
0010
0000
1000
0001
1000
0000
0100
0000
,
1000
0000
0010
0000
0001
0100
0001
0000
,
0100
0000
0010
0000
1000
0000
0001
0100
,
0001
0000
0001
0010
0001
0000
0010
0000
,
1000
0000
0010
1000
0010
0000
1000
0100
,
2000
0000
3000
0010
0100
0000
1001
0000
,
0200
0000
0020
0330
,
0010
0000
0010
0000
1001
0000
0010
0100
,
0010
0000
1001
0000
0110
0000
0100
0001
,
1000
0000
0001
0000
0001
1000
0001
0010
,
0002
0000
0000
0023
0000
0000
0030
0000
,
0100
0000
1001
0000
0001
0100
0010
0000
,
0100
0000
0001
0000
1001
0000
0000
1000
,
0001
0101
1000
1100
,
0001
0000
0001
0100
0001
0000
1001
0000
,
0100
0000
0100
0000
1001
0000
0010
0100
,
0001
0000
1000
0000
1001
0000
0001
1000
,
0001
0100
0010
1001
,
0002
0000
0013
0101
,
0001
0000
1001
0000
0010
0100
0001
0000
,
0010
0020
0230
0302
,
2003
0000
0000
0000
3000
0000
0001
0100
,
0001
0010
2002
3003
,
0100
0000
0000
0010
0100
0000
0000
0001
,
0100
0010
0110
1001
,
1000
0000
0000
0001
1000
0000
0000
1000
,
0001
0110
1010
1001
,
0100
0000
1000
0010
1000
0000
0001
0100
,
0001
0000
0100
0010
0100
0000
0001
1000
,
0002
0003
2000
3000
,
0001
0100
0010
1000
,
1001
1001
0110
0110
,
1001
0000
0000
0000
0010
0000
0000
0100
0000
0000
2002
0000
0000
0000
0000
0000
,
0000
3003
2002
0000
,
0000
0000
0000
0000
,
0000
0000
3003
0000
;

//---------------dance-single - ----------------
#NOTES:
     dance-single:
     :
     Easy:
     5:
     0.227066,0.274118,0.127497,0.297493,0.000000,187.000000,172.000000,15.000000,35.000000,0.000000,0.000000,0.227066,0.274118,0.127497,0.297493,0.000000,187.000000,172.000000,15.000000,35.000000,0.000000,0.000000:
0000
0000
0000
0000
,
0000
0000
0000
0000
,
0000
0000
0000
0000
,
0000
0000
0000
0000
,
0020
0000
0030
0000
,
0002
0003
2000
3000
,
0001
1000
0001
1000
,
0020
0000
0000
0030
,
1000
0000
0001
0000
,
1000
0001
1000
0000
,
0001
0100
0010
0000
,
1000
0010
0100
0000
,
1000
0001
1000
0001
,
1000
1000
0001
0001
,
1000
0001
0100
0100
,
1000
0001
2002
3003
,
0001
1000
0001
1000
,
0001
0001
1000
1000
,
0001
1000
0010
0010
,
1000
0001
2002
3003
,
0010
0000
0010
0000
,
0001
0000
0001
0000
,
1000
0000
1000
0000
,
0100
0010
0100
0000
,
1000
0001
1000
0000
,
0001
1000
0001
0000
,
1000
0000
0001
0000
,
0100
0010
0100
0000
,
0010
0001
0100
0000
,
0010
1000
0100
0000
,
1000
0010
0001
0000
,
0001
0100
1000
0000
,
0001
0001
0001
0000
,
1000
1000
1000
0000
,
2002
3003
0010
0100
,
2002
0000
3003
0000
,
0010
0010
0010
0001
,
0001
1000
1000
0000
,
0001
0100
1000
0000
,
0001
0010
0100
1000
,
0010
0010
0010
1000
,
1000
0001
0001
0000
,
1000
0001
0010
0100
,
1000
0001
2002
3003
,
0100
0100
0100
0001
,
0001
0010
0010
0000
,
1000
0100
0001
0000
,
1000
0100
0010
0001
,
0100
0100
0100
0001
,
1000
1000
0001
0001
,
0200
0000
0300
0000
,
0001
0010
0100
1000
,
2002
3003
0220
0330
,
0001
0010
0100
0000
,
2002
3003
0220
0330
,
1000
0100
0010
0000
,
0220
0330
2002
3003
,
1000
0100
0010
0001
,
2002
0000
0000
3003
,
0010
0010
1000
0001
,
2002
0000
0000
3003
,
0010
0000
0010
0000
0000
2002
0000
0000
,
0000
3003
2002
0000
,
0000
0000
0000
0000
,
0000
0000
3003
0000
;

//---------------dance-single - ----------------
#NOTES:
     dance-single:
     :
     Beginner:
     2:
     0.118997,0.191883,0.050999,0.110497,0.000000,98.000000,92.000000,6.000000,13.000000,0.000000,0.000000,0.118997,0.191883,0.050999,0.110497,0.000000,98.000000,92.000000,6.000000,13.000000,0.000000,0.000000:
0000
0000
0000
0000
,
0000
0000
0000
0000
,
0000
0000
0000
0000
,
0000
0000
0000
0000
,
0020
0000
0030
0000
,
0001
0000
1000
0000
,
0001
0000
1000
0000
,
0020
0000
0030
0000
,
1000
0000
0000
0000
,
0001
0000
0000
0000
,
1000
0000
1000
0000
,
1000
0000
0000
0000
,
0001
0000
0000
0000
,
1000
0000
0000
0000
,
0001
0000
0000
0000
,
1000
0000
0000
0000
,
0010
0000
0000
0000
,
0100
0000
0000
0000
,
0010
0000
0000
0000
,
0100
0000
0000
0000
,
0001
0000
0000
0000
,
0001
0000
0000
0000
,
1000
0000
0000
0000
,
1000
0000
0000
0000
,
0001
0000
0001
0000
,
0001
0000
0000
0000
,
1000
0000
1000
0000
,
1000
0000
0000
0000
,
0010
0000
0010
0000
,
0010
0000
0000
0000
,
0100
0000
0100
0000
,
0100
0000
0000
0000
,
0001
0000
0001
0000
,
1000
0000
1000
0000
,
0010
0000
0010
0000
,
0100
0000
0000
0000
,
0010
0010
0000
0001
,
0000
1000
0000
0001
,
0000
1000
0000
0001
,
0000
0010
0010
0000
,
0100
0100
0000
1000
,
0000
0001
0000
1000
,
0000
0001
0000
0100
,
0100
0000
0100
0000
,
0010
0010
0000
0001
,
0000
1000
0000
0001
,
0000
0100
0000
1000
,
1000
0000
1001
0000
,
0100
0100
0000
0001
,
0000
1000
0000
0001
,
0002
0000
0003
0000
,
0010
0000
0100
0000
,
2002
0000
0000
0000
,
0000
0000
0000
3003
,
0010
0000
0010
0000
,
1000
0000
0001
0000
,
0100
0000
0100
0000
,
1000
0000
0001
0000
,
2002
0000
3003
0000
,
0010
0000
0100
0000
,
2002
0000
0000
3003
,
0000
0000
0000
0000
0000
2002
0000
0000
,
0000
3003
2002
0000
,
0000
0000
0000
0000
,
0000
0000
3003
0000
;

//---------------dance-single - ----------------
#NOTES:
     dance-single:
     :
     Challenge:
     14:
     0.618056,0.740119,0.535487,0.407990,0.335742,509.000000,446.000000,63.000000,48.000000,0.000000,0.000000,0.618056,0.740119,0.535487,0.407990,0.335742,509.000000,446.000000,63.000000,48.000000,0.000000,0.000000:
0000
0000
0000
0000
,
0000
0000
0000
0000
,
0000
0000
0000
0000
,
0000
0000
0000
0000
,
0102
0000
0000
0100
0000
0000
0100
0000
0000
0000
1003
0000
0010
0000
0100
0000
,
0012
0000
0000
0010
0000
0000
0013
0000
0002
0000
0000
0000
0103
0000
0010
0000
,
1000
0001
0101
0000
0010
1000
1100
0000
,
0012
0000
0000
0100
0000
0000
0200
0000
0000
0000
0303
0000
1001
0000
0000
0000
,
1010
0000
0010
0000
0110
0000
0010
1000
0100
0000
1000
0000
1001
0000
0001
0000
,
0101
0000
0100
0010
1000
0000
0010
0000
0110
0000
0110
0000
0101
0000
1000
0000
,
0020
0100
0130
0000
0002
0010
0013
0000
,
0101
0000
0000
1010
0000
0000
0110
0000
1000
0100
0010
0001
0100
0000
0010
0000
,
1000
0000
0001
0100
0001
0000
1000
0000
0010
0000
0100
0001
0100
0000
0010
0000
,
2000
3100
0200
1300
2000
3020
0230
0301
,
0010
0000
0001
0100
0001
0000
0010
0000
1000
0000
0001
0100
0001
0000
1000
0000
,
0010
0000
0100
0001
0100
0000
0010
0000
1000
0100
0010
0001
0000
0100
0010
0000
,
2000
0001
3001
0100
0002
0010
0013
0100
,
0020
1030
0002
0103
0020
2030
3002
0103
,
0020
0000
0000
0000
1000
0000
0000
0000
0130
0000
0000
0000
1000
0001
0100
0000
,
0020
0000
0000
0000
1030
0000
0001
0100
0002
0000
0000
0000
2003
0000
0000
0000
,
3020
0000
0100
0100
0100
0000
1000
1000
,
1030
0000
0101
0000
1000
0100
0010
0001
,
0100
0000
0001
0100
1100
0000
0101
0000
,
0100
0000
0010
0000
1000
0000
0001
0000
0000
0000
1000
0010
1000
0010
1000
0000
,
0001
0000
0100
0010
0100
0000
0001
1000
0001
0000
1000
0000
0010
0000
0100
0000
,
0001
0000
1000
0100
1000
0000
0001
0010
0001
0000
1000
0000
0010
0000
0100
0000
,
0001
1000
1100
0000
0101
0000
0010
0100
,
0101
0000
0000
0001
0000
0000
1000
0000
0010
0000
0100
0000
0001
0100
0010
0000
,
1000
0000
0000
0001
0000
0000
0100
0000
0010
0000
0010
0000
1010
0000
0010
0000
,
0100
0000
0000
0001
0000
0000
1000
0000
0001
0000
0001
0000
0011
0000
0001
0000
,
0200
0000
0000
0000
0310
0000
1000
0002
0000
0000
0103
0000
0010
0000
1000
0000
,
0202
0303
2002
3003
0220
0330
1000
0010
,
0100
0100
0001
0001
1000
1000
0010
0010
,
1000
0000
0000
0010
0000
0000
0100
0000
0001
0000
0001
0000
1001
0000
0000
0000
,
0100
0000
0001
0010
0001
0000
0100
0000
0010
0000
1000
0100
1000
0000
0010
0000
,
2001
3100
0102
1003
,
0220
0000
0330
0000
0101
0000
0000
0101
0000
0000
1000
0000
0100
0010
0001
0000
,
1000
0000
1000
0000
1001
0000
0000
0020
0000
0000
0000
0000
0130
0000
0000
0000
,
0101
0000
0001
0000
1001
0000
0000
0010
1000
0000
0100
0000
0010
0000
0001
0000
,
0200
0010
0310
2000
0100
3010
0001
0100
,
0020
0000
0000
0000
1030
0000
0001
0100
0000
0000
0010
0000
1000
0100
0000
0000
,
0011
0000
0000
0000
1100
0000
0000
0001
0100
0000
0000
1000
0001
0000
1000
0000
,
0101
0000
0000
0001
0010
0000
0000
0010
0100
0000
0000
0101
0000
0000
1100
0000
,
0010
0000
0100
0001
1000
0000
0010
0000
1000
0000
0100
0000
0010
0001
0100
0001
,
0010
0000
0001
0000
1000
0100
0000
1000
0000
0000
0001
0000
1000
0010
0100
0000
,
0001
0000
0001
0000
1000
0010
0000
0010
0000
0000
1000
0000
0101
0000
0000
0000
,
1001
0000
0000
0000
0110
0000
0000
0001
0010
0000
0100
0000
0001
0000
0100
0000
,
0010
0010
1000
0002
0000
0100
0103
0000
,
0010
0000
1000
0000
0001
0000
1000
0001
0000
0000
1000
0000
0010
0000
0100
0000
,
0001
0010
0011
0000
1000
0100
1100
0000
,
0020
0000
1000
0000
0130
0000
1000
0001
,
0101
0000
1100
0000
0110
0110
0110
0000
,
0001
0000
0100
0010
0100
0000
0001
0000
1000
0000
0001
0100
0001
0000
1000
0000
,
0010
0000
0100
0001
0100
0000
0010
1000
0010
0000
0100
0000
0001
0000
1000
0000
,
0010
0000
0100
0010
0100
0000
0001
0000
1000
0000
0100
1000
0100
0000
1000
0000
,
0001
0000
0010
0001
0100
0000
0010
0000
1000
0000
0001
0100
0000
0000
0001
0000
,
1000
0000
0000
0010
1000
0000
0101
0000
1001
0000
0000
0010
0001
0000
1001
0000
,
1100
0000
0000
0010
0100
0000
0110
0000
1020
0000
1030
0000
0201
0000
0301
0000
,
0010
0000
0010
0000
0010
0000
0010
0000
1000
0100
0010
0000
0100
0010
0001
0000
,
1001
0000
1001
0000
1000
0000
0010
0100
0000
0100
0001
0000
1000
0001
0000
0001
,
0010
0001
0010
0000
0100
1000
0100
0000
0010
0001
0010
0001
1000
0100
1000
0100
,
0010
0001
1000
0100
0010
0000
0000
0011
0000
0000
2200
0000
0000
0000
0000
0000
,
0000
3300
0000
0000
2002
0000
0000
0000
,
0000
0000
0000
0000
,
0000
0000
3003
0000
;
