#TITLE:Better Than You;
#SUBTITLE:;
#ARTIST:Miles Luna & Evan Gregory;
#TITLETRANSLIT:;
#SUBTITLETRANSLIT:;
#ARTISTTRANSLIT:;
#GENRE:;
#CREDIT:;
#MENUCOLOR:;
#METERTYPE:DDR;
#BANNER:Better Than You.png;
#BACKGROUND:Better Than You-bg.png;
#LYRICSPATH:;
#CDTITLE:;
#MUSIC:Better Than You.ogg;
#OFFSET:0.000;
#SAMPLESTART:17.486;
#SAMPLELENGTH:15.000;
#SELECTABLE:YES;
#LISTSORT:;
#DISPLAYBPM:256.000;
#BPMS:0.000=80.000,16.000=90.000,20.750=256.000,32.000=250.000,204.000=251.600,236.000=254.900,240.000=250.000,256.000=256.000,272.000=253.760,317.000=255.180,332.000=253.180,333.000=254.420,337.000=244.000,340.000=240.000,344.000=245.000,353.000=250.220;
#STOPS:;
#BGCHANGES:0.000=Better Than You.avi=1.000=1=1=0,
379.000=Better Than You.avi=0.000=0=0=1,
99999=-nosongbg-=1.000=0=0=0 // don't automatically add -songbackground-
;
#ATTACKS:;

//---------------dance-single - ----------------
#NOTES:
     dance-single:
     :
     Hard:
     13:
     0.627,0.682,0.137,0.518,0.367: // measure 1
0000
0000
0000
0000
,  // measure 2
0000
0000
0000
0000
,  // measure 3
0000
0000
0000
0000
,  // measure 4
0000
0000
0000
0000
,  // measure 5
0000
0000
0000
0000
,  // measure 6
0000
0000
0000
0000
,  // measure 7
0000
0000
0000
0000
,  // measure 8
0000
0000
0000
0000
,  // measure 9
0001
0100
1000
0100
,  // measure 10
0001
0000
0000
0001
0000
1000
0000
0000
1000
0001
0000
0000
,  // measure 11
1000
0000
0000
0100
0000
0001
0000
0000
0001
0100
0000
0000
,  // measure 12
0010
0100
0000
0001
,  // measure 13
1000
0100
1000
0001
,  // measure 14
0100
0000
0000
0010
0000
0100
0000
0000
0100
0010
0000
0000
,  // measure 15
1000
0000
0000
0001
0000
0100
0000
0000
0100
0001
0000
0000
,  // measure 16
1000
0000
0000
0001
0000
0000
0000
0000
0000
0000
0000
0010
,  // measure 17
0100
0000
0000
0001
0000
0000
2002
0000
0000
3003
0000
1000
,  // measure 18
0010
0000
0000
0100
0000
0000
0220
0000
0000
0330
0000
1000
,  // measure 19
0010
0100
0001
0100
,  // measure 20
0010
1000
0001
1001
,  // measure 21
0000
2200
3300
0001
,  // measure 22
0200
0000
0000
0310
0000
0000
0001
0000
0100
0001
0000
0000
,  // measure 23
2000
0002
0000
3003
,  // measure 24
0110
0000
0000
0000
0000
0000
0000
0000
1000
0001
0000
0000
,  // measure 25
0200
0000
0000
0320
0000
0000
1030
0000
,  // measure 26
0020
0000
0000
0230
0000
0000
0301
0000
,  // measure 27
2000
0000
0000
3002
0000
0000
0103
0000
,  // measure 28
0110
0000
0000
1000
,  // measure 29
0001
0000
0000
0100
0000
0000
0100
0000
0010
0100
0000
0000
,  // measure 30
0001
0000
0000
1000
0000
0000
1000
0000
0100
1000
0000
0000
,  // measure 31
0010
0000
0000
0100
0000
0001
0000
0000
0100
0001
0000
0000
,  // measure 32
1000
0000
0000
0001
0000
1000
0000
0000
0001
1000
0000
0000
,  // measure 33
0010
0000
0000
0010
0000
0000
1000
0000
0010
1000
0000
0000
,  // measure 34
0001
0000
0000
0001
0000
0000
0100
0000
0001
0100
0000
0000
,  // measure 35
0010
0000
0000
0100
0000
0010
0000
0000
0010
0100
0000
0000
,  // measure 36
0010
0000
0000
1000
0000
0010
0000
0000
0010
1000
0000
0000
,  // measure 37
0100
0000
0000
1000
0000
0001
0000
0000
0001
0100
0000
0001
,  // measure 38
0100
0000
0000
0010
0000
1000
0000
0000
1000
0010
0000
1000
,  // measure 39
0010
0000
0000
0010
0000
1000
0000
0000
1000
0001
0000
0000
,  // measure 40
1000
0000
0000
0010
0000
0100
0000
0000
0100
0001
0000
0000
,  // measure 41
1000
0001
0100
0010
,  // measure 42
1000
0100
0010
0001
,  // measure 43
0200
0000
0000
0300
,  // measure 44
0010
0000
0000
1000
0000
0001
0000
0000
1000
0001
0000
1000
,  // measure 45
0001
1000
0100
1000
,  // measure 46
0001
0000
0000
0100
0000
0000
0001
0000
0100
0001
0000
0100
,  // measure 47
0002
0013
0020
0130
,  // measure 48
0200
1300
2000
3010
,  // measure 49
0100
0000
0000
0001
0000
0100
0000
0000
0001
0100
0000
0001
,  // measure 50
0100
0000
0000
0010
0000
1000
0000
0000
0010
1000
0000
0010
,  // measure 51
0200
0301
0200
1300
,  // measure 52
0200
0301
0020
1030
,  // measure 53
0200
0000
0000
0301
0000
1000
0001
0000
1000
0001
0000
0000
,  // measure 54
0200
0000
0000
0301
0000
1000
0001
0000
1000
0010
0000
0000
,  // measure 55
0200
0301
2000
3001
,  // measure 56
2000
3010
0200
0310
,  // measure 57
1000
0202
0303
0010
,  // measure 58
1000
0000
0000
0100
0000
0000
0010
0000
0001
0100
0000
0000
,  // measure 59
0020
1000
1030
1000
,  // measure 60
2002
3003
0000
0010
,  // measure 61
1000
0010
1000
0010
1000
0000
0010
0000
,  // measure 62
0001
0100
0001
0100
0001
0000
0100
0000
,  // measure 63
0010
1000
0001
0100
,  // measure 64
0110
0000
0000
0010
0000
0100
0000
0000
0010
0100
0000
0000
,  // measure 65
0001
0100
0001
0100
,  // measure 66
0010
0000
0000
1000
0000
0010
0000
0000
1000
0010
0000
0000
,  // measure 67
0100
0000
0000
0001
0000
0100
0000
0000
0001
0100
0000
0001
,  // measure 68
0100
0000
0000
0010
0000
1000
0000
0000
0010
1000
0000
0010
,  // measure 69
0100
0001
0100
0010
,  // measure 70
1000
0000
0000
0010
0000
1000
0000
0000
0010
1000
0000
0010
,  // measure 71
0100
0000
0000
0010
0000
0100
0000
0000
0010
0100
0000
0001
,  // measure 72
0100
0010
1000
0100
,  // measure 73
0001
0100
0001
0100
0001
0000
1000
0000
,  // measure 74
0010
0100
0010
0100
0010
0000
1000
0000
,  // measure 75
0001
0100
0001
0000
1000
0010
1000
0000
,  // measure 76
0001
0010
0001
0000
1000
0010
1000
0000
,  // measure 77
0001
0220
0330
1000
,  // measure 78
0101
0000
0000
0100
1000
0100
1000
0000
,  // measure 79
0020
0000
0200
0000
0330
0000
1000
0001
,  // measure 80
1000
0000
0001
0000
0100
0010
0100
0010
,  // measure 81
0100
0202
0303
0010
,  // measure 82
2200
0000
3300
0001
0100
0001
0100
0000
,  // measure 83
0020
0200
0330
1000
,  // measure 84
0001
0100
0001
0100
0002
0000
1003
0000
,  // measure 85
0020
0000
0000
0230
0000
0000
0301
0000
,  // measure 86
0200
0000
0000
0320
0000
0000
1030
0000
,  // measure 87
0002
0000
0023
0000
,  // measure 88
0230
0000
0000
1000
0000
0000
1300
0000
,  // measure 89
0001
0000
0000
0100
0000
0001
0000
0000
0100
0001
0000
0000
,  // measure 90
1000
0000
0000
0010
0000
1000
0000
0000
0010
1000
0000
0000
,  // measure 91
0010
0000
0000
0100
0000
0010
0000
0000
0100
0010
0000
0000
,  // measure 92
1000
0000
0000
0001
0000
1000
0000
0000
0001
1000
0000
0000
,  // measure 93
0010
0100
0010
0100
0010
0100
0010
0000
,  // measure 94
1001
0000
0000
0000
;

//---------------dance-solo - ----------------
#NOTES:
     dance-solo:
     :
     Challenge:
     1:
     0.008,0.282,0.010,0.000,0.000:
000000
000000
000000
000000
,
000000
000000
000000
000000
,
000000
000000
000000
000000
,
000000
000000
000000
000000
,
000000
000000
000000
000000
,
000000
000000
000000
000000
,
000000
000000
000000
000000
,
000000
000000
000000
000000
,
000000
000000
000000
000000
,
000000
000000
000000
000000
,
000000
000000
000000
000000
,
000000
000000
000000
000000
,
000000
000000
000000
000000
,
000000
000000
000000
000000
,
000000
000000
000000
000000
,
000000
000000
000000
000000
,
000000
000000
000000
000000
,
000000
000000
000000
000000
,
000000
000000
000000
000000
,
000000
000000
000000
000000
,
000000
000000
000000
000000
,
000000
000000
000000
000000
,
000000
000000
000000
000000
,
000000
000000
000000
000000
,
000000
000000
000000
000000
,
000000
000000
000000
000000
,
000000
000000
000000
000000
,
000000
000000
000000
000000
,
000000
000000
000000
000000
,
000000
000000
000000
000000
,
000000
000000
000000
000000
,
000000
000000
000000
000000
,
000000
000000
000000
000000
,
000000
000000
000000
000000
,
000000
000000
000000
000000
,
000000
000000
000000
000000
,
000000
000000
000000
000000
,
000000
000000
000000
000000
,
000000
000000
000000
000000
,
000000
000000
000000
000000
,
000000
000000
000000
000000
,
000000
000000
000000
000000
,
000000
000000
000000
000000
,
000000
000000
000000
000000
,
000000
000000
000000
000000
,
000000
000000
000000
000000
,
000000
000000
000000
000000
,
000000
000000
000000
000000
,
000000
000000
000000
000000
,
000000
000000
000000
000000
,
000000
000000
000000
000000
,
000000
000000
000000
000000
,
000000
000000
000000
000000
,
000000
000000
000000
000000
,
000000
000000
000000
000000
,
000000
000000
000000
000000
,
000000
000000
000000
000000
,
000000
000000
000000
000000
,
000000
000000
000000
000000
,
000000
000000
000000
000000
,
000000
000000
000000
000000
,
000000
000000
000000
000000
,
000000
000000
000000
000000
,
000000
000000
000000
000000
,
000000
000000
000000
000000
,
000000
000000
000000
000000
,
000000
000000
000000
000000
,
000000
000000
000000
000000
,
000000
000000
000000
000000
,
000000
000000
000000
000000
,
000000
000000
000000
000000
,
000000
000000
000000
000000
,
000000
000000
000000
000000
,
000000
000000
000000
000000
,
000000
000000
000000
000000
,
000000
000000
000000
000000
,
000000
000000
000000
000000
,
000000
000000
000000
000000
,
000000
000000
000000
000000
,
000000
000000
000000
000000
,
000000
000000
000000
000000
,
000000
000000
000000
000000
,
000000
000000
000000
000000
,
000000
000000
000000
000000
,
000000
000000
000000
000000
,
000000
000000
000000
000000
,
000000
000000
000000
000000
,
000000
000000
000000
000000
,
000000
000000
000000
000000
,
000000
000000
000000
000000
,
000000
000000
000000
000000
,
000000
000000
000000
000000
,
000000
000000
000000
000000
,
000000
000000
000000
000000
,
000000
000000
000000
000000
,
000000
000000
000000
000000
,
111111
000000
000000
000000
;

//---------------dance-double - ----------------
#NOTES:
     dance-double:
     :
     Hard:
     12:
     0.517,0.591,0.098,0.411,0.220:
00000000
00000000
00000000
00000000
,
00000000
00000000
00000000
00000000
,
00000000
00000000
00000000
00000000
,
00000000
00000000
00000000
00000000
,
00000000
00000000
00000000
00000000
,
00000000
00000000
00000000
00000000
,
00000000
00000000
00000000
00000000
,
00000000
00000000
00000000
00000000
,
00100000
10000000
01000000
00000000
,
00100000
00010000
00001000
00000000
,
00000100
00000000
00000000
00001000
00000000
00000000
00000010
00000000
00000000
00000001
00000000
00000100
,
00000001
00000100
00000000
00000010
,
00001000
00000100
00010000
00000000
,
00001000
00010000
01000000
00000000
,
10000000
00000000
00000000
01000000
00000000
00000000
00100000
00000000
10000000
00100000
00000000
10000000
,
00100000
00000000
00000000
01000000
00000000
00000000
00000000
00000000
00000000
00000000
00000000
10000000
,
00010000
01000000
00002000
00003000
,
00010000
00000100
00002000
00003000
,
00000010
00001000
00000001
00001000
,
00000010
00000100
00000001
00001001
,
00000000
00002200
00003300
00010000
,
00200000
00000000
00000000
00300000
00000000
10000000
01000000
00000000
00000000
00100000
00000000
00000000
,
00020000
00000000
00000000
00000000
,
01030000
00000000
00000000
00000000
00000000
00000000
00000000
00000000
10000000
00010000
00000000
00000000
,
02000000
00000000
00000000
03200000
00000000
00000000
00300000
00000000
,
00020000
00000000
00000000
00032000
00000000
00000000
00003000
00000000
,
00000200
00000000
00000000
00000320
00000000
00000000
00000030
00000000
,
00000001
00000000
00000000
00000100
,
00010000
00001000
00010000
00000000
,
00010000
01000000
00010000
00000000
,
10000000
00000000
00000000
00100000
00000000
00000000
01000000
00000000
00100000
01000000
00000000
00000000
,
00100000
01000000
00000000
00000000
,
00010000
01000000
00001000
00000000
,
00001000
00010000
00000100
00000000
,
00000100
00000000
00000000
00001000
00000000
00000000
00000001
00000000
00000000
00001000
00000000
00000001
,
00001000
00000000
00000001
00000000
00000000
00000000
00000000
00000000
00000000
00000000
00000000
00000000
,
00000100
00000000
00000000
00001000
00000000
00000100
00000000
00000000
00000100
00010000
00000000
00000000
,
00001000
00000000
00000000
00001000
00000000
00100000
00000000
00000000
00100000
00001000
00000000
00000000
,
00001000
00000000
00000000
01000000
00000000
00010000
00000000
00000000
00010000
01000000
00000000
00000000
,
10000000
00000000
00000000
10000000
00000000
00100000
00000000
00000000
00100000
01000000
00000000
00000000
,
00000000
02200000
03300000
00010000
,
00000100
00010000
00001000
01000000
,
00020000
00000000
00000000
00000000
,
00030000
00000000
00000000
10000000
00000000
00010000
00000000
00000000
00010000
10000000
00000000
00010000
,
10000000
01000000
00100000
01000000
,
00001000
00010000
00000100
00001000
,
00000020
00000030
00000002
00000003
,
00000200
00000300
00002000
00003000
,
00000100
00010000
00001000
01000000
,
00010000
10000000
01000000
00100000
,
20000000
31000000
00200000
00310000
,
02000000
03010000
10000000
00010000
,
01000000
00001000
00010000
00000100
,
00001000
00000010
00000001
00000100
,
00000020
00001030
00002000
00003100
,
00000200
00010300
00002000
01003000
,
00000000
02200000
03300000
10000000
,
00010000
00000000
00000000
00100000
00000000
00000000
00001000
00000000
00000000
00010000
00000000
00000200
,
00000000
00000000
00000000
00000300
,
00000000
00000000
00000000
00000000
,
00001000
00000100
00001000
00000100
00001000
00000000
00000100
00000000
,
00010000
00001000
00010000
00001000
00010000
00000000
00001000
00000000
,
01000000
00100000
10000000
01000000
,
10010000
00000000
00000000
00100000
,
10000000
01000000
00100000
00010000
,
01000000
00000000
00000000
00100000
00000000
00010000
00000000
00000000
00000000
00001000
00000000
00000000
,
00000100
00000000
00000000
00001000
00000000
00000001
00000000
00000000
00001000
00000001
00000000
00001000
,
00000010
00001000
00000000
00010000
,
00001000
01000000
00100000
10000000
,
00010000
00000000
00000000
00100000
00000000
00010000
00000000
00000000
00000000
00001000
00000000
00000000
,
00000010
00000000
00000000
00001000
00000000
00000001
00000000
00000000
00001000
00000010
00000000
00001000
,
00000100
00001000
00000000
00000000
,
00000100
00001000
00000100
00001000
00000100
00000000
00010000
00000000
,
00001000
01000000
00001000
01000000
00001000
00000000
00100000
00000000
,
10000000
00010000
10000000
00010000
01000000
00000000
00001000
00000000
,
00010000
00000100
00010000
00000100
00010000
00000000
00000100
00000000
,
00001000
00002020
00003030
00000010
,
00000200
00000000
00000000
00000301
00000000
00000000
00000010
00000000
00000100
00000010
00000000
00000000
,
00002000
00000200
00003300
00000010
,
00001000
00000100
00010000
00001000
,
01000000
02200000
03300000
00010000
,
10000000
00000000
00000000
00010000
00000000
01000000
00010000
00000000
01000000
00010000
00000000
00000000
,
00200000
02000000
03300000
10000000
,
01000000
00100000
00020000
00030000
,
00001100
00000000
00000000
00001000
00000000
00000100
00000000
00000000
00001000
00000100
00000000
00000000
,
00000011
00000000
00000000
00000010
00000000
00000001
00000000
00000000
00000010
00000001
00000000
00000000
,
00002000
00000000
00003200
00000000
,
00020300
00000000
00000000
00000000
00000000
00001000
00000000
00000000
00000000
00031000
00000000
00000000
,
00001000
00000000
00000000
01000000
00000000
00001000
00000000
00000000
01000000
00100000
00000000
00000000
,
10000000
00000000
00000000
00100000
00000000
10000000
00000000
00000000
00010000
10000000
00000000
00000000
,
00010000
00000000
00000000
00100000
00000000
00001000
00000000
00000000
00100000
00001000
00000000
00000000
,
00010000
00000000
00000000
00000100
00000000
00010000
00000000
00000000
00000100
00001000
00000000
00000000
,
00000010
00000100
00000010
00000100
00000010
00000100
00000010
00000000
,
00001001
00000000
00000000
00000000
;

//---------------dance-double - ----------------
#NOTES:
     dance-double:
     :
     Medium:
     9:
     0.370,0.409,0.137,0.332,0.000:
00000000
00000000
00000000
00000000
,
00000000
00000000
00000000
00000000
,
00000000
00000000
00000000
00000000
,
00000000
00000000
00000000
00000000
,
00000000
00000000
00000000
00000000
,
00000000
00000000
00000000
00000000
,
00000000
00000000
00000000
00000000
,
00000000
00000000
00000000
00000000
,
01000000
00010000
01000000
00000000
,
00001000
00010000
00001000
00000000
,
00010000
00000100
00001000
00000010
,
00001000
00001001
00000000
00000000
,
00000010
00001000
00000100
00000000
,
00000100
00010000
00001000
00000000
,
00001000
01000000
00100000
00010000
,
01000000
10010000
00000000
00000000
,
10000000
10000000
11000000
00000000
,
00100000
00100000
00110000
00000000
,
00001000
00001000
00011000
00000000
,
00010000
00010000
00000100
00000100
,
00000000
00000020
00000000
00001030
,
00000100
00000000
00000001
00000010
,
00002000
00000000
00000000
00000000
,
00003010
00000000
00000000
00000100
,
00020000
00000000
00032000
00000000
,
02003000
00000000
03200000
00000000
,
10300000
01000000
00100000
00010000
,
10010000
00000000
00000000
00000000
,
10000000
01000000
00010000
00000000
,
00001000
00000100
00000001
00000000
,
00000001
00000010
00000100
00001000
,
00010000
00000000
00000000
00000000
,
00100000
00010000
01000000
00000000
,
00100000
00001000
00010000
00000000
,
00000100
00001000
00000100
00001000
,
00000010
00000000
00000000
00000000
,
00000002
00000000
00000103
00000000
,
00002000
00000000
00003100
00000000
,
00020000
00000000
00031000
00000000
,
02000000
00000000
03010000
00000000
,
10000000
02000000
00000000
13000000
,
00100000
00000000
00020000
00001000
,
00002000
00000000
00000000
00000000
,
00033000
00000000
00000000
00000010
,
00002000
00000000
00003002
00000000
,
00000013
00000100
00001000
00000000
,
00020000
00000000
02030000
00000000
,
03200000
00000000
20300000
00000000
,
30100000
00000000
01000000
00000000
,
00010000
00001000
00010000
00000000
,
00000200
00000000
00002300
00000000
,
00003020
00000000
00000130
00000000
,
00000001
00001000
00000100
00000000
,
00010000
00001000
01000000
00000000
,
00020000
00000000
00230000
00000000
,
02300000
00000000
23000000
00000000
,
30100000
01000000
00010000
00000000
,
00010000
00001000
00000100
00000000
,
00000020
00000000
00001000
00000000
,
00000130
00000000
00000000
00000001
,
00000200
00000000
00002300
00000000
,
00013000
01000000
00100000
00000000
,
10000000
00100000
01000000
00010000
,
10010000
00000000
00000000
00000000
,
00100000
10000000
01000000
00000000
,
00010000
00100000
00010000
00000000
,
00000100
00001000
00000010
00000100
,
00000001
00000001
00000000
00000000
,
00001000
00000100
00001000
00000000
,
00000010
00001000
00000100
00000000
,
00010000
00010000
00010000
00000000
,
01000000
00100000
00000000
00000000
,
10000000
01000000
00100000
00000000
,
00001000
00000100
00000010
00000000
,
00000001
00000010
00000100
00000000
,
00010000
00100000
01000000
10000000
,
00000000
01010000
00000000
10000000
,
00100000
00000000
00010000
00001000
,
00000100
00001000
00000100
00001000
,
00000010
00000100
00000010
00000100
,
00000000
00000101
00000000
00000010
,
00001000
00000000
00000100
00010000
,
00001000
01000000
00000000
01000000
,
00010000
00000000
10000000
00000000
,
00200000
00000000
00300000
00000000
,
02000000
00000000
03000000
00000000
,
20000000
00000000
30020000
00000000
,
00032000
00000000
00000000
00003010
,
00000100
00000000
00000000
00001001
00000000
00000000
00000000
00000000
,
00000010
00000000
00000000
00001001
00000000
00000000
00000000
00000000
,
00001000
00000000
00000000
00011000
00000000
00000000
00000000
00000000
,
00010000
00000000
00000000
00011000
00000000
00000000
00000000
00000000
,
01000000
00000000
00000000
00100000
00000000
00000000
01000000
00000000
,
10010000
00000000
00000000
00000000
;

//---------------dance-single - ----------------
#NOTES:
     dance-single:
     :
     Medium:
     9:
     0.367,0.409,0.147,0.469,0.005:
0000
0000
0000
0000
,
0000
0000
0000
0000
,
0000
0000
0000
0000
,
0000
0000
0000
0000
,
0000
0000
0000
0000
,
0000
0000
0000
0000
,
0000
0000
0000
0000
,
0000
0000
0000
0000
,
0010
0000
0001
0000
,
0100
0000
0000
0100
0000
0000
0000
0000
,
0010
0000
1000
0000
,
0001
0000
0000
1000
0000
0000
0000
0000
,
0100
0000
1000
0000
,
0010
0000
0000
0100
0000
0000
0000
0000
,
0010
0000
0010
0000
,
0100
0000
0000
0100
0000
0000
0000
0000
,
0001
0100
2000
3000
,
1000
0100
0002
0003
,
0010
1000
0200
0300
,
0010
0001
0200
0300
,
0000
2002
3003
0010
,
0100
0000
0001
0000
,
2002
0000
0000
0000
,
3003
0000
0000
0100
,
2000
3000
0020
0030
,
0200
0300
0002
0003
,
1000
0100
0010
0000
,
1001
0000
0000
0000
,
0020
0000
0030
0000
,
0200
0000
0300
0000
,
0001
0100
0001
0100
,
2000
0000
3000
0000
,
0020
0000
0030
0000
,
0200
0000
0300
0000
,
1000
0100
1000
0100
,
0002
0000
0003
0000
,
0010
1000
0100
0000
,
0010
0001
0100
0000
,
1000
0100
0001
0000
,
1000
0010
0001
0100
,
0000
1001
0000
0010
,
1000
0100
0010
0000
,
0002
0000
0000
0000
,
1003
0000
0000
0000
,
0000
0010
0000
0010
,
0001
0100
1000
0000
,
2000
0000
3002
0000
,
2003
0000
3002
0000
,
0003
0010
0000
1000
,
0100
0010
0001
0000
,
0200
0000
0320
0000
,
0230
0000
0300
0000
,
0000
0001
1000
0001
,
0100
0010
0100
0000
,
0002
0000
0203
0000
,
2300
0000
3200
0000
,
0300
1001
0000
0010
,
1000
0000
0010
0000
0100
0000
0001
0200
,
0000
0000
0000
0000
0000
0300
0000
0000
,
1001
0000
0000
0000
,
1000
0000
0000
1001
0000
0000
0000
0000
,
0001
0000
0000
1001
0000
0000
1000
0000
,
0010
0100
0001
0100
,
0110
0000
0000
0000
,
1000
1000
0001
0001
,
0100
0000
0000
0110
0000
0000
0000
0000
,
0001
0000
0000
1001
0000
0000
0100
0000
,
0100
0100
0000
0000
,
0001
0001
1000
1000
,
0010
0000
0000
0110
0000
0000
0000
0000
,
1000
0000
0000
1001
0000
0000
0100
0000
,
0100
0100
0000
0000
,
0010
1000
0200
0300
,
0010
0001
0200
0300
,
1000
0100
0002
0003
,
1000
0100
0010
0001
,
0000
2002
3003
0010
,
0100
0000
0001
0100
,
2000
0000
0001
0000
,
0010
0000
3100
0000
,
0001
0020
0030
0001
,
0100
0000
0010
1000
,
0002
0000
0100
0000
,
0010
0000
1003
0000
,
2000
0000
0000
0001
3000
0000
0000
0000
,
0002
0000
0000
1000
0003
0000
0000
0000
,
0200
0000
0320
0000
,
2030
0000
0000
0001
0000
0000
3000
0000
,
0002
0000
0000
0100
0000
0000
0103
0000
,
2000
0000
0000
0100
0000
0000
3100
0000
,
0020
0000
0000
0100
0000
0000
0130
0000
,
2000
0000
0000
0010
0000
0000
3010
0000
,
0100
0000
0000
0010
0000
0100
0000
0000
0000
0010
0000
0000
,
1001
0000
0000
0000
;

//---------------dance-double - ----------------
#NOTES:
     dance-double:
     :
     Easy:
     7:
     0.263,0.409,0.059,0.362,0.000:
00000000
00000000
00000000
00000000
,
00000000
00000000
00000000
00000000
,
00000000
00000000
00000000
00000000
,
00000000
00000000
00000000
00000000
,
00000000
00000000
00000000
00000000
,
00000000
00000000
00000000
00000000
,
00000000
00000000
00000000
00000000
,
00000000
00000000
00000000
00000000
,
00100000
00000000
00100000
00000000
,
10000000
00000000
00000000
00000000
,
00100000
00000000
00100000
00000000
,
00001000
00000000
00000000
00000000
,
00000010
00000000
00000010
00000000
,
00000001
00000000
00000000
00000000
,
00000010
00000000
00000010
00000000
,
00001000
00000000
00000000
00000000
,
01000000
00100000
01000000
00000000
,
10000000
00010000
10000000
00000000
,
01000000
00000000
00010000
00000000
,
00001000
00000000
00000100
00000000
,
00000000
00000001
00000000
00000100
,
00000100
00000000
00000010
00000000
,
00002000
00000000
00000000
00000000
,
00003000
00000000
00000000
00000000
,
00020000
00000000
00030000
00000000
,
20000000
00000000
30000000
00000000
,
00020000
00000000
00030000
00000000
,
10010000
00000000
00000000
00000000
,
10000000
00000000
10000000
00000000
,
20000000
00000000
30000000
00000000
,
00010000
00000000
00010000
00000000
,
00020000
00000000
00030000
00000000
,
00001000
00000000
00001000
00000000
,
00002000
00000000
00003000
00000000
,
00000001
00000000
00000001
00000000
,
00000002
00000000
00000003
00000000
,
00000010
00000000
00000100
00000000
,
00000010
00000000
00001000
00000000
,
00010000
00000000
00001000
00000000
,
00010000
00000000
00001000
00000000
,
00100000
00000000
00010000
00000000
,
01000000
00100000
01000000
00000000
,
20020000
00000000
00000000
00000000
,
30030000
00000000
00000000
00000000
,
00000000
00100000
00000000
10000000
,
00010000
00000000
00010000
00000000
,
20000000
00000000
30020000
00000000
,
20030000
00000000
30020000
00000000
,
00030000
00100000
00000000
00001000
,
00010000
00000000
00000100
00000000
,
00002000
00000000
00003002
00000000
,
00002003
00000000
00003000
00000000
,
00000000
00000010
00000000
00001000
,
00000100
00000000
00010000
00000000
,
00002000
00000000
00023000
00000000
,
00032000
00000000
00023000
00000000
,
00030000
00001000
00000000
00100000
,
00100000
00000000
01000000
00000000
,
20020000
00000000
00000000
00000000
,
30030000
00000000
00000000
00000000
,
10000000
00000000
10000000
00000000
,
00010000
00000000
00010000
00000000
,
00100000
01000000
00100000
01000000
,
00100000
00000000
00000000
00000000
,
10000000
00000000
01000000
00000000
,
00010000
00000000
00000000
00000000
,
00001000
00000000
00000100
00000000
,
00000001
00000000
00000000
00000000
,
00001000
00000000
01000000
00000000
,
00010000
00000000
00000000
00000000
,
00010000
00000000
00000100
00000000
,
00001000
00000000
00000000
00000000
,
00000010
00000001
00000010
00000000
,
00001000
00000100
00001000
00000000
,
00010000
00100000
00010000
00000000
,
01000000
10000000
01000000
00000000
,
00000000
10010000
00000000
10000000
,
01000000
00000000
00010000
00000000
,
00200000
00000000
00000000
00000000
,
00300000
00000000
00000000
00000000
,
00000000
00001000
00000000
00000010
,
00000100
00000000
00000001
00000000
,
00002002
00000000
00000000
00000000
,
00003003
00000000
00000010
00000000
,
00002000
00000000
00003000
00000000
,
00020000
00000000
00030000
00000000
,
20000000
00000000
32000000
00000000
,
03020000
00000000
00000000
00000000
,
00032000
00000000
00000000
00000000
,
00023000
00000000
00000000
00000000
,
00032000
00000000
00023000
00000000
,
00032000
00000000
00023000
00000000
,
00031000
00010000
00001000
00010000
,
00011000
00000000
00000000
00000000
;

//---------------dance-single - ----------------
#NOTES:
     dance-single:
     :
     Beginner:
     5:
     0.179,0.273,0.049,0.137,0.000:
0000
0000
0000
0000
,
0000
0000
0000
0000
,
0000
0000
0000
0000
,
0000
0000
0000
0000
,
0000
0000
0000
0000
,
0000
0000
0000
0000
,
0000
0000
0000
0000
,
0000
0000
0000
0000
,
0010
0000
0010
0000
,
0010
0000
0000
0000
,
0100
0000
0100
0000
,
0100
0000
0000
0000
,
0010
0000
0010
0000
,
0010
0000
0000
0000
,
0100
0000
0100
0000
,
0100
0000
0000
0000
,
0001
0000
0001
0000
,
1000
0000
1000
0000
,
0001
0000
0001
0000
,
1000
0000
1000
0000
,
0000
0000
0100
0000
,
0100
0000
0100
0000
,
0200
0000
0000
0000
,
0300
0000
0000
0000
,
0010
0000
0000
0000
,
0010
0000
0000
0000
,
0100
0000
0100
0000
,
0100
0000
0000
0000
,
0010
0000
0000
0000
,
0100
0000
0000
0000
,
0001
0000
0000
0000
,
1000
0000
0000
0000
,
0001
0000
0001
0000
,
0001
0000
0000
0000
,
1000
0000
1000
0000
,
1000
0000
0000
0000
,
0002
0000
0003
0000
,
2000
0000
3000
0000
,
0002
0000
0003
0000
,
2000
0000
3000
0000
,
0001
0000
1000
0000
,
0001
0000
1000
0000
,
0002
0000
0000
0000
,
0003
0000
0000
0000
,
0000
0000
1000
0000
,
1000
0000
1000
0000
,
0001
0000
0001
0000
,
0100
0000
0100
0000
,
0000
0000
0001
0000
,
0001
0000
0001
0000
,
1000
0000
1000
0000
,
0010
0000
0010
0000
,
0000
0000
0100
0000
,
0100
0000
0100
0000
,
0010
0000
0010
0000
,
0010
0000
0010
0000
,
0000
0000
1000
0000
,
0001
0000
1000
0000
,
0002
0000
0000
0000
,
0003
0000
0000
0000
,
2000
0000
3000
0000
,
0002
0000
0003
0000
,
1000
0000
1000
0000
,
1001
0000
0000
0000
,
0001
0000
0001
0000
,
0001
0000
0000
0000
,
1000
0000
1000
0000
,
1000
0000
0000
0000
,
0001
0000
0001
0000
,
0001
0000
0000
0000
,
1000
0000
1000
0000
,
1000
0000
0000
0000
,
1001
0000
0000
0000
,
1001
0000
0000
0000
,
1001
0000
0000
0000
,
1001
0000
0000
0000
,
0000
0010
0000
0000
,
0010
0000
0100
0000
,
0020
0000
0000
0000
,
0030
0000
0000
0000
,
0000
1000
0000
0000
,
0001
0000
1000
0000
,
0002
0000
0000
0000
,
0003
0000
0100
0000
,
0200
0000
0300
0000
,
0020
0000
0030
0000
,
0100
0000
0100
0000
,
0200
0000
0000
0000
,
0000
0000
0000
0000
,
0000
0000
0000
0000
,
0000
0000
0000
0000
,
0000
0000
0000
0000
,
0000
0000
0300
0000
,
0010
0000
0000
0000
;

//---------------dance-single - Copied from----------------
#NOTES:
     dance-single:
     Copied from:
     Easy:
     7:
     0.265,0.364,0.059,0.303,0.000:
0000
0000
0000
0000
,
0000
0000
0000
0000
,
0000
0000
0000
0000
,
0000
0000
0000
0000
,
0000
0000
0000
0000
,
0000
0000
0000
0000
,
0000
0000
0000
0000
,
0000
0000
0000
0000
,
0010
0100
0010
0000
,
0010
0000
0000
0000
,
0100
0010
0100
0000
,
0100
0000
0000
0000
,
0010
0100
0010
0000
,
0010
0000
0000
0000
,
0100
0010
0100
0000
,
0100
0000
0000
0000
,
0001
0000
0001
0000
,
1000
0000
1000
0000
,
0001
0000
0001
0000
,
1000
0000
1000
0000
,
0000
0100
0000
0100
,
0100
0000
0010
0000
,
0020
0000
0000
0000
,
0030
0000
0000
0000
,
0001
0000
0010
0000
,
0001
0000
0010
0000
,
0001
0000
0010
0000
,
0100
0000
0000
0000
,
2000
0000
3000
0000
,
0002
0000
0003
0000
,
1000
0000
0100
0000
,
0001
0000
0000
0000
,
0002
0000
0003
0000
,
2000
0000
3000
0000
,
0001
0000
0100
0000
,
1000
0000
0000
0000
,
0002
0000
0103
0000
,
2000
0000
3100
0000
,
0002
0000
0013
0000
,
2000
0000
3010
0000
,
0001
0000
1000
0000
,
0001
0000
1000
0000
,
2002
0000
0000
0000
,
3003
0000
0000
0000
,
0000
0001
0000
1000
,
0000
0001
1000
0000
,
0002
0003
2000
3000
,
0002
0003
2000
3000
,
0000
0010
0000
0100
,
0000
0010
0100
0000
,
0020
0030
0200
0300
,
0020
0000
0030
0000
,
0000
1000
0000
0001
,
0000
1000
0001
0000
,
0010
0000
0010
0000
,
0100
0000
0100
0000
,
0000
1001
0000
1000
,
0001
0000
1000
0001
,
2000
0000
0000
0000
,
3001
0000
0000
0000
,
2000
0000
3100
0000
,
0002
0000
0103
0000
,
1000
0001
1000
0001
,
1000
0000
0000
0000
,
0001
0000
0100
0000
,
0001
0100
0001
0000
,
1000
0000
0100
0000
,
2000
0000
3000
0000
,
0001
0000
0010
0000
,
0001
0010
0001
0000
,
1000
0000
0010
0000
,
1000
0000
0000
0000
,
1000
0001
1000
0000
,
0001
1000
0001
0000
,
0100
0010
0100
0000
,
0010
0100
0010
0000
,
0000
0110
0000
1000
,
0001
0000
0100
0000
,
0220
0000
0000
0000
,
0330
0000
0000
0000
,
0000
1001
0000
1000
,
0001
0000
1000
0000
,
2002
0000
0000
0000
,
3003
0000
0100
0000
,
2000
0000
3100
0000
,
0020
0000
0031
0000
,
0100
0000
0100
0000
,
0200
0000
0000
0000
,
0002
0003
0000
0000
,
2000
3000
0000
0000
,
0001
0000
0001
0000
,
1000
0000
1000
0000
,
0001
0000
1300
0000
,
0010
0000
0000
0000
;
