#TITLE:Beast Mode;
#SUBTITLE:;
#ARTIST:BEMANI Sound Team "TAG";
#TITLETRANSLIT:;
#SUBTITLETRANSLIT:;
#ARTISTTRANSLIT:;
#GENRE:;
#CREDIT:;
#MENUCOLOR:;
#METERTYPE:DDR;
#BANNER:Beast Mode.png;
#BACKGROUND:Beast Mode-bg.png;
#LYRICSPATH:;
#CDTITLE:./CDTITLES/Reflec beat colette.png;
#MUSIC:Beast Mode.ogg;
#OFFSET:-0.088;
#SAMPLESTART:61.635;
#SAMPLELENGTH:15.000;
#SELECTABLE:YES;
#LISTSORT:;
#DISPLAYBPM:195.000:390.000;
#BPMS:0.000=195.000,40.000=390.000,215.000=195.000,217.000=390.000,281.000=195.000,309.000=97.500,310.000=195.000,312.000=390.000,440.000=195.000,454.000=390.000,518.000=195.000,524.000=390.000,680.000=389.898;
#STOPS:201.000=0.155
,203.000=0.155
,205.000=0.155
,207.000=0.770
,209.000=0.155
,211.000=0.155
,213.000=0.155
,215.000=0.305
,440.000=0.305
,440.500=0.300
,441.000=0.305
,441.500=0.305
,442.000=0.160
,442.500=0.155
,443.000=0.310
,443.500=0.305
,444.000=0.310
,444.500=0.310
,447.000=0.310
,447.500=0.310
,448.000=0.310
,448.500=0.305
,449.000=0.155
,449.500=0.155
,450.000=0.310
,450.500=0.305
,451.000=0.305
,451.500=0.310
;
#BGCHANGES:0.000=Beast Mode.avi=1.000=0=0=0,
99999=-nosongbg-=1.000=0=0=0 // don't automatically add -songbackground-
;
#ATTACKS:;

//---------------dance-single - ----------------
#NOTES:
     dance-single:
     :
     Challenge:
     17:
     0.922,1.000,0.423,0.231,0.000:
0000
0000
0000
0000
,
0000
0000
0000
0000
,
0000
0000
0000
0000
,
0000
0000
0000
0000
,
0000
0000
0000
0000
,
0000
0000
0000
0000
,
0000
0000
0000
0000
,
0000
0000
0000
0000
,
0000
0000
0000
0000
,
0000
0000
0000
0000
,
0010
0001
0010
0001
,
1000
0100
1000
0001
,
1000
0001
1000
0001
,
1000
0000
0010
0100
0010
0000
1000
0000
,
0010
1000
0100
1000
,
0001
1000
0001
1000
,
0100
1000
0100
1000
,
0010
0000
0100
0001
0100
0000
0001
0000
,
0100
0001
1000
0001
,
0010
0001
0010
0001
,
0100
0001
0100
0001
,
1000
0000
0100
1000
0100
0000
1000
0000
,
0001
1000
0010
1000
,
0100
1000
0010
0100
,
0001
0101
1000
1001
,
0010
1010
0001
0100
,
1000
0000
0100
0000
1000
0000
0001
0100
,
0001
0000
0100
0000
0010
0000
1000
0100
,
1000
0001
0100
0010
,
0010
1000
0010
0100
0001
1000
0100
0010
,
0001
0010
0001
0100
,
0001
1000
0010
1000
,
0100
0000
1000
0001
0100
0000
0001
1000
,
0100
0000
1000
0001
0010
0100
1000
0000
,
0010
0100
0010
0100
0001
0000
1000
0100
,
1000
0100
0010
0000
0001
0010
0100
0000
,
0001
0100
0001
0100
0010
0000
1000
0010
,
1000
0010
0100
0000
0001
0010
0100
0000
,
1000
0010
1000
0000
0001
0000
0100
0000
,
1000
0100
0010
1000
,
0001
1000
0001
0000
1000
0000
0100
1000
,
0100
1000
0010
0001
,
0100
0000
0010
0000
0100
0010
0100
0000
,
1000
0100
1000
0001
,
0100
0010
0100
0001
,
1000
0100
0010
0001
1000
0100
0010
0001
,
1000
0010
0100
0001
,
1000
0100
1000
0100
,
0010
0001
0010
0001
,
0100
0010
0100
0000
0001
0100
0001
0000
,
1000
0100
0010
0000
0001
0010
0100
0000
,
1000
0010
0100
0000
0001
0010
0100
0000
,
1000
0001
0100
0000
0001
0010
0100
0000
,
1000
0100
0010
0000
0001
0010
0100
0000
,
0000
1000
0010
0100
,
0001
0000
1000
0100
0000
1000
0000
0001
,
0100
0001
0100
0000
0010
0000
1000
0100
,
1000
0100
0000
0001
0010
0000
0100
0010
,
0001
1000
0010
0100
,
0001
0100
0001
0100
0000
0010
0000
1000
,
0100
0010
0001
0000
0100
0000
0010
0000
,
1000
0001
0000
0000
0100
0000
0010
0000
,
1000
0001
0100
0010
,
1000
0000
0001
0100
0000
0100
0000
0010
,
1000
0100
1000
0000
0010
0000
0100
0000
,
0001
1000
0000
0001
1000
0000
0010
0000
,
0100
0001
0100
0000
0010
0000
1000
0000
,
0100
1000
0100
1000
0000
0001
0000
0100
,
0010
0000
1100
0000
0000
0101
0000
0000
,
1001
0000
1000
0100
0010
0001
0100
0010
,
1000
0001
0001
0001
,
0001
0100
1000
0000
1000
0000
1000
0000
,
1000
0010
0002
0000
0100
0000
0203
0000
,
1000
2300
3020
0032
,
0203
1000
0320
0000
1000
0000
2030
0000
,
0100
3200
0001
0320
,
1000
0100
0031
0100
1000
0000
0010
1000
,
0100
2002
0000
3003
,
1000
0001
0200
0310
,
1000
0100
0000
2000
0000
3010
0100
0001
,
0100
0000
0001
0000
0010
0001
0100
0001
,
0000
0010
0001
0000
1000
0100
0010
0000
,
1000
0001
0100
0000
,
0001
0100
0000
0010
0000
1000
0100
0000
,
1000
0000
0010
0000
0001
0000
1000
0001
,
0000
0100
0001
0000
1000
0000
1000
0001
,
0100
0100
0110
0000
,
0001
0010
0000
0100
0000
1000
0001
0000
,
0010
0000
0001
0000
0100
0000
0001
0100
,
0000
0100
0010
0000
0100
0000
0010
0000
,
0100
0010
1000
0001
,
0010
0001
0000
0100
0000
0000
0001
0010
,
0100
0000
0000
0110
0000
0000
1000
0000
,
0001
0010
0001
0000
1000
0100
1000
0000
,
0010
1000
0100
1000
,
0010
0100
0000
0100
0000
0010
0100
0000
,
1000
0000
0100
0000
0010
0000
0001
0100
,
0000
0100
0001
0000
0010
0000
1000
0000
,
0100
1000
0010
0100
,
0001
0100
0000
0100
0000
0010
1000
0000
,
0010
0000
0100
0000
1000
0000
0001
0100
,
0000
0100
0001
0000
1000
0100
0010
0001
,
0100
0010
1000
0001
,
1000
0100
0000
1000
0000
0001
0010
0001
,
0100
0000
0010
0000
1000
0000
0001
0100
,
0000
1000
0100
0000
1000
0100
0010
0001
,
0100
0010
1000
0001
,
0100
0010
0000
1001
0000
0100
0010
0000
,
1100
0000
0000
0101
0000
0000
1100
0000
,
0001
0000
0100
0000
0001
0010
0100
1000
,
0001
0000
0000
0000
2001
0000
0000
0000
0010
0000
0000
0000
0100
0000
0000
3000
0110
0000
0000
0000
1001
0000
0000
0000
0110
0000
0000
0000
1001
0000
0000
0000
,
1100
0011
1000
0010
0100
0001
1100
1002
,
0100
0000
0000
0010
0000
0003
0110
0000
0000
1001
0000
0000
1100
0000
0000
0011
0000
0000
0110
0000
0000
0011
0000
0000
,
1000
0010
0100
0001
1001
0000
0000
0000
,
1000
0020
0100
0000
,
0100
0000
0100
0000
,
0130
0000
0001
0010
,
0100
1000
1001
0000
,
1000
0200
1000
0000
,
0302
0010
0000
0013
,
0001
0000
0000
0000
1000
0010
1000
0000
,
0001
0100
0001
0000
1000
0000
0000
0000
,
0001
0200
0010
0000
,
0010
0000
0010
0000
,
0010
0000
0010
0000
,
0310
0001
0101
0000
,
1000
1100
0000
0001
,
0101
0000
0010
0110
,
0000
1000
0100
0010
,
0001
0100
0020
0230
,
0302
0000
2003
0000
3010
0100
0001
1000
,
0020
0000
0000
0000
,
0130
0001
0000
0100
0001
0000
1000
0000
,
0010
1000
0000
0010
1000
0000
0010
0000
,
1000
0100
1000
0000
0001
0100
0001
0000
,
1000
0100
0010
0001
1000
0100
0010
0001
,
1000
0010
1000
0000
0001
0010
0001
0000
,
1000
0010
0100
0000
0001
0100
0010
0000
,
1000
0100
1000
0000
0001
0100
0001
0000
,
1000
0001
0100
0000
0001
1000
0100
0000
,
1000
0010
1000
0000
0001
0100
0001
0000
,
1000
0010
0100
0000
0001
0100
0010
0000
,
1000
0100
1000
0100
0001
0100
0001
0100
,
1000
0100
1000
0000
0010
0100
0010
0000
,
1001
0000
0000
1100
0000
0000
0001
0000
,
0101
0000
0000
1100
0000
0000
0010
0000
,
0110
0000
0000
1001
0000
0000
1000
0000
,
0100
1000
0100
0000
0001
0010
0001
0010
,
0001
0100
0010
1000
0001
0010
0100
1000
,
0010
0100
0010
0100
0001
1000
0010
0100
,
0001
1000
0100
0010
0001
1000
0100
1000
,
0001
0010
0100
1000
0001
0010
0001
0010
,
0001
0000
0000
1001
0000
0000
1100
0000
,
0101
0000
0000
0110
0000
0000
1100
0000
,
0101
0000
0000
0110
0000
0000
1001
0000
,
1000
0000
0010
0000
0100
0001
1000
0001
,
1000
0001
0100
0001
1000
0001
0100
0000
,
0001
0010
0001
0100
0001
1000
0001
0000
,
1000
0100
0010
0001
1000
0000
0001
0010
,
0100
1000
0010
0000
1000
0100
1000
0000
,
2002
0000
0000
3003
,
0001
0000
0000
0101
0000
0000
1100
0000
,
0210
0010
0010
0010
,
0010
0010
0010
0310
,
1000
1100
0001
0011
,
1000
0000
1010
0000
0001
0010
0100
2000
,
0002
0000
0000
0000
,
0000
0000
0000
0000
,
0000
0000
0000
0000
,
0000
0000
0000
0000
,
3003
0000
0000
0000
;

//---------------dance-single - Copied from----------------
#NOTES:
     dance-single:
     Copied from:
     Hard:
     16:
     0.832,1.000,0.415,0.215,0.000:
0000
0000
0000
0000
,
0000
0000
0000
0000
,
0000
0000
0000
0000
,
0000
0000
0000
0000
,
0000
0000
0000
0000
,
0000
0000
0000
0000
,
0000
0000
0000
0000
,
0000
0000
0000
0000
,
0000
0000
0000
0000
,
0000
0000
0000
0000
,
1000
0001
1000
0001
,
1000
0100
1000
0100
,
0010
0001
0010
0001
,
1000
0100
0010
0000
,
0001
0010
0001
0010
,
0001
0100
0001
0100
,
0010
0100
0010
0010
,
1000
0010
0100
0001
,
1000
0001
1000
0000
0001
1000
0001
0000
,
0010
0001
0010
0001
,
0100
0001
0100
0001
,
1000
0100
0010
0001
,
1000
0001
1000
0000
0001
1000
0001
0000
,
1000
0010
0100
0001
,
1000
0100
1000
0100
,
0010
0001
0010
0100
,
2000
0000
3010
0000
,
0001
0010
0100
1000
,
0000
0001
0100
0001
,
1000
0001
1000
0000
0001
1000
0001
0000
,
0200
0000
0310
0000
,
0001
0100
0010
1000
,
0000
0001
0100
0000
,
1000
0100
1000
0100
1000
0000
0010
0000
,
0200
0000
0301
0020
,
0000
1030
0002
0000
,
0203
0000
1300
0020
,
0000
0130
0002
0000
,
1003
0100
0010
0001
,
0100
0010
1000
0001
,
0010
0100
1000
0010
,
0100
0000
0001
1000
0001
1000
0001
0000
,
2000
0000
3100
0000
,
0001
0010
0100
0010
,
0000
0001
0100
0000
,
0001
0100
0001
0000
1000
0100
1000
0000
,
0020
0000
0130
0000
,
1000
0100
0010
0001
,
0000
0100
0010
0000
,
0001
0100
0001
0000
1000
0000
0100
0000
,
1000
1010
0001
0101
,
0100
0110
0001
1001
,
1000
1100
0001
0101
,
0010
0110
0001
1001
,
0000
0010
1000
0100
,
0000
0000
0001
0100
0000
0100
0000
0000
,
0001
1000
0100
1000
,
0000
0001
0000
0000
1000
0000
0010
0000
,
0100
0001
0001
1000
,
0000
0000
0001
0100
0000
0001
0000
0000
,
1000
0100
1000
0010
,
0100
0001
0100
0000
0001
0000
0100
0001
,
0100
0001
0001
1000
,
0000
0000
0010
0100
0000
0010
0000
0000
,
1000
0100
0010
0001
,
0100
0010
0000
0010
0100
0000
0001
0000
,
0010
1000
0010
0001
,
0100
0000
0001
1000
0000
1000
0000
0000
,
0001
0000
1100
0000
0000
0101
0000
0000
,
1100
0001
0010
0100
,
1000
0020
0001
0000
,
0031
0200
1000
0000
,
1300
0010
0001
0100
,
1000
0010
1000
0100
,
0001
0000
2000
0100
0100
0000
0100
0100
,
3100
0000
0002
0100
0100
0100
0100
0100
,
0103
0000
1000
0001
0100
0000
0001
1000
,
0100
2002
0000
3003
,
0010
0100
0010
1000
,
0010
0100
0000
0100
0000
0000
0010
0000
,
1000
0100
0010
0001
,
0100
0010
0100
0010
,
0001
0100
1000
0000
,
0010
0100
0000
0100
0000
0000
0001
0000
,
1000
0000
0100
0000
1000
0000
0001
0100
,
0001
0000
1000
0000
0010
0100
0010
0000
,
1000
0100
0010
0100
,
0001
0100
0000
0100
0000
0000
0001
0000
,
0100
0000
0010
0000
1000
0000
0100
1000
,
0100
0000
1000
0000
0001
1000
0001
0000
,
1000
0100
0010
0001
,
0100
0010
0000
0010
0000
1000
0010
0000
,
0101
0000
0000
1100
0000
0000
0101
0000
,
1000
0100
0010
0001
,
1000
0001
0100
0000
0010
0000
0010
0000
,
0001
1000
0000
1000
0000
1000
0001
0000
,
0100
0001
0010
0000
0010
0000
0001
0100
,
0010
0100
0001
0000
0010
0000
0100
0000
,
0001
1000
0001
0000
0010
0000
0100
0000
,
1000
0001
0000
0001
0000
0001
1000
0000
,
0010
0100
0001
1000
,
0001
0100
0001
0000
1000
0100
1000
0000
,
0010
0100
0001
1000
,
0001
0100
0000
0001
0000
1000
0100
0000
,
1000
0001
1000
0000
0001
0000
0100
0010
,
0000
1000
0010
0000
0100
0001
0100
0000
,
0010
1000
0100
0000
1000
0000
0010
0000
,
0100
0001
0010
0000
0001
0000
0100
0000
,
1010
0000
0000
0101
0000
0000
1001
0000
,
0220
0000
0000
0330
,
1001
0220
0000
0330
1100
0011
1001
1001
,
1100
0011
0100
0100
0000
0000
1001
0220
,
0000
0330
1000
0001
1100
0011
1100
0011
,
0100
0010
0000
0000
1000
0000
0001
0000
,
0100
0001
1000
0100
,
0010
0001
0100
0001
,
1000
0001
0100
0010
,
1000
0000
0001
0000
0010
0100
0010
0000
,
0100
0000
0001
0100
0001
0000
0100
0000
,
0001
1000
0001
0000
1000
0000
0010
0100
,
0010
0100
1000
0010
,
0100
0000
0010
0100
,
0010
0100
0001
1000
,
0001
1000
0001
0010
,
0100
1000
1000
0100
,
0010
0000
0001
1000
0001
0000
1000
0000
,
0100
1000
0100
0000
1000
0000
0001
0100
,
0001
0000
1000
0000
0010
0100
0010
0000
,
1000
0001
0100
1000
,
0001
0100
0020
0000
,
2030
0000
3002
0000
,
0103
0000
1001
0000
,
1000
0000
0010
1000
0000
0010
1000
0000
,
0001
0000
0100
0001
0000
0100
0001
0000
,
1000
0000
0100
1000
0000
0100
1000
0000
,
0001
0010
0001
0000
1000
0100
1000
0000
,
0001
0100
0001
0100
0001
0000
1000
0000
,
0010
0100
0010
0100
0010
0000
1000
0000
,
0001
0100
0001
0100
0001
0000
1000
0000
,
0010
0100
0010
1000
0010
0000
0100
0000
,
0001
0100
0001
0100
0001
0100
0001
0000
,
1000
0100
1000
0100
1000
0100
1000
0000
,
0010
0100
0010
0100
0010
0100
0010
0000
,
1000
0100
1000
0000
0001
0010
0001
0000
,
1100
0000
0000
0101
0000
0000
1100
0000
,
0101
0000
0000
0101
0000
0000
1100
0000
,
0011
0000
0000
0011
0000
0000
0110
0000
,
1001
0000
0000
0000
1000
0100
0010
0001
,
1000
0000
1000
0000
0001
0010
0100
1000
,
0001
0000
0001
0000
0100
0010
0100
0010
,
1000
0001
1000
0001
1000
0100
1000
0100
,
0010
0001
0010
0001
1000
0100
0010
0001
,
1000
0000
0000
0101
0000
0000
1000
0000
,
0101
0000
0000
0101
0000
0000
0010
0000
,
1001
0000
0000
1001
0000
0000
1000
0000
,
0101
1000
0010
0100
,
0001
0010
0001
0000
1000
0100
1000
0000
,
0010
0100
0010
0000
1000
0100
1000
0000
,
0001
0010
0001
0000
1000
0100
1000
0000
,
0010
0100
0010
0000
1000
0100
0010
0001
,
0100
0100
0100
0100
,
0001
0000
0000
1100
0000
0000
0010
0000
,
2001
0001
0001
0001
,
0001
0001
0001
3000
,
0001
0101
0000
1100
,
0000
0000
0010
0000
0100
0000
0001
2000
,
0002
0000
0000
0000
,
0000
0000
0000
0000
,
0000
0000
0000
0000
,
0000
0000
0000
0000
,
3003
0000
0000
0000
;

//---------------dance-single - Coping eff----------------
#NOTES:
     dance-single:
     Coping eff:
     Medium:
     13:
     0.576,1.000,0.246,0.392,0.000:
0000
0000
0000
0000
,
0000
0000
0000
0000
,
0000
0000
0000
0000
,
0000
0000
0000
0000
,
0000
0000
0000
0000
,
0000
0000
0000
0000
,
0000
0000
0000
0000
,
0000
0000
0000
0000
,
0000
0000
0000
0000
,
0000
0000
0000
0000
,
1000
0000
1000
0001
,
0000
0010
0000
0100
,
0000
1000
0000
0010
,
0100
0010
0100
0010
,
1000
0000
0001
1000
,
0000
0010
0000
0001
,
0000
1000
0000
0100
,
1000
0010
0100
0001
,
1000
0000
0001
0100
,
0000
1000
0000
0001
,
0000
0100
0001
0100
,
0000
0010
1000
0010
,
0100
0000
0100
0010
,
0000
1001
0000
0010
,
0000
1001
0000
0001
,
0010
0100
1000
0000
,
0002
0000
1000
0000
,
1003
0000
0001
0100
,
0000
0001
0100
0000
,
1000
0100
0010
0001
,
2000
0000
0100
0000
,
3100
0000
0001
0100
,
0000
0100
0001
0000
,
1000
0100
0010
0000
,
2000
0000
3010
0020
,
0000
1030
2000
0000
,
3002
0003
0001
2000
,
3000
1000
0001
1000
,
0002
0000
0103
0000
,
2000
0000
3100
0000
,
0001
0000
1000
0000
,
0100
0010
0100
0000
,
0002
0000
0100
0000
,
0103
0000
0010
0100
,
0010
1000
0010
0000
,
1000
0100
0010
0001
,
0200
0000
0010
0000
,
0310
0000
0001
0010
,
0100
1000
0010
0000
,
1000
0100
0001
0000
,
2020
3030
0202
0303
,
0220
0330
2002
3003
,
2200
3300
0202
0303
,
0220
0330
2002
3003
,
0000
0010
0000
1000
,
0000
0000
0001
0000
0000
0001
0000
0000
,
0001
1000
0000
0100
,
0000
1000
0010
1000
,
0000
0001
0000
0100
,
0000
0000
1000
0000
0000
1000
0000
0000
,
1000
0010
0100
0001
,
0000
1100
0000
0001
,
0000
0010
0000
0010
,
0000
0000
1000
0000
0000
0001
0000
0000
,
1000
0010
0000
0010
,
0000
1000
0100
0010
,
0000
0001
0100
0001
,
0000
1000
0100
1000
,
0000
0000
0100
0000
0000
0100
0000
0000
,
1000
0001
0000
1001
,
0000
0020
0001
0000
,
0031
0200
1000
0000
,
1300
0010
0001
0100
,
0000
0010
1000
0100
,
0000
2000
0100
0100
,
3100
0002
0100
0100
,
0103
1000
0100
0001
,
0100
2002
0000
3003
,
0010
0100
0010
0000
,
0010
0000
0000
0100
0000
0000
0010
0000
,
1000
0000
0001
0000
,
1000
0010
0100
0000
,
0001
0000
1000
0000
,
0010
0000
0000
0100
0000
0000
0001
0000
,
1000
0000
1000
0000
,
0001
1000
0010
0000
,
1000
0001
0010
0000
,
0001
0000
0000
1000
0000
0000
0001
0000
,
0100
0000
0010
0000
,
0100
0010
0001
0000
,
1000
0100
0010
0000
,
0100
1000
0010
0000
,
0100
0000
0000
0100
0000
0000
0100
0000
,
0001
0100
0001
0100
,
0010
0100
0010
0000
,
0001
0000
0000
1000
0000
0000
0001
0000
,
0100
0001
0010
0000
,
0010
0100
0001
0000
,
0001
1000
0001
0000
,
1000
0000
0000
0001
0000
0000
1000
0000
,
0010
0100
0001
0000
,
0001
0100
1000
0000
,
0010
0100
0001
0000
,
0001
0000
0000
1001
0000
0000
0100
0000
,
1000
0001
0100
0000
,
0001
1000
0010
0000
,
0010
1000
0100
0000
,
0100
0001
0010
0000
,
0010
0000
0000
0010
0000
0000
0010
0000
,
0220
0000
0000
0330
,
1000
0002
0000
0000
0003
0000
0100
0010
,
0100
0010
0100
0000
0000
0000
0001
2000
,
0000
0000
3000
0000
0010
0100
0010
0100
,
0010
0000
2000
0000
,
0000
3002
0000
0000
,
0100
0000
0100
0000
,
0100
0000
0100
0000
,
0103
0000
0001
0010
,
0100
1000
0100
0010
,
0002
1000
1003
0020
,
1000
1030
0001
0010
,
0100
1000
0001
0000
,
0001
2000
0000
0000
,
0100
0000
0100
0000
,
0100
0000
0100
0000
,
3100
0000
0001
0100
,
0000
1000
0100
0000
,
0001
0100
0000
1000
,
0100
0000
0001
1000
,
0100
0000
0220
0000
,
0330
0000
2002
0000
,
3003
0000
1001
0000
,
1000
0010
1000
0000
,
0001
0100
0001
0000
,
1000
0100
1000
0000
,
0001
0010
0001
0000
,
0001
0100
0001
0100
,
0010
0100
0010
0000
,
1000
0100
1000
0010
,
0100
0010
0100
0000
,
0001
0100
0001
0100
,
1000
0100
1000
0100
,
0010
0100
0010
0100
,
1000
0100
0010
0001
,
0100
0000
0000
0101
0000
0000
0100
0000
,
0010
0000
0000
1010
0000
0000
0010
0000
,
1000
0000
0000
1001
0000
0000
0001
0000
,
1001
0000
0110
0000
,
1000
0001
0010
0100
,
1000
0100
0010
0001
,
1000
0100
1000
0001
,
1000
0010
0100
0001
,
1001
0000
0000
1000
0000
0000
1000
0000
,
1001
0000
0000
0001
0000
0000
0001
0000
,
0101
0000
0000
0110
0000
0000
1000
0000
,
0001
1000
0010
0100
,
0001
0010
1000
0000
,
1000
0010
0001
0000
,
0001
0010
0100
1000
,
0100
0010
0001
0000
,
0220
0000
0330
0000
,
0001
0000
0000
0100
0000
0000
0010
0000
,
2000
0000
0001
0000
,
0001
0000
3001
0000
,
0001
0101
0000
1100
,
0000
1000
0001
1001
,
2002
0000
0000
0000
,
0000
0000
0000
0000
,
0000
0000
0000
0000
,
0000
0000
0000
0000
,
3003
0000
0000
0000
;

//---------------dance-single - ----------------
#NOTES:
     dance-single:
     :
     Easy:
     10:
     0.453,0.654,0.108,0.238,0.000: // measure 1
0000
0000
0000
0000
,  // measure 2
0000
0000
0000
0000
,  // measure 3
0000
0000
0000
0000
,  // measure 4
0000
0000
0000
0000
,  // measure 5
0000
0000
0000
0000
,  // measure 6
0000
0000
0000
0000
,  // measure 7
0000
0000
0000
0000
,  // measure 8
0000
0000
0000
0000
,  // measure 9
0000
0000
0000
0000
,  // measure 10
0000
0000
0000
0000
,  // measure 11
0010
0000
1000
0000
,  // measure 12
0010
0000
1000
0000
,  // measure 13
0001
0000
0100
0000
,  // measure 14
0001
0001
0001
0000
,  // measure 15
1000
0000
0100
0000
,  // measure 16
1000
0000
0100
0000
,  // measure 17
0010
0000
0001
0000
,  // measure 18
0010
0010
0010
0000
,  // measure 19
0001
0000
0100
0000
,  // measure 20
1000
0000
0100
0000
,  // measure 21
0001
0000
1000
0000
,  // measure 22
0100
0100
0100
0000
,  // measure 23
1000
0000
0100
0000
,  // measure 24
0001
0000
0100
0000
,  // measure 25
1000
0000
0010
0000
,  // measure 26
0100
0100
0100
0000
,  // measure 27
0001
0000
1000
0000
,  // measure 28
0100
1000
0100
0000
,  // measure 29
1000
0000
0001
0000
,  // measure 30
0100
0001
0100
0000
,  // measure 31
0001
0000
0010
0000
,  // measure 32
0100
0000
1000
0000
,  // measure 33
0100
0000
0010
0000
,  // measure 34
0001
0010
0001
0000
,  // measure 35
2000
0000
3100
0000
,  // measure 36
0002
0000
0103
0000
,  // measure 37
2000
0000
3010
0000
,  // measure 38
0002
0000
0013
0000
,  // measure 39
0100
0000
0010
0000
,  // measure 40
1000
0000
0001
0000
,  // measure 41
0100
0010
0100
0000
,  // measure 42
0010
0100
0010
0000
,  // measure 43
2000
0000
3100
0000
,  // measure 44
0002
0000
0103
0000
,  // measure 45
0010
0010
0010
0000
,  // measure 46
1000
0000
0001
0000
,  // measure 47
0002
0000
0103
0000
,  // measure 48
2000
0000
3100
0000
,  // measure 49
0010
0010
0010
0000
,  // measure 50
0001
0000
1000
0000
,  // measure 51
0010
0000
1000
0000
,  // measure 52
0100
0000
0001
0000
,  // measure 53
0010
0000
0001
0000
,  // measure 54
0100
0000
1000
0000
,  // measure 55
0000
0001
0000
1000
,  // measure 56
0000
0100
0100
0100
,  // measure 57
0000
1000
0000
0001
,  // measure 58
0000
0100
0000
0010
,  // measure 59
0000
1000
0000
0100
,  // measure 60
0000
1000
0000
0001
,  // measure 61
0000
0100
0001
0100
,  // measure 62
0000
0001
0000
0010
,  // measure 63
0000
0100
0000
1000
,  // measure 64
0000
0010
0000
1010
,  // measure 65
0000
0001
0000
0100
,  // measure 66
0000
0010
0000
0011
,  // measure 67
0000
0001
0000
0100
,  // measure 68
0000
0001
0100
1000
,  // measure 69
0000
1100
0000
1100
,  // measure 70
0000
0101
0000
0000
,  // measure 71
0000
0020
0000
0000
,  // measure 72
0030
0200
0000
0000
,  // measure 73
0300
0001
0000
1000
,  // measure 74
0000
0010
0100
1000
,  // measure 75
0000
0001
0100
0001
,  // measure 76
0100
1000
0100
1000
,  // measure 77
0100
0010
0001
1000
,  // measure 78
0100
2002
0000
3003
,  // measure 79
0010
0000
1000
0000
,  // measure 80
0001
0100
0001
0000
,  // measure 81
1000
0100
1000
0000
,  // measure 82
0001
0100
0010
0000
,  // measure 83
1000
0000
1000
0000
,  // measure 84
0001
0100
0001
0000
,  // measure 85
1000
0100
1000
0100
,  // measure 86
1000
0000
0101
0000
,  // measure 87
0010
0000
1010
0000
,  // measure 88
0001
0100
0001
0000
,  // measure 89
1000
0100
0010
0001
,  // measure 90
0100
0000
1001
0000
,  // measure 91
0001
0100
0001
0000
,  // measure 92
1000
0100
1000
0000
,  // measure 93
0010
0000
0200
0000
,  // measure 94
0302
0000
1003
0000
,  // measure 95
0010
1000
0010
1000
,  // measure 96
0100
1000
0100
0000
,  // measure 97
0001
0100
0001
0000
,  // measure 98
0010
0001
0010
0000
,  // measure 99
0001
0100
0001
0000
,  // measure 100
1000
0100
1000
0000
,  // measure 101
0010
0000
0200
0000
,  // measure 102
0301
0000
1000
0000
,  // measure 103
0010
0100
0010
0000
,  // measure 104
1000
0100
1000
0000
,  // measure 105
0002
0000
0003
0000
,  // measure 106
2000
0000
3000
0000
,  // measure 107
0010
0100
0010
0000
,  // measure 108
1000
0000
1001
0000
,  // measure 109
0020
0000
0030
0000
,  // measure 110
0110
0000
0000
0000
,  // measure 111
1000
0002
0000
0000
0003
0000
0100
0010
,  // measure 112
0100
0010
0000
0000
0000
0000
0001
2000
,  // measure 113
0000
0000
3000
0000
0010
0100
0010
0100
,  // measure 114
0000
0000
1000
0000
,  // measure 115
0001
0000
1000
0000
,  // measure 116
0001
0000
1000
0000
,  // measure 117
0100
0000
0010
0000
,  // measure 118
0001
0000
0001
0000
,  // measure 119
1000
0000
0001
0000
,  // measure 120
1000
0000
0001
0000
,  // measure 121
0010
0000
0100
0000
,  // measure 122
1000
0000
0010
0000
,  // measure 123
0100
0000
0010
0100
,  // measure 124
0010
0000
1000
0000
,  // measure 125
0100
0000
0010
0000
,  // measure 126
0001
0000
0100
0000
,  // measure 127
0010
0000
0100
0010
,  // measure 128
0100
0000
0001
0000
,  // measure 129
0010
0000
0100
0000
,  // measure 130
1000
0000
0020
0000
,  // measure 131
0000
0030
2000
0000
,  // measure 132
3000
0000
1001
0000
,  // measure 133
0001
0000
0001
0000
,  // measure 134
1000
0000
1000
0000
,  // measure 135
0001
0000
0010
0000
,  // measure 136
0100
0000
1000
0000
,  // measure 137
0010
0100
0010
0000
,  // measure 138
0100
0010
0100
0000
,  // measure 139
1000
0100
1000
0000
,  // measure 140
0001
0010
0001
0000
,  // measure 141
1000
0100
0010
0000
,  // measure 142
0001
0000
0100
0000
,  // measure 143
0001
0010
0100
0000
,  // measure 144
1000
0000
0001
0000
,  // measure 145
0100
0000
0000
0100
0000
0000
0100
0000
,  // measure 146
0001
0000
0000
0001
0000
0000
0001
0000
,  // measure 147
1000
0000
0000
1000
0000
0000
2000
0000
,  // measure 148
0002
0000
3003
0000
,  // measure 149
0010
0000
1000
0000
,  // measure 150
0001
0000
0100
0000
,  // measure 151
0010
1000
0010
1000
,  // measure 152
0010
1000
0010
0000
,  // measure 153
0001
0000
0000
0001
0000
0000
0001
0000
,  // measure 154
1000
0000
0000
1000
0000
0000
1000
0000
,  // measure 155
0010
0000
0000
0010
0000
0000
0020
0000
,  // measure 156
0200
0000
0330
0000
,  // measure 157
0001
0100
1000
0000
,  // measure 158
1000
0100
0001
0000
,  // measure 159
1000
0010
0001
0000
,  // measure 160
0001
0010
1000
0000
,  // measure 161
2002
0000
3003
0000
,  // measure 162
0010
0000
0000
1000
0000
0000
0010
0000
,  // measure 163
0020
0000
0000
0000
,  // measure 164
0000
0000
0030
0000
,  // measure 165
0001
1000
0000
0001
,  // measure 166
0000
1000
0001
0000
,  // measure 167
2002
0000
0000
0000
,  // measure 168
0000
0000
0000
0000
,  // measure 169
0000
0000
0000
0000
,  // measure 170
0000
0000
0000
0000
,  // measure 171
3003
0000
0000
0000
;

//---------------dance-single - ----------------
#NOTES:
     dance-single:
     :
     Beginner:
     7:
     0.285,0.458,0.038,0.123,0.000: // measure 1
0000
0000
0000
0000
,  // measure 2
0000
0000
0000
0000
,  // measure 3
0000
0000
0000
0000
,  // measure 4
0000
0000
0000
0000
,  // measure 5
0000
0000
0000
0000
,  // measure 6
0000
0000
0000
0000
,  // measure 7
0000
0000
0000
0000
,  // measure 8
0000
0000
0000
0000
,  // measure 9
0000
0000
0000
0000
,  // measure 10
0000
0000
0000
0000
,  // measure 11
0010
0000
0000
1000
,  // measure 12
0000
1000
0000
1000
,  // measure 13
0000
1000
0000
1000
,  // measure 14
0000
1000
0000
0000
,  // measure 15
0010
0000
0000
0001
,  // measure 16
0000
0001
0000
0001
,  // measure 17
0000
0001
0000
0001
,  // measure 18
0000
0001
0000
0000
,  // measure 19
0100
0000
0000
0010
,  // measure 20
0000
0010
0000
0010
,  // measure 21
0000
0010
0000
0010
,  // measure 22
0000
0010
0000
0000
,  // measure 23
1000
0000
0000
0001
,  // measure 24
0000
0001
0000
0001
,  // measure 25
0000
0001
0000
0001
,  // measure 26
0000
0001
0000
0000
,  // measure 27
0100
0000
0000
0000
,  // measure 28
0000
0000
0001
0000
,  // measure 29
0000
0000
1000
0000
,  // measure 30
0000
0000
0001
0000
,  // measure 31
0001
0000
0000
0000
,  // measure 32
0000
0000
1000
0000
,  // measure 33
0000
0000
0001
0000
,  // measure 34
0000
0000
1000
0000
,  // measure 35
1000
0000
0000
1000
,  // measure 36
0000
0000
0000
0000
,  // measure 37
0001
0000
0000
0001
,  // measure 38
0000
0000
0000
0000
,  // measure 39
0100
0000
0000
0000
,  // measure 40
0100
0000
0000
0000
,  // measure 41
0010
0000
0010
0000
,  // measure 42
0010
0000
0000
0000
,  // measure 43
1000
0000
0000
0000
,  // measure 44
1000
0000
0000
0000
,  // measure 45
0001
0000
0000
0000
,  // measure 46
0001
0000
0000
0000
,  // measure 47
0100
0000
0000
0000
,  // measure 48
0100
0000
0000
0000
,  // measure 49
0010
0000
0000
0000
,  // measure 50
0010
0000
0000
0000
,  // measure 51
1000
0000
0000
0000
,  // measure 52
0001
0000
0000
0000
,  // measure 53
0001
0000
0000
0000
,  // measure 54
1000
0000
0000
0000
,  // measure 55
0000
0100
0000
0000
,  // measure 56
0000
0100
0000
0000
,  // measure 57
0000
0100
0000
0100
,  // measure 58
0000
0100
0000
0000
,  // measure 59
0000
0010
0000
0000
,  // measure 60
0000
0100
0000
0000
,  // measure 61
0000
0010
0000
0010
,  // measure 62
0000
0010
0000
0000
,  // measure 63
0000
0100
0000
0000
,  // measure 64
0000
0010
0000
0000
,  // measure 65
0000
0100
0000
0100
,  // measure 66
0000
0100
0000
0000
,  // measure 67
0000
0001
0000
0100
,  // measure 68
0000
1000
0000
0000
,  // measure 69
0000
1000
0000
0100
,  // measure 70
0000
0001
0000
0000
,  // measure 71
0000
0010
0000
0010
,  // measure 72
0000
0001
0001
0001
,  // measure 73
0000
0010
0000
1000
,  // measure 74
0000
0001
0001
0001
,  // measure 75
0000
1000
0000
0001
,  // measure 76
0000
1000
1000
1000
,  // measure 77
0000
0001
0001
1000
,  // measure 78
1000
0002
0000
0003
,  // measure 79
1000
0000
1000
0000
,  // measure 80
1000
0000
1000
0000
,  // measure 81
0100
0000
0100
0000
,  // measure 82
0010
0000
0010
0000
,  // measure 83
0001
0000
0001
0000
,  // measure 84
0001
0000
0001
0000
,  // measure 85
0010
0000
0010
0000
,  // measure 86
0100
0000
0100
0000
,  // measure 87
1000
1000
1000
0000
,  // measure 88
0001
0000
0001
0000
,  // measure 89
1000
0000
1000
0000
,  // measure 90
0001
0000
0001
0000
,  // measure 91
0100
0100
0100
0000
,  // measure 92
0010
0000
0010
0000
,  // measure 93
0100
0000
0100
0000
,  // measure 94
0020
0000
0030
0000
,  // measure 95
0001
0000
1000
0000
,  // measure 96
0001
0000
0000
0000
,  // measure 97
1000
0000
0001
0000
,  // measure 98
1000
0000
0000
0000
,  // measure 99
0001
0000
0001
0000
,  // measure 100
0100
0000
0100
0000
,  // measure 101
1000
0000
1000
0000
,  // measure 102
0100
0000
0100
0000
,  // measure 103
0001
0000
0100
0000
,  // measure 104
1000
0000
0100
0000
,  // measure 105
0001
0000
0100
0000
,  // measure 106
1000
0000
0100
0000
,  // measure 107
0001
0000
0010
0000
,  // measure 108
1000
0000
0010
0000
,  // measure 109
0001
0000
1000
0000
,  // measure 110
1001
0000
0000
0000
,  // measure 111
0020
0000
0030
0200
,  // measure 112
0300
0000
0000
0200
,  // measure 113
0000
0300
0020
0030
,  // measure 114
0000
0000
0001
0000
,  // measure 115
0000
2000
0000
0000
,  // measure 116
0000
0000
0000
0000
,  // measure 117
0000
0000
0000
0000
,  // measure 118
3000
0000
0010
0000
,  // measure 119
0000
0010
0000
0000
,  // measure 120
0100
0000
0000
0100
,  // measure 121
0000
0000
0010
0010
,  // measure 122
0000
0000
0001
0000
,  // measure 123
0000
2000
0000
0000
,  // measure 124
0000
0000
0000
0000
,  // measure 125
0000
0000
0000
0000
,  // measure 126
3000
0000
0001
0000
,  // measure 127
0000
0100
0000
0000
,  // measure 128
1000
0000
0000
0100
,  // measure 129
0000
0000
0001
0000
,  // measure 130
0000
0000
2002
0000
,  // measure 131
0000
0000
3003
0000
,  // measure 132
0000
0000
0001
0000
,  // measure 133
0000
0000
1000
0000
,  // measure 134
0000
0000
0001
0000
,  // measure 135
0000
0000
1000
0000
,  // measure 136
0000
0000
0001
0000
,  // measure 137
0100
0000
0100
0000
,  // measure 138
1000
0000
1000
0000
,  // measure 139
0100
0000
0100
0000
,  // measure 140
0001
0000
0001
0000
,  // measure 141
1000
0000
0100
0000
,  // measure 142
0010
0000
0001
0000
,  // measure 143
0100
0000
0100
0000
,  // measure 144
1001
0000
0000
0000
,  // measure 145
0010
0000
0000
1000
,  // measure 146
0010
0000
0000
0010
,  // measure 147
0001
0000
0000
0001
,  // measure 148
0100
0000
0000
0000
,  // measure 149
0001
0000
0100
0000
,  // measure 150
1000
0000
0100
0000
,  // measure 151
0001
0000
0010
0000
,  // measure 152
1000
0000
0010
0000
,  // measure 153
0001
0000
0000
0001
,  // measure 154
0100
0000
0000
0100
,  // measure 155
1000
0000
0000
1000
,  // measure 156
0100
0000
0000
0000
,  // measure 157
0010
0000
1000
0000
,  // measure 158
0010
0000
0001
0000
,  // measure 159
1000
0000
0100
0000
,  // measure 160
0001
0000
0100
0000
,  // measure 161
2000
0000
0000
3000
,  // measure 162
0002
0000
0000
0003
,  // measure 163
2020
0000
0000
0000
,  // measure 164
0000
0000
0000
3030
,  // measure 165
0000
0010
0000
0010
,  // measure 166
0000
0100
0100
0000
,  // measure 167
2002
0000
0000
0000
,  // measure 168
0000
0000
0000
0000
,  // measure 169
0000
0000
0000
0000
,  // measure 170
0000
0000
0000
0000
,  // measure 171
3003
0000
0000
0000
;
