#TITLE:バスルーム ロマンス;
#SUBTITLE:;
#ARTIST:BEMANI Sound Team "Saori Watanabe";
#TITLETRANSLIT:Bathroom Romance;
#SUBTITLETRANSLIT:;
#ARTISTTRANSLIT:;
#GENRE:;
#CREDIT:;
#BANNER:Bathroom Romance.png;
#BACKGROUND:Bathroom Romance-bg.png;
#LYRICSPATH:;
#CDTITLE:;
#MUSIC:Bathroom Romance.ogg;
#OFFSET:-0.675000;
#SAMPLESTART:39.002583;
#SAMPLELENGTH:15.483871;
#SELECTABLE:YES;
#BPMS:0.000000=155.000000
;
#STOPS:
;
#BGCHANGES:;
#KEYSOUNDS:;
#ATTACKS:;

//---------------dance-single - ----------------
#NOTES:
     dance-single:
     :
     Beginner:
     2:
     0.168541,0.245998,0.075306,0.041836,0.000000,141.000000,132.000000,9.000000,5.000000,0.000000,0.000000,0.168541,0.245998,0.075306,0.041836,0.000000,141.000000,132.000000,9.000000,5.000000,0.000000,0.000000:
0000
0000
0000
0000
,
0000
0000
0000
0000
,
0000
0000
0000
0000
,
0000
0000
0000
0000
,
0010
0000
0010
0000
,
1000
0000
1000
0000
,
0100
0000
0100
0000
,
0001
0000
0001
0000
,
1000
0000
0001
0000
,
1000
0000
0001
0000
,
0100
0000
0010
0000
,
0100
0000
0010
0000
,
2002
0000
0000
0000
,
0000
0000
3003
0000
,
0010
0000
0010
0000
,
0010
0000
0000
0000
,
0100
0000
0100
0000
,
0100
0000
0000
0000
,
0001
0000
1000
0000
,
0001
0000
1000
0000
,
0010
0000
0010
0000
,
0010
0000
0000
0000
,
0100
0000
0000
0000
,
0001
0000
1000
0000
,
0001
0000
0000
0000
,
0100
0000
0010
0000
,
0100
0100
0000
0000
,
0010
0000
0100
0000
,
0010
0000
1001
0000
,
1000
0000
0001
0000
,
1000
1000
0000
0000
,
0001
0000
1000
0000
,
0001
0000
1001
0000
,
0010
0000
0001
0000
,
0010
0000
0001
0000
,
0100
0000
1000
0000
,
0100
0000
1000
0000
,
0010
0000
0100
0000
,
0010
0010
0000
0000
,
1000
0000
0001
0000
,
1000
0000
0001
0000
,
0100
0000
0010
0000
,
0100
0000
0010
0000
,
1000
0000
0100
0000
,
0001
0000
1000
0000
,
0001
0000
1000
0000
,
0002
0000
0003
0000
,
0010
0010
0010
0000
,
0100
0100
0100
0000
,
0010
0010
0010
0000
,
1000
0000
1001
0000
,
0100
0100
0100
0000
,
0010
0010
0010
0000
,
0100
0100
0100
0000
,
0001
0000
1001
0000
,
0000
0000
1001
0000
,
0000
0000
1000
0000
,
0001
0000
1000
0000
,
0001
0000
0100
0000
,
0000
0010
0010
0000
,
0000
0100
0100
0000
,
0000
0010
0010
0000
,
0000
0000
1001
0000
,
0100
0000
0010
0000
,
0000
1000
0001
0000
,
1000
0000
0001
0001
,
0000
0000
0100
0000
,
0010
0000
0100
0000
,
1001
0000
0001
0000
,
1000
0000
0001
0000
,
0100
0000
1000
0000
,
0100
0000
0010
0000
,
0001
0000
2002
0000
,
0000
0000
3003
0000
;

//---------------dance-single - ----------------
#NOTES:
     dance-single:
     :
     Easy:
     4:
     0.225917,0.276748,0.125509,0.359793,0.000000,189.000000,174.000000,15.000000,43.000000,0.000000,0.000000,0.225917,0.276748,0.125509,0.359793,0.000000,189.000000,174.000000,15.000000,43.000000,0.000000,0.000000:
0000
0000
0000
0000
,
0000
0000
0000
0000
,
0000
0000
0000
0000
,
0000
0000
0000
0000
,
0010
1000
0010
1000
,
0001
0100
0001
0100
,
1000
0000
0001
0000
,
1000
0001
1000
0000
,
0010
0010
1000
0000
,
0010
0010
0001
0000
,
0100
0000
0010
0000
,
0100
0000
0010
0000
,
2002
0000
0000
0000
,
0000
0000
3003
0000
,
2000
0000
3002
0000
,
0203
0000
0300
0000
,
0002
0000
2003
0000
,
3200
0000
0300
0000
,
0002
0000
0023
0000
,
2030
0000
3000
0000
,
2000
0000
3020
0000
,
0032
0000
0000
0003
,
2000
0000
0000
3000
,
0020
0000
0000
0030
,
2002
0000
3003
0001
,
0100
0000
0001
0000
,
0010
0010
0010
0000
,
1000
0000
0010
0000
,
0001
1000
0001
0000
,
0100
0000
0001
0000
,
1000
1000
1000
0000
,
0001
0000
1000
0000
,
0010
0100
0010
0000
,
1000
0100
1000
0000
,
0001
0100
0001
0000
,
1000
0100
0001
0100
,
1000
0100
1000
0000
,
0010
0000
0100
0000
,
0010
0100
0010
0000
,
1000
0000
0001
0000
,
2002
0000
3003
0000
,
0001
1000
0001
1000
,
0020
0030
0200
0300
,
1000
0001
1000
0001
,
0200
0000
2300
0000
,
3020
0000
0032
0000
,
2000
0000
3003
0000
,
0010
0010
1000
0001
,
0010
0010
0001
1000
,
0010
0010
1000
0001
,
0100
0010
0100
0000
,
0100
0100
0001
1000
,
0100
0100
1000
0001
,
0100
0100
0100
0100
,
0001
1000
0001
0000
,
1001
0000
1000
0000
,
1001
0000
0010
0000
,
1001
0000
0100
0000
,
1001
0000
2002
0000
,
3003
1001
2002
0000
,
3003
0010
0020
0000
,
0030
0100
0200
0000
,
0300
0001
2002
3003
,
2002
3003
0020
0000
,
0030
1000
0001
1000
,
0001
0100
0010
0010
,
0010
1000
0100
0010
,
0001
0100
0200
0300
,
2002
3003
0001
0010
,
1000
0010
0001
1000
,
0001
1000
0001
0100
,
1000
0100
0001
0000
,
0110
0000
2002
0000
,
0000
0000
3003
0000
;

//---------------dance-double - ----------------
#NOTES:
     dance-double:
     :
     Easy:
     4:
     0.204401,0.307498,0.108775,0.175713,0.000000,171.000000,158.000000,13.000000,21.000000,0.000000,0.000000,0.204401,0.307498,0.108775,0.175713,0.000000,171.000000,158.000000,13.000000,21.000000,0.000000,0.000000:
00000000
00000000
00000000
00000000
,
00000000
00000000
00000000
00000000
,
00000000
00000000
00000000
00000000
,
00000000
00000000
00000000
00000000
,
10000000
00000000
01000000
00000000
,
00010000
00000000
01000000
00000000
,
00001000
00000000
00000100
00000000
,
00000001
00000000
00000100
00000000
,
00010000
00000000
00001000
00000000
,
00100000
00000000
10000000
00000000
,
00100000
00000000
00001000
00000000
,
00010000
00000000
00000010
00000000
,
00002000
00000000
00000000
00000000
,
00000000
00000000
00003000
00000000
,
00000001
00000000
00000010
00000000
,
00000100
00000000
00000000
00000000
,
00010000
00000000
00100000
00000000
,
01000000
00000000
00000000
00000000
,
10000000
00000000
01000000
00000000
,
00010000
00000000
00000000
00000000
,
00001000
00000000
00000100
00000000
,
00000001
00000000
00000000
00000000
,
00001000
00000000
00000000
00000000
,
00010000
00000000
00000000
00000000
,
10010000
00000000
00000000
00000000
,
00100000
01000000
00100000
01000000
,
00010000
00010000
00000000
00000000
,
00001000
00010000
00001000
00010000
,
00000100
00001000
00001001
00000000
,
00000100
00000010
00000100
00000010
,
00001000
00001000
00000000
00000000
,
00000100
00010000
00001000
00010000
,
00001000
00100000
00010000
00000000
,
01000000
00000000
10000000
00000000
,
00100000
00000000
00010000
00000000
,
00000100
00000000
00001000
00000000
,
00000010
00000000
00000001
00000000
,
00000100
00000010
00000100
00000010
,
00001000
00001000
00000000
00000000
,
00000100
00000000
00010000
00000000
,
00001000
00000000
00010000
00000000
,
00001000
00000000
01000000
00000000
,
00100000
00000000
10000000
00000000
,
01000000
00000000
00010000
00000000
,
00001000
00000000
00000010
00000000
,
00000001
00000000
00000100
00000000
,
00022000
00000000
00033000
00000000
,
00100000
00010000
01000000
01000000
,
00100000
10000000
01000000
01000000
,
00001000
00010000
00000010
00000010
,
00001000
00000100
00000001
00001001
,
00000010
00000010
00002000
00003000
,
00010000
00010000
00200000
00300000
,
10000000
01000000
00020000
00030000
,
00001000
00000100
00001001
00000000
,
00000010
00000100
00001001
00000000
,
00000100
00000010
00002000
00003000
,
00001000
00000000
00020000
00030000
,
00010000
00000000
02200000
00000000
,
03300000
00000000
20020000
00000000
,
30030000
00000000
22000000
00000000
,
33000000
00000000
00220000
00000000
,
00330000
00000000
00002000
00000000
,
00023000
00000000
00002000
00000000
,
00033000
00000000
00010000
00001000
,
00010000
00001000
01000000
01000000
,
01000000
00000000
10000000
00010000
,
10000000
00010000
00100000
00001000
,
00010000
00000000
00001000
00010000
,
00001000
00010000
00000010
00000010
,
00000010
00000000
00000100
00000001
,
00001000
00000000
00001001
00000000
,
00011000
00000000
20020000
00000000
,
00000000
00000000
30030000
00000000
;

//---------------dance-single - ----------------
#NOTES:
     dance-single:
     :
     Challenge:
     16:
     0.710024,0.922494,0.167346,0.585710,0.623363,594.000000,574.000000,20.000000,70.000000,0.000000,0.000000,0.710024,0.922494,0.167346,0.585710,0.623363,594.000000,574.000000,20.000000,70.000000,0.000000,0.000000:
// measure 0
0000
0000
0000
0000
,  // measure 1
0000
0000
0000
0000
,  // measure 2
0000
0000
0000
0000
,  // measure 3
0000
0000
0000
0000
,  // measure 4
0010
1000
0010
0100
0010
1000
0100
0010
,  // measure 5
0001
0000
0100
0000
0001
0000
0010
0000
0001
0100
0000
0010
0100
0000
0001
0100
,  // measure 6
0010
0100
0010
1000
0010
0001
0010
1000
,  // measure 7
0100
0000
1000
0000
0010
0000
0100
0000
0001
0010
0000
0001
0100
0000
0001
0010
,  // measure 8
0100
0000
0010
0000
1000
0000
0010
0000
0100
0001
0000
0001
0010
0000
0001
0000
,  // measure 9
0100
0000
0010
0000
1000
0000
0100
0000
1000
0010
0000
0010
0100
0000
0010
0100
,  // measure 10
1000
0100
0001
0100
1000
0100
0001
0010
,  // measure 11
1000
0000
0010
0000
0001
0000
0010
0000
0001
0010
0100
0000
0010
0100
1000
0000
,  // measure 12
2002
0000
0000
0000
,  // measure 13
0000
0000
0000
0000
3003
0000
0010
1000
,  // measure 14
1001
0000
0010
0001
0100
0000
0010
1000
,  // measure 15
0200
0000
2300
0000
3002
0000
0013
0001
,  // measure 16
0100
0000
0010
1000
0100
0000
0010
0000
,  // measure 17
0002
0000
0203
0000
2300
0000
3010
1000
,  // measure 18
0200
0000
0301
0100
2000
0000
3100
0001
,  // measure 19
2000
0000
3002
0000
0203
0000
0310
1000
,  // measure 20
0100
1000
0010
0100
0001
0000
1001
0000
,  // measure 21
0220
0000
0330
2000
,  // measure 22
0002
0000
3003
0020
,  // measure 23
0200
0000
0330
1000
,  // measure 24
2002
0000
0000
0000
3003
0000
0010
0001
,  // measure 25
0100
0001
0010
0001
0100
0000
0010
0000
1000
0100
1000
0010
1000
0000
0100
0000
,  // measure 26
2000
0001
0000
0000
3002
0100
0000
0000
0103
0010
0001
0010
0100
0000
0010
0000
,  // measure 27
1000
0000
0100
1000
0010
0000
0100
0000
0002
1000
0000
0000
2003
0010
0000
0000
,  // measure 28
3020
0100
0000
0000
0230
0001
0000
0000
0302
0000
0000
0000
0013
0000
0001
0000
,  // measure 29
0100
0010
0100
0010
1000
0000
0100
0000
1000
0010
0100
0010
1000
0000
0100
0000
,  // measure 30
2000
0010
0000
0000
3020
0100
0000
0000
0130
0001
0010
0001
0100
0000
0001
0000
,  // measure 31
1000
0010
0100
0000
0001
0000
0100
0000
0010
1000
0100
0000
1000
0000
0001
0000
,  // measure 32
0200
0010
0000
0000
0320
1000
0000
0000
2030
0100
0000
0000
3001
0000
0100
0000
,  // measure 33
0010
0000
1000
0010
1000
0000
0010
0000
0001
0000
0010
1000
0010
0000
1000
0000
,  // measure 34
0100
0000
0001
0100
0001
0000
0100
0000
1000
0000
0010
0000
0100
0000
0001
0000
,  // measure 35
0100
0000
0010
0100
0010
0000
0100
0000
0001
0000
1000
0100
1000
0000
0001
0000
,  // measure 36
0010
1000
0010
0000
0100
0001
0100
0000
0010
1000
0010
0000
0100
0000
0001
0000
,  // measure 37
1000
0100
0010
0100
1000
0000
0001
0000
0100
0010
1000
0010
0100
0000
0001
0000
,  // measure 38
0020
0001
0000
0000
0032
0100
0000
0000
0103
0010
1000
0010
0100
0000
0001
0000
,  // measure 39
2000
0100
0000
0000
3010
0000
0100
0000
0002
0010
0000
0000
0103
0000
0010
0000
,  // measure 40
2000
0000
0000
0000
3001
0010
0100
1000
0001
0010
0100
0010
0001
0000
0100
0000
,  // measure 41
0010
1000
0100
1000
0020
0000
0230
0000
,  // measure 42
0302
0000
0000
0000
0013
0001
0100
0001
0010
0000
0001
0000
0100
0010
1000
0010
,  // measure 43
0100
0001
0010
1000
0200
0000
1300
0000
,  // measure 44
1001
0000
0000
0000
0010
0000
0000
0010
0220
0000
0000
0000
0330
0000
0000
1000
,  // measure 45
2002
0000
0000
0000
3003
0000
0000
0001
2002
0000
0000
0000
3003
0000
0000
0010
,  // measure 46
0220
0000
0000
0330
,  // measure 47
0001
0100
1000
0000
1000
0100
0001
0000
1000
0000
0001
0000
1001
0000
0000
0000
,  // measure 48
1000
0010
0001
0000
0001
0010
1000
0000
0001
0000
1000
0000
1001
0000
0000
0000
,  // measure 49
0001
0100
1000
0000
0100
0001
1000
0000
0010
0000
0010
0000
1001
0000
0000
0000
,  // measure 50
1000
0010
0001
0000
0001
0010
0100
0000
0001
0000
1000
0000
1001
0000
0000
0000
,  // measure 51
2000
0000
0100
0000
3002
0000
0100
0000
1003
0100
0010
0001
0010
0100
1000
0000
,  // measure 52
0001
0100
0001
0100
0001
0000
1000
0100
1000
0100
1000
0001
0100
0000
0000
0000
,  // measure 53
0020
0000
1000
0000
0032
0000
0100
0000
0013
0100
1000
0100
0010
0000
1000
0000
,  // measure 54
0100
0010
0001
0010
0100
0000
1000
0000
0001
0100
0001
0000
0100
0001
0100
0000
,  // measure 55
0001
0100
0001
0000
0010
0000
1000
0000
0100
1000
0100
0000
1000
0100
1000
0000
,  // measure 56
0100
1000
0100
0000
1000
0000
0010
0000
0100
0000
0001
0100
0001
0100
0001
0100
,  // measure 57
0001
0000
1000
0100
0010
0001
0010
0100
1000
0000
0010
1000
0010
1000
0010
1000
,  // measure 58
0010
0000
0100
0010
1000
0001
0100
0010
0100
0000
0001
0010
0100
1000
0001
0010
,  // measure 59
0100
1000
0001
0100
0010
0000
1000
0000
0100
0000
1000
0100
0010
0001
1000
0100
,  // measure 60
0010
0001
1000
0100
0010
0000
1000
0000
0001
0000
0100
0010
0100
0010
0100
0010
,  // measure 61
0100
0000
0001
0000
0010
0000
0100
0000
1001
0000
0100
0010
0100
0010
0100
0010
,  // measure 62
0100
0010
1000
0100
1000
1000
0100
0100
,  // measure 63
0010
0010
0001
0001
0220
0000
0000
0000
,  // measure 64
0330
0000
0000
0000
0001
0000
1000
0000
0100
0000
1000
0001
1000
0000
0010
0000
,  // measure 65
0100
0000
0001
0000
0010
0000
0001
0000
0200
0010
0000
0000
0320
1000
0000
0000
,  // measure 66
1030
0100
1000
0100
1000
0000
0001
0000
0100
0000
0010
1000
0010
0000
0100
0000
,  // measure 67
0002
0010
0000
0000
0023
0100
0000
0000
0230
0000
0000
0000
0301
0010
0001
0100
,  // measure 68
0001
0010
0100
1000
0010
1000
0100
1000
0010
0000
0100
0010
0100
0000
0001
0000
,  // measure 69
2000
0001
0000
0000
3002
0100
0000
0000
0203
0000
0000
0000
0310
1000
0100
1000
,  // measure 70
0010
0100
0001
0100
0010
1000
0100
0010
0001
0000
0100
0010
0100
0000
0001
0000
,  // measure 71
1000
0000
0000
0000
1001
0000
0000
0000
0220
0000
0000
0000
0330
0000
0000
0001
,  // measure 72
0202
0000
0000
0000
0303
0000
0000
1000
2200
0000
0000
0000
0000
0000
0000
0000
,  // measure 73
0000
0000
3300
0000
;

//---------------dance-double - ----------------
#NOTES:
     dance-double:
     :
     Challenge:
     16:
     0.663407,0.860994,0.117142,0.476936,0.485303,555.000000,541.000000,14.000000,57.000000,0.000000,0.000000,0.663407,0.860994,0.117142,0.476936,0.485303,555.000000,541.000000,14.000000,57.000000,0.000000,0.000000:
00000000
00000000
00000000
00000000
,
00000000
00000000
00000000
00000000
,
00000000
00000000
00000000
00000000
,
00000000
00000000
00000000
00000000
,
10000000
01000000
00100000
01000000
10000000
01000000
00100000
00001000
,
00010000
00000000
00000100
00000000
00001000
00000000
00000100
00000000
00010000
00000100
00000000
00000100
00001000
00000000
00000010
00000100
,
00000001
00000100
00000010
00000100
00000001
00001000
00000100
00001000
,
00000010
00000000
00010000
00000000
00001000
00000000
00010000
00000000
00000100
00010000
00000000
00010000
00001000
00000000
00010000
00000000
,
00001000
00000000
00100000
00000000
00010000
00000000
01000000
00000000
00100000
10000000
00000000
10000000
01000000
00000000
10000000
00000000
,
00100000
00000000
01000000
00000000
00001000
00000000
00010000
00000000
00000100
00001000
00000000
00001000
00000010
00000000
00000100
00000000
,
00000001
00000100
00000010
00001000
00000001
00000100
00000010
00010000
,
00001000
01000000
00010000
10000000
00010000
10000000
00100000
01000000
,
02200000
00000000
00000000
00000000
,
00000000
00000000
00000000
00000000
03300000
00000000
10000000
01000000
,
00020000
00000000
00130000
00010000
02000000
00000000
03100000
10000000
,
02000000
00000000
23000000
00000000
30020000
00000000
00130000
00001000
,
00010000
00000100
00000010
00000100
00020000
00000000
00032000
00000000
,
02003000
00000000
03200000
00000000
20300000
00000000
30010000
00100000
,
01000000
00100000
00001000
00010000
00000100
00001000
00000010
00000100
,
00000002
00000000
00002003
00000000
00003020
00000000
00001030
00000100
,
00010000
00001000
01000000
00010000
00100000
00000000
00010000
00000000
,
20000000
00000000
30000000
00010000
,
00002000
00000000
00003000
00000001
,
00000020
00000000
00000030
00010000
,
00022000
00000000
00000000
00000000
00033000
00000000
00100000
00010000
,
01000000
00100000
01000000
00100000
01000000
00000000
00010000
00000000
10000000
01000000
00100000
01000000
10000000
00000000
00010000
00000000
,
00200000
00000000
00000000
00000000
00302000
00000000
00000000
00000000
00013000
00000100
00001000
00000100
00010000
00000000
00000100
00000000
,
00001000
00000010
00000100
00000010
00001000
00000000
00000001
00000000
00000200
00000000
00000000
00000000
00000320
00000000
00000000
00000000
,
00001030
00000000
00001100
00000000
01010000
00000000
00100000
10000000
,
01000000
10000000
00100000
10000000
01000000
00000000
10000000
00000000
00010000
00100000
00001000
00100000
00010000
00000000
00100000
00000000
,
00002000
00000000
00000000
00000000
00023000
00000000
00000000
00000000
00030010
00001000
00000100
00001000
00000010
00000000
00000100
00000000
,
00000001
00000010
00000100
00001000
00000010
00000000
00000100
00000000
00000001
00000000
00000000
00000000
00001100
00000000
00000000
00000000
,
00000101
00000000
00001100
00000000
00010100
00000000
00010000
00001000
,
02000000
00000000
03010000
10000000
02000000
00000000
13000000
00100000
,
00020000
00000000
00130000
01000000
00002000
00000000
00013000
00000100
,
00000020
00000000
00000031
00001000
00000200
00000000
00010300
00001000
,
02000000
00000000
00000000
00000000
03020000
00000000
00000000
00000000
00130000
00010000
01000000
00010000
00100000
00000000
00010000
00000000
,
01000000
00100000
10000000
00100000
01000000
00000000
00010000
00000000
00100000
00001000
00010000
00001000
00100000
00000000
00001000
00000000
,
00020000
00000000
00000000
00000000
00030020
00000000
00000000
00000000
00000130
00000001
00000010
00000001
00000100
00000000
00000010
00000000
,
00001000
00000100
00000010
00000100
00001000
00000000
00000010
00000000
00010000
00000000
00000100
00000000
00010000
00000000
00001000
00000000
,
02000000
00000000
00000000
00000000
03010000
00100000
00010000
00100000
01000000
10000000
01000000
10000000
00100000
00000000
01000000
00000000
,
00001000
00010000
00001000
00010000
00000100
00000000
00001000
00000000
00000010
00000000
00000100
00000000
00000001
00000000
00001000
00000000
,
00000200
00000000
00000000
00000000
00001300
00000100
00001000
00000100
00000010
00000001
00000010
00000001
00000100
00000000
00000010
00000000
,
00001000
00000100
00010000
00000100
00001000
00000000
00000100
00000000
00020000
00000000
00000000
00000000
00032000
00000000
00000000
00000000
,
00103000
00000000
00000000
00000000
00010000
00000000
00000000
10000000
01000000
00000000
00000000
00000000
00110000
00000000
00000000
00100000
,
00001000
00000000
00000000
00000000
00001010
00000000
00000000
00001000
00000001
00000000
00000000
00000000
00001001
00000000
00000000
00000001
,
00002002
00000000
00000000
00003003
,
00000001
00000100
00001000
00000000
00001000
00000100
00000001
00000000
00000100
00000000
00000010
00000000
00010000
00000000
00001000
00000000
,
00100000
00010000
01000000
00000000
01000000
00010000
00100000
00000000
00010000
00000000
01000000
00000000
00100000
00000000
00000000
00000000
,
10000000
01000000
00010000
00000000
00010000
01000000
10000000
00000000
00100000
00000000
01000000
00000000
00001000
00000000
00010000
00000000
,
00000010
00001000
00000100
00000000
00000100
00001000
00000010
00000000
00000100
00000000
00000001
00000000
00000010
00000000
00000000
00000000
,
00000020
00000000
00000000
00000000
00000230
00000000
00000000
00000000
00000301
00000010
00000001
00000000
00001000
00000100
00001000
00000000
,
00000010
00000100
00001000
00000100
00000010
00000000
00001000
00000000
00000100
00010000
00001000
00010000
00000100
00000000
00000000
00000000
,
00020000
00000000
00000000
00000000
00032000
00000000
00000000
00000000
01003000
00010000
00100000
00010000
01000000
00000000
00100000
00000000
,
10000000
01000000
00100000
01000000
10000000
00000000
00010000
00000000
01000000
00000000
00100000
10000000
00100000
10000000
00100000
10000000
,
00100000
00000000
10000000
01000000
00100000
00010000
00100000
01000000
10000000
00000000
00010000
01000000
00010000
01000000
00010000
01000000
,
00001000
00000000
00010000
00000100
00001000
00000100
00001000
00000000
00000001
00000000
00000010
00000001
00000010
00000000
00000001
00000010
,
00000001
00000000
00000100
00000010
00000100
00000010
00000100
00000010
00000100
00000000
00010000
00001000
00010000
00001000
00010000
00001000
,
00010000
00000000
00001000
01000000
00001000
01000000
00001000
01000000
00001000
00000000
00010000
00000000
00100000
00000000
01000000
00000000
,
10000000
01000000
00010000
01000000
10000000
00100000
01000000
00001000
,
00010000
00000000
00000010
00000000
00001000
00000000
00000100
00000000
00000010
00000000
00000001
00000100
00000001
00000100
00000001
00000100
,
00000001
00000000
00001000
00000000
00000100
00000000
00010000
00000000
00001000
00000000
01000000
00010000
01000000
00010000
01000000
00010000
,
01000000
00100000
10000000
01000000
10000000
01000000
00100000
00010000
,
00001000
00000100
00000010
00000001
00000200
00000000
00000000
00000000
,
00000300
00000000
00000000
00000000
00000001
00000000
00000010
00000000
00000001
00000100
00000010
00000100
00000001
00000000
00000100
00000000
,
00000010
00001000
00000100
00001000
00000010
00000000
00001000
00000000
00000200
00000000
00000000
00000000
00020300
00000000
00000000
00000000
,
00031000
00100000
00001000
00010000
00001000
00000000
00100000
00000000
00010000
01000000
00100000
01000000
00010000
00000000
00100000
00000000
,
00020000
00000000
00000000
00000000
02030000
00000000
00000000
00000000
23000000
00000000
00000000
00000000
30100000
01000000
00010000
00000000
,
00100000
00001000
00010000
00000000
00000100
00000000
00001000
00000000
00000010
00001000
00000100
00001000
00000010
00000000
00000100
00000000
,
00000002
00000000
00000000
00000000
00002003
00000000
00000000
00000000
00003020
00000000
00000000
00000000
00001030
00000100
00000010
00000001
,
00000010
00000100
00001000
00000000
00000010
00000000
00001000
00000000
00000100
00010000
00000100
00010000
00000100
00000000
00010000
00000000
,
00001000
00000000
00000000
00000000
01000000
00000000
00000000
00000000
01010000
00000000
00000000
00000000
10000000
00000000
00000000
01000000
,
00100000
00000000
00000000
00000000
00001000
00000000
00000000
00010000
00022000
00000000
00000000
00000000
00000000
00000000
00000000
00000000
,
00000000
00000000
00033000
00000000
;

//---------------dance-double - ----------------
#NOTES:
     dance-double:
     :
     Medium:
     9:
     0.387286,0.461247,0.225917,0.267753,0.000000,324.000000,297.000000,27.000000,32.000000,0.000000,0.000000,0.387286,0.461247,0.225917,0.267753,0.000000,324.000000,297.000000,27.000000,32.000000,0.000000,0.000000:
00000000
00000000
00000000
00000000
,
00000000
00000000
00000000
00000000
,
00000000
00000000
00000000
00000000
,
00000000
00000000
00000000
00000000
,
00100000
00000000
10100000
00000000
00100000
10000000
01000000
00000000
,
00100000
00000000
00110000
00000000
00100000
00001000
00010000
00000000
,
00010000
00000000
00000100
00000000
00001000
00000010
00000100
00000000
,
00000001
00000000
00001000
00000000
00000010
00001000
00000100
00000000
,
00010000
00001000
00010000
00001000
,
01000000
00000000
00010000
00000000
00100000
00010000
01000000
00000000
,
00100000
10000000
01000000
00010000
,
00100000
00001000
00010000
00000100
,
00002002
00000000
00000000
00000000
,
00000000
00000000
00000000
00000000
00003003
00000000
00000010
00001000
,
00000100
00010000
00001000
01000000
,
00010000
00000000
00200000
00000000
00300000
00000000
00010000
01000000
,
00100000
00000000
10000000
01000000
00100000
00000000
00010000
00000000
,
00001000
00000000
00010000
00000000
00001000
00000000
00010000
00000100
,
00001000
00000000
00000010
00001000
00000100
00000000
00001000
00000000
,
00000001
00000000
00000200
00000000
00000300
00000000
00000010
00001000
,
00000100
00001000
00010000
00001000
,
00020000
00030000
00000000
00001000
,
02000000
03000000
00200000
00300000
,
00002000
00000000
00000000
00003000
,
00022000
00000000
00000000
00000000
00033000
00000000
00010000
00000100
,
00001000
00000100
00000010
00000001
,
00000100
00000000
00001001
00000000
00000110
00000000
00001000
00000100
,
00000010
00000000
00000001
00000100
00001000
00000000
00010000
00000000
,
00100000
00000000
01010000
00000000
10100000
00000000
10000000
01000000
,
00100000
00000000
01000000
00100000
00010000
00000000
00100000
00000000
,
00001000
00000000
00010000
00000000
00000100
00001000
00000010
00000000
,
00000100
00000000
00000001
00000010
00000100
00000000
00000010
00000000
,
00001100
00000000
00000010
00000000
00001001
00000000
00000010
00001000
,
00000100
00000000
00010000
00001000
00010000
00000000
00001000
00100000
,
00010000
00000000
01000000
00010000
00100000
00000000
00010000
01000000
,
10000000
00000000
00100000
10000000
01000000
00000000
10000000
00100000
,
01000000
00000000
01010000
00000000
00011000
00000000
00000100
00001000
,
00000010
00000000
00000100
00000001
00001000
00000000
00000010
00001000
,
00000100
00000000
00010100
00000000
00001000
00000000
00001000
00100000
,
00010000
00000000
00010000
01000000
00100000
00000000
10000000
00000000
,
20200000
00000000
30300000
00000000
01000000
00010000
00100000
00000000
,
00101000
00000000
00010000
00000100
00001000
00000000
00000010
00000000
,
00002002
00000000
00003003
00000000
00000010
00000000
00001000
00000100
,
00010000
00001000
00010000
00000100
00010000
00000000
00001000
00000000
,
00200000
00300000
02020000
03030000
,
20200000
30300000
00202000
00303000
,
00002002
00000000
00000000
00003003
,
00000100
00000000
00000100
00000000
00000010
00001000
00000100
00000000
,
00010000
00000000
00010000
00000000
00001000
00100000
00010000
00000000
,
01000000
00000000
01000000
00000000
10000000
01000000
00010000
00000000
,
00100000
00000000
00001000
00000000
00010000
00000100
00001000
00000000
,
00000010
00000000
00000010
00000000
00001000
00000100
00001000
00000000
,
00000001
00000100
00000001
00000000
00000010
00000000
00001001
00000000
,
00001000
00000000
00001000
00000000
00000100
00010000
00001000
00000000
,
00010000
00001000
01000000
01000000
,
01000000
00000000
00010000
10000000
01000000
00000000
01000000
00000000
,
01000000
00000000
10000000
00010000
00100000
00000000
00001000
00010000
,
00001000
00000000
00010000
00000100
00001000
00000000
00000001
00001000
,
00000001
00000000
00000010
00001000
00000200
00000000
00000000
00000000
,
00000300
00010000
02000000
00000000
,
03000000
00000000
00010000
00000000
00000100
00001000
00000100
00001000
,
00000100
00000000
00010000
00000000
00001000
01000000
00001000
01000000
,
00001000
01000000
00100000
10000000
,
01000000
00010000
00220000
00000000
,
00330000
00000000
00100000
00001000
00010000
00000000
00000100
00000000
,
00001000
00000010
00000001
00000101
,
00000010
00001000
00000100
00000000
00001000
00000000
00010000
00000000
,
00100000
00010000
02020000
03030000
,
00100000
10000000
01000000
00000000
10000000
01000000
00100000
00000000
,
00001000
00010000
00000200
00000300
,
00001000
00000010
00000100
00000000
00000001
00001000
00000100
00000000
,
00001000
00010000
00110000
00000000
,
00011000
00000000
00022000
00000000
,
00000000
00000000
00033000
00000000
;

//---------------dance-double - ----------------
#NOTES:
     dance-double:
     :
     Hard:
     11:
     0.439880,0.522746,0.276121,0.493670,0.000000,368.000000,335.000000,33.000000,59.000000,0.000000,0.000000,0.439880,0.522746,0.276121,0.493670,0.000000,368.000000,335.000000,33.000000,59.000000,0.000000,0.000000:
00000000
00000000
00000000
00000000
,
00000000
00000000
00000000
00000000
,
00000000
00000000
00000000
00000000
,
00000000
00000000
00000000
00000000
,
00100000
01000000
00010000
00000000
10000000
00100000
01000000
00000000
,
10000000
00010000
01000000
00000000
00010000
00000000
00110000
00000000
,
00100000
00001000
00010000
00000000
00010000
00001000
00000100
00000000
,
00001000
00000100
00000001
00000000
00000010
00000000
00001001
00000000
,
00000001
00000010
00000100
00000000
00000010
00001000
00000100
00000000
,
00001000
00000100
00010000
00000000
00001000
00000000
00011000
00000000
,
00001000
00100000
00010000
00000000
00100000
00010000
01000000
00000000
,
00100000
10000000
01000000
00000000
00100000
00001000
00010000
00000000
,
00022000
00000000
00000000
00000000
,
00000000
00000000
00000000
00000000
00033000
00000000
00010000
00000100
,
00002000
00003000
00000020
00000030
,
00000001
00000010
00001000
00000100
,
00010000
00001000
01000000
00010000
,
02000000
00000000
03000000
00100000
,
10000000
01000000
00100000
00010000
,
01000000
00002000
00000000
00013000
,
00000100
00001000
00000001
00000010
,
00000022
00000000
00000033
00001000
,
00002200
00003000
00020000
00000300
,
00032000
00100000
00010000
00100000
,
00020000
00000000
00000000
00000000
00033000
00000000
00100000
00010000
,
01000000
00000000
00100000
10000000
01000000
00000000
10000000
01000000
,
00100000
00000000
00010000
00000000
00100000
00001000
00010000
00001000
,
00100000
00000000
00001000
00010000
00000100
00000000
00001000
00000001
,
00000100
00000000
00000110
00000000
00001001
00000000
00000010
00001000
,
00000100
00000000
00000100
00010000
00001000
00000000
00001000
01000000
,
00010000
00000000
10010000
00000000
10100000
00000000
00100000
10000000
,
01000000
00100000
00010000
01000000
00100000
00000000
10000000
00000000
,
11000000
00000000
01100000
00000000
00110000
00000000
00100000
00001000
,
00020000
00000000
00030100
00001000
00000020
00000000
00000130
00000001
,
00001000
00000001
00000100
00000001
00002000
00000000
00003100
00010000
,
00002000
00000000
01003000
00010000
00200000
00000000
00310000
01000000
,
00200000
00000000
20300000
00000000
30010000
00100000
01000000
10000000
,
00100000
00000000
10000000
00010000
00100000
00000000
00001000
00010000
,
00000100
00000000
00001000
00000000
00000001
00000000
00001000
00000100
,
00010000
00001000
00010000
00000100
00001000
00000000
00000100
00000000
,
00022000
00000000
00033000
00000000
00100000
00010000
01000000
00100000
,
10000000
01000000
00100000
00010000
01000000
00000000
00100000
00000000
,
20020000
00000000
30030000
00000000
10000000
00100000
01000000
00010000
,
00100000
00010000
01000000
00010000
00100000
00000000
00001000
00000000
,
00022000
00033000
00002200
00003300
,
00000202
00000303
00002200
00003300
,
00022000
00000000
00000000
00033000
,
00100000
00010000
00100000
00010000
01000000
01000000
01000000
00000000
,
00100000
10000000
00100000
10000000
01000000
01000000
01000000
00000000
,
00100000
00001000
00010000
00001000
00010000
00000100
00000100
00000000
,
00001000
00000010
00000100
00000010
00001000
00001000
00001000
00000000
,
00000002
00000000
00002003
00000000
00003010
00000100
00000110
00000000
,
00001000
00000100
00001000
00000000
00010000
00001000
00010000
00000000
,
00011000
00000000
00011000
00000000
00001000
00100000
00010000
00000000
,
00010000
01000000
00100000
01000000
00020000
00000000
20030000
00000000
,
30020000
00000000
01030000
00100000
20000000
00000000
30020000
00000000
,
20030000
00000000
30010000
00100000
00001000
00010000
00001000
00010000
,
00001000
00010000
00000010
00000100
00000001
00000100
00000001
00000100
,
00000001
00000100
00000010
00001000
00000200
00000000
00000000
00000000
,
00000300
00011000
02000000
00000000
,
03000000
00000000
10000000
00000000
00100000
01000000
00010000
01000000
,
00100000
10000000
01000000
00100000
00001000
00010000
00000100
00010000
,
00000100
00001000
00000010
00000100
00000002
00000000
00000023
00000000
,
00000230
00001300
00002002
00000000
,
00003003
00000000
00000010
00001000
00000100
00000000
00001000
00000100
,
00010000
00001000
00100000
00110000
,
10000000
00000000
10000000
01000000
00010000
01000000
10000000
00000000
,
00100000
01010000
00220000
00330000
,
00100000
00001000
00010000
00000000
00010000
00000100
00001000
00000100
,
00010000
00000100
00002200
00003300
,
00000010
00001000
00000100
00000000
00001000
00000100
00000010
00000001
,
00000100
00001100
00002002
00003003
,
00022000
00033000
20020000
00000000
,
00000000
00000000
30030000
00000000
;

//---------------dance-single - ----------------
#NOTES:
     dance-single:
     :
     Medium:
     8:
     0.413583,0.461247,0.242651,0.334692,0.000000,346.000000,317.000000,29.000000,40.000000,0.000000,0.000000,0.413583,0.461247,0.242651,0.334692,0.000000,346.000000,317.000000,29.000000,40.000000,0.000000,0.000000:
// measure 0
0000
0000
0000
0000
,  // measure 1
0000
0000
0000
0000
,  // measure 2
0000
0000
0000
0000
,  // measure 3
0000
0000
0000
0000
,  // measure 4
0010
0001
0010
1000
,  // measure 5
0001
0000
0100
0000
0001
0100
0001
0000
,  // measure 6
1000
0100
0001
0100
,  // measure 7
1000
0000
0001
0000
1000
0001
1000
0000
,  // measure 8
0010
0000
0010
0000
1000
0100
1000
0000
,  // measure 9
0010
0000
0010
0000
0001
0100
0001
0000
,  // measure 10
0100
0010
0100
0000
0010
0100
0010
0000
,  // measure 11
1000
0001
1000
0000
0001
1000
0001
0000
,  // measure 12
2002
0000
0000
0000
,  // measure 13
0000
0000
0000
0000
3003
0000
0010
1000
,  // measure 14
0010
0000
0100
0001
0100
0000
0010
0000
,  // measure 15
0200
0000
0020
0000
0330
0000
0001
1000
,  // measure 16
0001
0000
1000
0001
1000
0000
0010
0000
,  // measure 17
0100
0000
0001
0000
0100
0000
0010
0100
,  // measure 18
0010
0000
1000
0001
1000
0000
0010
0100
,  // measure 19
0010
0000
0100
0000
0001
0000
1000
0100
,  // measure 20
1000
0000
0010
0100
0010
0000
1000
0000
,  // measure 21
2002
0000
3003
0010
,  // measure 22
0200
0000
0000
0310
,  // measure 23
2000
0100
0010
3001
,  // measure 24
2002
0000
0000
0000
3003
0000
0001
1000
,  // measure 25
0100
0000
1000
0001
1000
0000
0010
0100
,  // measure 26
0010
0000
0010
0000
1000
0000
0001
0100
,  // measure 27
0001
0000
1000
0100
1000
0000
0010
0000
,  // measure 28
0001
0000
1000
0000
1001
0000
0010
0100
,  // measure 29
0010
0000
1000
0100
1000
0000
0001
0100
,  // measure 30
0001
0000
0001
0000
1000
0000
0100
1000
,  // measure 31
0100
0000
0001
0100
0001
0000
1000
0000
,  // measure 32
0110
0000
1001
0000
0110
0000
0001
0100
,  // measure 33
0001
0000
1000
0100
1000
0000
0001
0010
,  // measure 34
0100
0000
1000
0100
0010
0000
0001
0100
,  // measure 35
0001
0000
1000
0100
1000
0000
0010
0100
,  // measure 36
0002
0000
0203
0000
2300
0000
3010
0100
,  // measure 37
0010
0000
1000
0100
0010
0000
0001
0000
,  // measure 38
0110
0000
1001
0000
1100
0000
0010
1000
,  // measure 39
0100
0000
0010
0001
0100
0000
0010
0000
,  // measure 40
2002
0000
3003
0000
0010
0000
1000
0100
,  // measure 41
0010
0000
1000
0100
0010
0000
0001
0000
,  // measure 42
0202
0000
0303
0000
0100
0000
0010
1000
,  // measure 43
0100
0000
0010
0001
0100
0000
0010
0000
,  // measure 44
0220
0330
2002
3003
,  // measure 45
2200
3300
0220
0330
,  // measure 46
2002
0000
3003
0000
,  // measure 47
0010
0000
0010
0000
1000
0001
1000
0000
,  // measure 48
0010
0000
0010
0000
0001
1000
0001
0000
,  // measure 49
0100
0000
0100
0000
1000
0001
1000
0000
,  // measure 50
0100
0000
0100
0000
0001
1000
0001
0000
,  // measure 51
1001
0000
1001
0000
0001
0010
0001
0000
,  // measure 52
0100
0010
0100
0000
0001
1000
0100
0000
,  // measure 53
1001
0000
1001
0000
0100
0010
0100
0000
,  // measure 54
0001
0010
0001
0010
0001
0000
0001
0000
,  // measure 55
0001
0000
0001
0100
1000
0000
1000
0000
,  // measure 56
1000
0000
1000
0100
0010
0000
1000
0001
,  // measure 57
1000
0000
0001
0010
0100
0000
0001
1000
,  // measure 58
0001
0000
1000
0100
0020
0000
0000
0000
,  // measure 59
0030
1001
0220
0000
,  // measure 60
0330
0000
1000
0000
0001
0100
0010
0100
,  // measure 61
0001
0000
0100
0000
0010
1000
0100
1000
,  // measure 62
0010
1000
0001
0010
,  // measure 63
0100
1000
0220
0000
,  // measure 64
0330
0000
1000
0001
1000
0000
0001
1000
,  // measure 65
0001
0100
0010
1010
,  // measure 66
0011
0000
1000
0100
0010
0000
1000
0100
,  // measure 67
0010
0000
0001
0000
0200
0000
0301
0010
,  // measure 68
0001
0000
0100
0010
1000
0000
0100
0010
,  // measure 69
1000
0000
0001
0000
0200
0000
1300
0010
,  // measure 70
1000
0000
0001
0100
0001
0000
1000
0100
,  // measure 71
1000
0010
2002
3003
,  // measure 72
0220
0330
2002
0000
,  // measure 73
0000
0000
3003
0000
;

//---------------dance-single - ----------------
#NOTES:
     dance-single:
     :
     Hard:
     12:
     0.525944,0.645746,0.418365,0.384895,0.108775,440.000000,390.000000,50.000000,46.000000,0.000000,0.000000,0.525944,0.645746,0.418365,0.384895,0.108775,440.000000,390.000000,50.000000,46.000000,0.000000,0.000000:
// measure 0
0000
0000
0000
0000
,  // measure 1
0000
0000
0000
0000
,  // measure 2
0000
0000
0000
0000
,  // measure 3
0000
0000
0000
0000
,  // measure 4
0010
1000
0100
1000
0010
0000
0100
0000
,  // measure 5
0001
0010
0001
0100
0001
0000
1000
0000
,  // measure 6
0100
1000
0010
1000
0100
0000
1000
0000
,  // measure 7
0010
0100
0001
0100
0010
0000
1001
0000
,  // measure 8
1000
0100
1000
0010
0100
0010
0100
0000
,  // measure 9
0001
0100
0001
0100
0010
0100
0010
0000
,  // measure 10
1000
0100
0010
0001
0001
0010
0100
1000
,  // measure 11
1000
0100
0010
0001
0001
0010
0100
1000
,  // measure 12
2002
0000
0000
0000
,  // measure 13
0000
0000
0000
0000
3003
0000
0010
0100
,  // measure 14
0010
1000
0100
0001
,  // measure 15
0020
0000
0200
0000
0330
0000
0001
0100
,  // measure 16
0001
0000
1000
0100
1000
0000
0010
0000
,  // measure 17
0100
0000
1001
0000
0110
0000
1000
0100
,  // measure 18
1000
0000
0001
0100
0001
0000
0100
0000
,  // measure 19
0020
0000
0200
0000
0330
0000
0001
0010
,  // measure 20
0100
1000
0001
0100
,  // measure 21
2002
0000
0003
3020
,  // measure 22
0200
0030
0000
0301
,  // measure 23
0002
0010
0100
1003
,  // measure 24
2002
0000
0000
0000
3003
0000
1000
0001
,  // measure 25
1000
0100
1000
0001
1000
0000
0011
0000
,  // measure 26
0110
0000
1100
0000
0001
0100
0010
0100
,  // measure 27
0001
0000
1000
0100
0010
0000
0011
0000
,  // measure 28
1100
0000
0101
0000
1001
0000
0001
0100
,  // measure 29
0010
0100
0001
1000
0100
0000
1000
0010
,  // measure 30
0100
0000
1001
0000
1000
0010
0100
0010
,  // measure 31
1000
0001
0010
0100
1000
0000
1001
0000
,  // measure 32
1100
0000
0101
0000
0011
0000
0001
0100
,  // measure 33
0010
0000
1000
0010
1000
0000
0010
0000
0100
0000
0000
0000
0010
0000
0100
0000
,  // measure 34
0001
0000
1000
0001
1000
0000
0010
0000
0100
0000
0000
0000
0001
0000
0100
0000
,  // measure 35
0010
0000
1000
0010
1000
0000
0010
0000
0100
0000
0000
0000
0010
0000
0100
0000
,  // measure 36
0002
0000
0000
0000
2003
0000
0000
0000
3001
0100
0001
0000
0100
0000
0010
0000
,  // measure 37
2000
0000
3001
0010
0200
0000
1300
0100
,  // measure 38
0002
0000
2003
0000
3010
0100
0010
0100
,  // measure 39
0010
0000
1000
0100
0001
0000
0101
0000
,  // measure 40
1100
0000
0000
0000
0001
0100
0001
0000
0100
0001
0100
0000
0001
0000
0100
0000
,  // measure 41
0010
0000
1000
0100
0010
0000
0011
0000
,  // measure 42
1100
0000
0000
0000
0001
1000
0001
0000
1000
0001
1000
0000
0100
0000
0010
0000
,  // measure 43
0001
0010
0100
1000
0010
0000
1001
0000
,  // measure 44
2200
3300
0022
0033
,  // measure 45
0220
0330
2002
3003
,  // measure 46
0220
0000
0000
0330
,  // measure 47
0001
0100
0001
0100
0010
0010
0110
0000
,  // measure 48
1000
0100
1000
0100
0010
0010
0110
0000
,  // measure 49
0001
0100
1000
0100
0001
0001
1001
0000
,  // measure 50
1000
0100
0001
0100
1000
1000
1001
0000
,  // measure 51
0011
0000
1100
0000
0001
0010
0100
0000
,  // measure 52
1000
0100
0001
0100
1000
1000
1001
0000
,  // measure 53
0101
0000
0101
0000
0001
0100
1000
0000
,  // measure 54
0010
1000
0100
1000
0010
0000
0010
0000
,  // measure 55
0010
0000
0000
0000
1000
0001
1000
0001
1000
0000
0000
0000
0010
0000
0000
0000
,  // measure 56
0001
0000
0000
0000
0010
0100
0010
0100
0010
0000
0000
0000
1000
0001
1000
0001
,  // measure 57
1000
0000
0000
0000
0010
0100
0010
0100
0010
0000
0000
0000
1000
0001
1000
0001
,  // measure 58
1000
0010
2002
0000
,  // measure 59
3003
0110
2002
0000
,  // measure 60
3003
0000
0000
0000
0010
0000
0000
0000
0100
0000
0001
1000
0001
0000
1000
0001
,  // measure 61
1000
0000
0100
0000
0010
0000
0001
0000
0100
0000
0001
1000
0001
0000
1000
0001
,  // measure 62
1000
0001
0100
0010
2000
0000
3020
0000
,  // measure 63
0230
0302
2000
0000
,  // measure 64
3003
0000
0010
1000
0100
1000
0001
1000
,  // measure 65
0100
0010
0001
0000
0101
0000
1001
0000
,  // measure 66
0001
0010
0100
1000
0010
0100
0010
1000
,  // measure 67
0100
0000
0000
0000
1100
0000
0000
0000
0102
0000
0000
0000
0103
0010
0100
0000
,  // measure 68
0010
0100
0010
0000
0100
0000
0001
0000
0010
0000
0001
0000
0100
0000
0010
0000
,  // measure 69
1000
0000
0000
0000
1100
0000
0000
0000
0102
0000
0000
0000
0013
0001
0010
0000
,  // measure 70
0001
0100
0001
0000
0100
0000
0010
0000
1000
0000
0010
0000
0100
0000
0001
0000
,  // measure 71
0010
0011
0220
0330
,  // measure 72
2200
3300
2002
0000
,  // measure 73
0000
0000
3003
0000
;
