#TITLE:Around the Boost;
#SUBTITLE:-Kille-Re-Mix-;
#ARTIST:m.c.kMAD of NowheRTM;
#TITLETRANSLIT:;
#SUBTITLETRANSLIT:;
#ARTISTTRANSLIT:;
#GENRE:;
#CREDIT:;
#BANNER:Around the Boost -Kille-Re-Mix-.png;
#BACKGROUND:Around the Boost -Kille-Re-Mix--bg.png;
#LYRICSPATH:;
#CDTITLE:;
#MUSIC:Around the Boost -Kille-Re-Mix-.ogg;
#OFFSET:0.000000;
#SAMPLESTART:117.019951;
#SAMPLELENGTH:12.679996;
#SELECTABLE:YES;
#DISPLAYBPM:170.000000;
#BPMS:0.000000=170.000000
,220.000000=168.000000
,224.000000=169.979996
,252.000000=168.000000
,256.000000=170.000000
;
#STOPS:
;
#BGCHANGES:;
#KEYSOUNDS:;
#ATTACKS:;

//---------------dance-single - ----------------
#NOTES:
     dance-single:
     :
     Hard:
     15:
     0.715243,0.841626,0.347205,0.118050,0.420118,721.000000,671.000000,50.000000,17.000000,0.000000,0.000000,0.715243,0.841626,0.347205,0.118050,0.420118,721.000000,671.000000,50.000000,17.000000,0.000000,0.000000:
0000
0000
0000
0000
,
0000
0000
0000
0000
,
0000
0000
0000
0000
,
0000
0000
0000
0000
,
0010
0000
0000
0010
0000
0000
0010
0000
0000
0000
0001
0000
0000
0100
0000
0000
,
1000
0000
0000
1000
0000
0000
1000
0000
0000
0000
0100
0000
0000
0001
0000
0000
,
0010
0000
0000
0010
0000
0000
0010
0000
0000
0000
1000
0000
0000
0100
0000
0000
,
0001
0000
0000
0001
0000
0000
0001
0000
0000
0000
1000
0000
0000
0100
0000
0000
,
1001
0000
0000
0001
0000
0000
0001
0000
0000
0000
0100
0000
0010
0100
0010
0000
,
1000
0000
0000
1000
0000
0000
1000
0000
0001
0000
0100
0000
0010
0000
0000
0000
,
0100
0000
0000
0100
0000
0000
0100
0000
0000
0000
0001
0000
1000
0001
1000
0000
,
0010
0000
0000
0010
0000
0000
1000
0000
0100
0000
1000
0000
0001
0000
0000
0000
,
0010
0000
0000
0010
0000
0000
0010
0000
1000
0000
0001
0000
0100
0000
0010
0000
,
0100
0000
0000
0100
0000
0000
0100
0000
0001
0000
0010
0000
1000
0000
0000
0000
,
0100
0000
0000
0100
0000
0000
0100
0000
0000
0000
1000
0000
0010
0000
0100
0000
,
0001
0000
0000
0001
0000
0000
0001
0000
1000
0000
0100
0000
0010
0000
0000
0000
,
0001
0100
0010
2000
0000
3001
0200
0000
,
0000
0000
0000
0000
0300
0000
0001
1000
,
0002
0000
0000
2003
0000
0000
3010
0200
,
0000
0000
0301
0200
0000
0000
0310
0000
,
1000
0100
1000
0001
0100
0001
0000
0020
,
0000
0000
0000
0000
0030
0000
1000
0001
,
0101
0000
0000
1100
0000
0000
0010
0100
,
0000
0001
1000
0100
0000
0000
1001
0000
,
0001
0100
0001
2000
0000
3010
0100
0000
,
1000
0100
1000
0000
0001
0100
0010
0100
,
0001
0000
1000
0001
1000
0000
0001
0100
,
0000
0001
1000
0000
1000
0000
1001
0000
,
0010
1000
0001
0100
0001
1000
0000
0001
,
0000
0100
0010
0000
1000
0000
0001
0100
,
0001
0100
0001
0000
1000
0010
1000
0000
,
1000
0100
1000
0001
0100
0001
1000
0000
,
1001
0000
0000
0000
0110
0000
0000
0000
0001
0000
0000
0100
0000
0000
0010
0000
,
0000
0000
1000
0000
1001
0000
0000
0000
1000
0000
0000
0010
0000
0000
0100
0000
,
0010
0000
0000
0000
1001
0000
0000
0000
0010
0000
0000
1000
0000
0000
0100
0000
,
0000
0000
0001
0000
1001
0000
0000
0000
0010
0000
0000
0001
0000
0000
0100
0000
,
0010
0000
1000
0000
0010
0000
1000
0000
0001
0000
0000
0100
0000
0000
1001
0000
,
0000
0000
0010
0000
0001
0000
0100
0000
0010
0000
0000
1000
0000
0000
1001
0000
,
0010
0100
0010
0100
0001
1000
0001
1000
,
0001
0010
0000
0100
1000
0000
1001
0000
,
0110
0000
0000
0000
0110
0000
0000
0000
1001
0000
0000
0001
0100
0000
0010
0000
,
0000
0001
0100
0000
0010
0000
0000
0001
1000
0000
0100
0000
1000
0000
0001
0000
,
1000
0000
0000
0001
0000
0000
0100
0000
0000
0000
0001
0000
0000
1001
0000
0000
,
1000
0000
0000
0001
0000
0000
0100
0000
0001
0000
1000
0000
1100
0000
0000
0000
,
1010
0000
0000
0000
0101
0000
0000
0000
0010
0000
0000
0001
0100
0000
0010
0000
,
0000
1000
0100
0000
0010
0000
0000
0001
1000
0000
0010
0000
1000
0000
0001
0000
,
1000
0000
0100
1000
0100
0000
1000
0100
1000
0000
0000
0010
0000
0000
0100
0000
,
0001
0000
0010
0001
0010
0000
0001
0010
0001
0000
0000
0000
0110
0000
0000
0000
,
1001
0000
0000
0000
1001
0000
0000
0000
1000
0000
0001
0100
0001
0000
1000
0000
,
0000
0001
0100
0000
0001
0000
0000
1000
0100
0000
1000
0000
0010
0000
0100
0000
,
0001
0000
1000
0000
0010
0000
1000
0000
0001
0000
0000
1001
0000
0000
1000
0000
,
0001
0000
0010
0000
0001
0000
0100
0000
0010
0000
0000
1001
0000
0000
0100
0000
,
0010
0000
0000
0000
1001
0000
0000
0000
0110
0000
0000
0001
1000
0000
0100
0000
,
0000
1000
0001
0000
0100
0000
0000
0001
1000
0000
0100
0000
0010
0000
0001
0000
,
0100
0010
0100
0010
1000
0001
1000
0001
,
0200
0000
0000
0300
,
0001
0000
1000
0010
1000
0000
0001
0000
1000
0000
0100
0000
1000
0000
0010
0000
,
0100
0001
0010
0001
0100
1000
0100
0001
,
0010
0000
0001
0100
0001
0000
0100
0000
1000
0000
0100
0000
0001
0000
1000
0000
,
0100
0000
1000
0001
1000
0000
0010
0000
0100
0000
0001
0000
1001
0000
0000
0000
,
0010
0000
1000
0001
1000
0000
0010
0000
1000
0000
0100
0000
0010
0000
0001
0000
,
0100
0000
0001
1000
0001
0000
0100
0000
0010
0000
1000
0000
0001
0000
1000
0000
,
0100
1000
0010
1000
0100
0010
0001
0000
,
0100
0001
0010
0001
0100
0010
1000
0000
,
0001
0000
0100
0010
0100
0000
0001
0000
1000
0000
0010
0000
1000
0000
0001
0000
,
1000
0000
0001
0100
0001
0000
1000
0000
0010
0100
0010
0000
1000
0000
0001
0000
,
0010
0000
0001
0100
0001
0000
1000
0000
0010
0000
1000
0000
0100
0000
0010
0000
,
0001
0000
1000
0010
1000
0000
0001
0000
1000
0000
0010
0000
0100
0000
0000
0000
,
1001
0000
0000
1001
0000
0000
1001
0000
0000
1001
0000
0000
0001
0100
0010
0000
,
1001
0000
0000
1001
0000
0000
1001
0000
0000
1001
0000
0000
1000
0010
0100
0000
,
1001
0000
0000
1001
0000
0000
1001
0000
0000
1001
0000
0000
0010
0100
0001
0000
,
2002
0000
3003
0110
,
2000
0000
0000
0000
0000
0000
3001
0000
1001
0000
0000
0001
0000
0000
0001
1000
,
0002
0000
0000
0000
0000
0000
1003
0000
1001
0000
0000
1000
0000
0000
1000
0010
,
1000
0000
0100
0000
0010
0000
0001
0100
0001
0000
0100
0000
0010
0000
1000
0000
,
0001
0000
1000
0000
0100
0000
1000
0001
1000
0000
0001
0000
0100
0000
0010
0000
,
1000
0000
0000
0100
1000
0000
0010
0000
0100
0000
0000
0001
0010
0000
0001
0000
,
0100
0000
0000
0010
1000
0000
0010
0000
0100
0000
0000
0001
0010
0000
0001
0000
,
0100
0000
0010
0000
0100
0000
0010
0000
0110
0000
0000
0001
0000
0000
0100
0010
,
0100
0000
0010
0000
1000
0000
0010
0000
0100
0001
0100
0001
0000
0000
1000
0000
,
0001
0100
0001
0100
0000
0000
0001
0000
1000
0100
1000
0100
0000
0000
1000
0000
,
0010
0100
0010
0100
0000
0000
0010
0000
1000
0001
1000
0001
0000
0000
1000
0000
,
1000
1000
1000
1000
1000
1000
2000
0000
,
3001
0000
0010
0000
0001
1000
0000
0001
0000
1000
0100
0000
2000
0000
0000
0000
,
3001
0000
0010
0000
0001
0000
0100
0000
0001
0000
1000
0001
1000
0000
0001
0000
,
0100
0000
0010
0000
0100
0000
0001
0000
1000
0000
0001
1000
0001
0000
1000
0000
,
0010
0000
0100
0000
0001
0000
0100
0000
0010
0000
1000
0100
1000
0000
0010
0000
,
0100
0000
0001
0000
0010
0000
0001
0000
0100
0000
0001
1000
0001
0000
0100
0000
,
0010
0000
1000
0000
0100
0000
0010
0000
0001
0000
0100
0010
0100
0000
0010
0000
,
1000
0000
0001
0000
0100
0000
0010
0000
1000
0000
0001
0100
0001
0000
1000
0000
,
0001
0010
0001
0100
1000
0100
0001
0010
,
0001
1000
0010
0001
0010
1000
0001
0000
,
1100
0000
1000
0000
0001
0100
0000
0001
0000
1000
0000
0001
0000
0000
0010
0000
,
0011
0000
0001
0000
0100
0001
0000
1000
0000
0001
0000
0100
0000
0000
0010
0000
,
1010
0000
1000
0000
0001
0100
0000
0001
0000
1000
0000
0001
0000
0000
1000
0000
,
1001
0000
0001
0000
0100
0010
0000
0100
0000
0100
0000
0010
0000
0000
1000
0000
,
0001
0000
0100
0000
0010
0000
1000
0010
1000
0000
0010
0000
0100
0000
0001
0010
,
0100
0000
0010
0000
0001
0000
1000
0100
0010
0000
0100
0000
1000
0000
0001
0100
,
0010
0000
0100
0000
0001
0000
1000
0001
0100
0000
0010
0000
1000
0000
0100
0000
,
0010
0001
0010
0000
0001
0100
0001
0000
1000
0010
1000
0000
0001
0100
0010
0000
,
2002
0000
0000
0000
,
3003
0000
0000
0000
;

//---------------dance-double - ----------------
#NOTES:
     dance-double:
     :
     Hard:
     13:
     0.632906,0.771490,0.236100,0.131938,0.312485,638.000000,604.000000,34.000000,19.000000,0.000000,0.000000,0.632906,0.771490,0.236100,0.131938,0.312485,638.000000,604.000000,34.000000,19.000000,0.000000,0.000000:
00000000
00000000
00000000
00000000
,
00000000
00000000
00000000
00000000
,
00000000
00000000
00000000
00000000
,
00000000
00000000
00000000
00000000
,
10000000
00000000
00000000
10000000
00000000
00000000
10000000
00000000
00000000
00000000
00010000
00000000
00000000
00001000
00000000
00000000
,
00000100
00000000
00000000
00000100
00000000
00000000
00000100
00000000
00000000
00000000
00010000
00000000
00000000
00001000
00000000
00000000
,
01000000
00000000
00000000
01000000
00000000
00000000
01000000
00000000
00000000
00000000
00001000
00000000
00000000
00000100
00000000
00000000
,
00000001
00000000
00000000
00000001
00000000
00000000
00000001
00000000
00000000
00000000
00001000
00000000
00000000
00000100
00000000
00000000
,
00010000
00000000
00000000
00010000
00000000
00000000
00010000
00000000
00000000
00000000
00001000
00000000
00000000
01000000
00000000
00000000
,
10000000
00000000
00000000
10000000
00000000
00000000
10000000
00000000
00100000
00000000
01000000
00000000
00010000
00000000
00000000
00000000
,
00100000
00000000
00000000
00100000
00000000
00000000
00100000
00000000
00000000
00000000
00001000
00000000
00000000
00010000
00000000
00000000
,
00000100
00000000
00000000
00000100
00000000
00000000
00000100
00000000
00001000
00000000
00000010
00000000
00000100
00000000
00000000
00000000
,
00000001
00000000
00000000
00000001
00000000
00000000
00000001
00000000
00000000
00000000
00001000
00000000
00000000
00000100
00000000
00000000
,
00010000
00000000
00000000
00010000
00000000
00000000
00010000
00000000
00001000
00000000
01000000
00000000
00010000
00000000
00000000
00000000
,
00100000
00000000
00000000
00100000
00000000
00000000
00100000
00000000
00000000
00000000
00001000
00000000
00000000
00010000
00000000
00000000
,
00000010
00000000
00000000
00000010
00000000
00000000
00000010
00000000
00001000
00000000
00000001
00000000
00000100
00000000
00000000
00000000
,
00000001
00000100
00000001
00001000
00000000
00000100
00020000
00000000
,
00000000
00000000
00000000
00000000
00030000
00000000
00001000
01000000
,
00200000
00000000
00000000
00001000
00000000
00000000
00000000
10000000
,
00000000
00000000
01000000
02300000
00000000
00000000
03000000
00000000
,
00010000
10000000
00100000
01000000
00001000
00010000
00000000
00000200
,
00000000
00000000
00000000
00000000
00000000
00000000
00001300
00000020
,
00000001
00000000
00000000
00001030
00000000
00000000
00000100
00020000
,
00000000
00031000
01000000
00020000
00000000
00000000
10030000
00000000
,
10000000
00010000
01000000
00010000
00000000
10000000
00010000
00000000
,
10000000
00010000
00001000
00000001
,
00000010
00000000
00000001
00000100
00000000
00000001
00001000
00000100
,
00001000
00000001
00010000
00001000
,
01000000
00010000
01000000
00100000
01000000
00010000
00000000
20000000
,
00000000
00100000
00010000
31000000
,
00100000
00001000
00010000
00000000
00000100
00001000
00000001
00000000
,
00001000
00000000
00000100
00001000
00000100
00000000
00000000
00000000
00001000
00000100
00001000
00000000
00000000
00000000
00000100
00000000
,
00010100
00000000
00000000
00000000
00010100
00000000
00000000
00000000
00001000
00000000
00000000
01000000
00000000
00000000
10000000
00000000
,
00000000
00000000
01000000
00000000
00010000
00000000
00000000
00000000
10000000
00000000
00000000
00100000
00000000
00000000
00010000
00000000
,
00100000
00000000
00000000
00000000
01000000
00000000
00000000
00000000
00010000
00000000
00000000
00100000
00000000
00000000
10000000
00000000
,
00000000
00000000
00100000
00000000
00001000
00000000
00000000
00000000
00010000
00000000
00000000
00000010
00000000
00000000
00000100
00000000
,
00000001
00000000
00000100
00000000
00000010
00000000
00000000
00000000
00001000
00000000
00000000
00000100
00000000
00000000
00010000
00000000
,
00000000
00000000
00001000
00000000
01000000
00000000
00000000
00000000
00100000
00000000
00000000
10000000
00000000
00000000
01000000
00000000
,
00100000
00001000
00010000
00000010
00001000
00000010
00000001
00000010
,
00001000
00000000
00000100
00010000
00000000
00001000
01000000
00000000
,
10010000
00000000
00000000
00000000
10010000
00000000
00000000
00000000
01100000
00000000
00000000
10000000
00100000
00000000
01000000
00000000
,
00000000
00010000
00100000
00000000
00001000
00000000
00000000
00100000
00001000
00000000
00010000
00000000
00000000
00000000
00001000
00000000
,
00010000
00000010
00001000
00000000
00000001
00000100
00001000
00000000
,
00010000
01000000
10000000
00000000
00100000
10000000
01000000
00000000
,
10010000
00000000
00000000
00000000
11000000
00000000
00000000
00000000
00110000
00000000
00000000
00100000
00001000
00000000
00010000
00000000
,
00000000
00001000
00010000
00000000
00000010
00000000
00000000
00001000
00000100
00000000
00000010
00000000
00000001
00000000
00000100
00000000
,
00000010
00000000
00001000
00000000
00000100
00000000
00001000
00000000
00000010
00000000
00000000
00001010
00000000
00000000
00001000
00000000
,
00000100
00000000
00010000
00000000
00001000
00000000
01000000
00000000
00010000
00000000
00000000
01010000
00000000
00000000
01000000
00000000
,
00100000
00000000
00000000
00000000
10010000
00000000
00000000
00000000
11000000
00000000
00000000
00100000
00010000
00000000
00100000
00000000
,
00000000
00001000
00010000
00000000
00000100
00000000
00000000
00001000
00000010
00000000
00000100
00000000
00000010
00000000
00001000
00000000
,
00000100
00010000
00001000
00000000
00100000
00010000
01000000
00000000
,
00100000
10000000
01000000
00000000
10000000
00100000
00010000
00000000
,
00001000
00000000
00000000
00000000
00010000
00000000
00000000
00000000
00000010
00000000
00000000
00001000
00000100
00000000
00000010
00000000
,
00000000
00000001
00000100
00000000
00000010
00000000
00000000
00001000
00000100
00000000
00010000
00000000
00001000
00000000
01000000
00000000
,
00100000
01000000
00001000
00000000
00010000
00000100
00001000
00000000
,
00002002
00000000
00000000
00003003
,
00010000
00001000
00010000
00001000
01000000
00010000
01000000
00000000
,
00100000
10000000
01000000
00000000
10000000
00100000
01000000
00000000
,
00001000
00010000
00001000
00010000
00000100
00000000
00010000
00000000
,
00000100
00001000
00000010
00000000
00000100
00000001
00001000
00000000
,
00000010
00001000
00000100
00001000
00000010
00000100
00000000
00000001
,
00000000
00001000
00000100
00000000
00010000
00000000
00001000
00100000
,
00010000
00000000
01000000
00100000
10000000
01000000
00100000
00010000
,
01000000
01000000
10010000
01100000
,
10000000
00100000
10000000
00100000
10000000
01000000
00100000
00000000
,
00001000
00010000
00001000
00000000
00010000
00000010
00001000
00000000
,
00000001
00000100
00000001
00000100
00000001
00001000
00000001
00000000
,
00001000
00000100
00010000
00000000
00001000
00100000
00010000
00000000
,
01010000
00000000
00000000
01010000
00000000
00000000
01010000
00000000
00000000
01010000
00000000
00000000
00011000
00000000
00000000
00000000
,
00001100
00000000
00000000
00001100
00000000
00000000
00001100
00000000
00000000
00001100
00000000
00000000
00011000
00000000
00000000
00000000
,
10010000
00000000
00000000
10010000
00000000
00000000
10010000
00000000
00000000
10010000
00000000
00000000
00101000
00000000
00000000
00000000
,
00020200
00000000
00000000
00030300
,
00000020
00000000
00000000
00000000
00000000
00000000
00000130
00000000
00000110
00000000
00000000
00000001
00000000
00000000
00001000
00000100
,
00002000
00000000
00000000
00000000
00003200
00000000
00000000
00000000
00010300
00000000
00000000
00011000
00000000
00000000
00001000
00100000
,
00001000
00000000
00100000
00000000
00010000
00000000
01000000
00000000
10000000
00000000
01000000
00000000
00010000
00000000
00100000
00010000
,
00100000
00000000
00001000
00000000
00010000
00000000
00001000
00010000
00001000
00000000
00010000
00000000
00000010
00001000
00000010
00000000
,
00001000
00000000
00000000
00000100
00010000
00000000
00001000
00000000
00100000
00000000
00010000
00000000
01000000
00000000
00100000
00000000
,
10000000
00000000
00000000
00010000
10000000
00000000
00010000
00000000
01000000
00000000
00001000
00000000
00010000
00000000
00000100
00000000
,
00001000
00000010
00000100
00000001
00000100
00001000
00000100
00000001
,
00001000
00000000
00000100
00000000
00010000
00000000
00001000
00000000
00100000
00001000
00100000
00001000
00000000
00000000
00100000
00000000
,
00010000
10000000
00010000
10000000
00000000
00000000
00010000
00000000
01000000
00001000
01000000
00001000
00000000
00000000
00010000
00000000
,
00000010
00001000
00000010
00001000
00000000
00000000
00000001
00000000
00001000
00000100
00001000
00000100
00000000
00000000
00010000
00000000
,
00001000
00001000
00001000
00001000
00001000
00001000
00002000
00000000
,
00103000
00000000
00010000
00000000
01000000
00010000
00000000
01000000
00000000
00100000
10000000
00000000
00200000
00000000
00000000
00000000
,
10300000
00000000
00100000
00000000
01000000
00010000
00000000
01000000
00000000
00000000
00010000
00000000
00100000
00000000
00001000
00000000
,
00010000
00000000
00000010
00000000
00001000
00000100
00000000
00001000
00000000
00000000
00000001
00000000
00001000
00000000
00000100
00000000
,
00010000
00000000
00001000
00000000
01000000
00010000
00000000
01000000
00000000
00000000
00100000
00000000
10000000
00000000
01000000
00000000
,
00100000
00000000
00001000
00000000
00010000
00000100
00000000
00010000
00000000
00000000
00000100
00000000
00001000
00000000
00000010
00000000
,
00000100
00000000
00000001
00000000
00001000
00000001
00000000
00001000
00000000
00000000
00000100
00000000
00010000
00000000
00001000
00000000
,
01000000
00000000
00010000
00000000
10000000
00010000
00000000
01000000
00000000
00000000
00001000
00000000
00010000
00000000
00000010
00000000
,
00001000
00000000
00000100
00000000
00000010
00000001
00000000
00000100
00000000
00000000
00000010
00000000
00010000
00000000
00001000
00000000
,
00100000
00000000
00010000
00000000
01000000
00100000
00000000
10000000
00000000
00010000
10000000
00000000
00100000
00000000
01000000
00000000
,
00100000
10000000
00100000
10000000
00010000
00100000
00010000
00100000
,
00001000
00010000
00000010
00010000
00000100
00001000
00000001
00001000
,
00000100
00010000
00001000
00010000
00000010
00010000
00001000
00010000
,
00001000
01000000
00001000
00010000
00001000
01000000
00010000
10000000
,
01000000
00100000
01000000
10000000
00010000
01000000
10000000
01000000
,
00010000
01000000
00001000
00010000
00000100
00001000
00000100
00000001
,
00000100
00001000
00000010
00010000
00001000
00100000
00010000
01000000
,
00100000
00000000
10000000
01000000
10000000
00000000
00010000
00100000
00010000
00000000
01000000
00001000
01000000
00000000
00001000
00000000
,
00022000
00000000
00000000
00000000
,
00033000
00000000
00000000
00000000
;

//---------------dance-single - ----------------
#NOTES:
     dance-single:
     :
     Medium:
     10:
     0.546600,0.596152,0.687467,0.201379,0.055553,551.000000,452.000000,99.000000,29.000000,0.000000,0.000000,0.546600,0.596152,0.687467,0.201379,0.055553,551.000000,452.000000,99.000000,29.000000,0.000000,0.000000:
0000
0000
0000
0000
,
0000
0000
0000
0000
,
0000
0000
0000
0000
,
0000
0000
0000
0000
,
0001
0000
0000
0001
0000
0000
0001
0000
0000
0000
1000
0000
0000
0000
0000
0000
,
1000
0000
0000
1000
0000
0000
1000
0000
0000
0000
0001
0000
0000
0000
0000
0000
,
0100
0000
0000
0100
0000
0000
0100
0000
0000
0000
0010
0000
0000
0000
0000
0000
,
1000
0000
0000
1000
0000
0000
1000
0000
0000
0000
0001
0000
0000
0000
0000
0000
,
0010
0000
0000
0010
0000
0000
0010
0000
0000
0000
0001
0000
0000
0000
1000
0000
,
0001
0000
0000
0001
0000
0000
0001
0000
1000
0000
0000
0000
1001
0000
0000
0000
,
0010
0000
0000
0010
0000
0000
0010
0000
0000
0000
1000
0000
0000
0000
0100
0000
,
1000
0000
0000
1000
0000
0000
1000
0000
0001
0000
0000
0000
1001
0000
0000
0000
,
0020
0000
1030
0001
,
0200
0000
0301
1000
,
0020
0000
0130
0001
,
1000
0100
0010
1001
,
0001
0100
0010
0200
0000
0000
0002
0000
,
0000
0000
0303
1000
,
2001
0000
0000
0010
0000
0000
0000
3001
,
0000
0100
0001
1000
0000
0000
0000
0000
,
0020
0000
0230
0000
0302
0000
0000
2000
,
0000
0000
0000
0000
3003
0000
0001
1000
,
0010
0000
0000
1001
0000
0000
1000
0100
,
0000
1000
0010
0200
0000
0000
0300
0000
,
0001
0001
1001
1100
,
1000
1000
1001
0101
,
0010
0010
1001
0110
,
0100
0100
1001
0110
,
0001
0100
0010
0000
0001
0100
0010
0000
,
1000
0010
0100
0000
1000
0010
0100
0000
,
0001
1000
0100
0000
0001
1000
0100
0000
,
0010
1000
0100
0001
,
1001
0000
0000
0000
1100
0000
0000
0000
0001
0000
0000
0001
0000
0000
0100
0000
,
0000
0000
0001
0000
1000
0000
0000
0000
0001
0000
0000
0001
0000
0000
0100
0000
,
0010
0000
0000
0000
1001
0000
0000
0000
0100
0000
0000
0100
0000
0000
0100
0000
,
0000
0000
0001
0000
1000
0000
0000
0000
0010
0000
0000
0010
0000
0000
0010
0000
,
1010
0000
0101
0000
1000
0001
1000
0000
,
0101
0000
1010
0000
0010
0100
0010
0000
,
1100
0000
0011
0000
0100
0010
1000
0000
,
0001
0100
0000
0001
0100
0000
0010
0000
,
1000
0000
1100
0000
0001
0000
1000
0001
,
0000
1000
0001
0000
1000
0100
0010
0001
,
0100
1010
0101
1001
,
0010
0101
1010
1001
,
0110
0000
0110
0000
1001
0000
1000
0100
,
0000
0010
0001
0000
0100
0010
1000
0001
,
1000
0101
0011
1010
,
0001
1010
1100
0101
,
1100
0000
1100
0000
0001
0000
1000
0100
,
0000
0010
0001
0000
1000
0010
0100
0001
,
1000
0000
1001
0000
1000
0010
0100
0000
,
0001
0000
1001
0000
0001
0100
0010
0000
,
1100
0000
0011
0000
0110
0000
1000
0001
,
0000
1000
0100
0000
0010
0001
0100
0000
,
0001
1000
0100
0000
1000
0001
0100
0000
,
2002
0000
0000
3003
,
0001
1000
0010
0000
1000
0000
1100
0000
,
0100
0001
0010
0000
0100
0000
1100
0000
,
0010
0001
0100
0000
1000
0000
0101
0000
,
0100
1000
0001
0000
0100
0000
0011
0000
,
0010
1000
0001
0000
1010
0000
0110
0000
,
0100
0001
0100
0000
1010
0000
1001
0000
,
0100
1000
0010
1000
0100
0000
1001
0000
,
0100
0001
0010
0001
0100
0000
1001
0000
,
0001
0100
0010
0000
1000
0000
1010
0000
,
1000
0001
1000
0000
0010
0000
1010
0000
,
0010
0001
1000
0000
1010
0000
1100
0000
,
0001
1000
0010
0000
1001
0000
0110
0000
,
0001
0000
0000
0001
0000
0000
0001
0000
0000
0001
0000
0000
1001
0000
0000
0000
,
1000
0000
0000
1000
0000
0000
1000
0000
0000
1000
0000
0000
1001
0000
0000
0000
,
0001
0100
0001
0000
1000
0100
1000
0000
,
2002
0000
3003
0010
,
2000
0000
3001
1100
,
0002
0000
1003
0101
,
0010
0100
0010
0000
0001
0000
0110
0000
,
0001
1000
0100
0000
1001
0000
0110
0000
,
1000
0000
0110
0000
0100
0001
0100
0000
,
0001
0000
0110
0000
1000
0100
1000
0000
,
0100
0010
0100
0000
0110
0000
1001
0000
,
0010
0100
0010
0000
0101
0000
1001
0000
,
0202
0303
2200
3300
,
0220
0330
2002
3003
,
2000
0000
0002
0000
,
3003
0010
0001
0000
1001
0000
0110
0000
,
1001
0000
0010
1000
0001
0000
1100
0000
,
0101
0000
0010
1000
0100
0000
1100
0000
,
0101
0000
0010
0001
0100
0000
1001
0000
,
0010
0000
1100
0000
0001
1000
0001
0000
,
1100
0000
0011
0000
0100
0010
1000
0000
,
0101
0000
1100
0000
0001
0010
0100
0000
,
1000
0101
1000
0001
,
1000
0010
0100
0001
1000
0000
1100
0000
,
0001
0100
0001
0100
0010
1000
0010
1000
,
0010
0100
0010
0100
0010
1000
0001
0000
,
1000
0100
1000
0100
0010
0001
0010
0001
,
0100
0010
1000
0001
1000
0100
1000
0000
,
0001
0100
1000
0100
0001
0010
0001
0010
,
0001
1000
0010
1000
0001
1000
0010
0000
,
1000
0010
0001
0010
1000
0100
1000
0001
,
1000
1001
0110
1001
,
2002
0000
0000
0000
,
3003
0000
0000
0000
;

//---------------dance-double - ----------------
#NOTES:
     dance-double:
     :
     Medium:
     10:
     0.536680,0.561084,0.541640,0.124994,0.013888,541.000000,463.000000,78.000000,18.000000,0.000000,0.000000,0.536680,0.561084,0.541640,0.124994,0.013888,541.000000,463.000000,78.000000,18.000000,0.000000,0.000000:
// measure 0
00000000
00000000
00000000
00000000
,  // measure 1
00000000
00000000
00000000
00000000
,  // measure 2
00000000
00000000
00000000
00000000
,  // measure 3
00000000
00000000
00000000
00000000
,  // measure 4
00100000
00000000
00000000
00100000
00000000
00000000
00100000
00000000
00000000
00000000
00000000
00000000
00001000
00000000
00000000
00000000
,  // measure 5
00000100
00000000
00000000
00000100
00000000
00000000
00000100
00000000
00000000
00000000
00000000
00000000
00010000
00000000
00000000
00000000
,  // measure 6
01000000
00000000
00000000
01000000
00000000
00000000
01000000
00000000
00000000
00000000
00000000
00000000
00001000
00000000
00000000
00000000
,  // measure 7
00000010
00000000
00000000
00000010
00000000
00000000
00000010
00000000
00000000
00000000
00000000
00000000
00010000
00000000
00000000
00000000
,  // measure 8
00100000
00000000
10000000
00000000
01000000
10000000
01000000
00000000
,  // measure 9
10000000
00000000
00100000
00000000
00010000
01000000
00010000
00000000
,  // measure 10
00100000
00000000
00001000
00000000
00010000
00000100
00010000
00000000
,  // measure 11
00000010
00000000
00001000
00000000
00000001
00000100
00000001
00000000
,  // measure 12
00000010
00000000
00010000
00000000
00001000
01000000
00001000
00000000
,  // measure 13
01000000
00000000
00100000
00000000
00010000
01000000
00100000
00000000
,  // measure 14
10000000
00000000
00010000
00000000
00100000
00001000
00010000
00000000
,  // measure 15
00000010
00001000
00001001
00001100
,  // measure 16
00000001
00000000
00001000
00000100
00000000
00000000
00020000
00000000
,  // measure 17
00000000
00000000
00000000
00000000
00030000
00000000
00001000
00100000
,  // measure 18
00020000
00000000
00000000
01000000
00000000
00000000
00000000
10030000
,  // measure 19
00000000
10000000
00100000
01000000
00000000
00000000
00000000
00000000
,  // measure 20
00010000
00000000
00100000
00000000
00001000
00010000
00000000
00020200
,  // measure 21
00000000
00000000
00000000
00000000
00030300
00000000
00001000
00000010
,  // measure 22
00000100
00000000
00000000
00001001
00000000
00000000
00000100
00010000
,  // measure 23
00000000
00001000
01000000
00010000
00000000
00000000
10010000
00000000
,  // measure 24
10000000
01000000
00001000
00010000
,  // measure 25
00000100
00000000
00001000
00000000
00000001
00000000
00001000
00000010
,  // measure 26
00000100
00000000
00000001
00001000
00000100
00000000
00001000
00000100
,  // measure 27
00001000
00000000
00000100
00010000
00001000
00000000
01001000
00000000
,  // measure 28
01000000
00010000
01000000
00010000
01000000
00000000
10100000
00000000
,  // measure 29
01000000
00100000
01000000
00100000
01000000
00000000
10010000
00000000
,  // measure 30
00100000
00010000
00001000
00010000
,  // measure 31
00000010
00000100
00002002
00003003
,  // measure 32
00001000
00000000
00100000
00000000
00010000
01000000
00010000
00000000
,  // measure 33
10000000
00000000
00100000
00000000
01000000
00010000
01000000
00000000
,  // measure 34
00001000
00000000
00010000
00000000
00000010
00000100
00000010
00000000
,  // measure 35
00010000
00000000
00001000
00000000
01000000
00010000
01000000
00000000
,  // measure 36
00100000
00000000
01010000
00000000
10000000
00100000
10000000
00000000
,  // measure 37
00010000
00000000
00110000
00000000
00001000
00010000
00001000
00000000
,  // measure 38
00010100
00000000
00001001
00000000
00000100
00001000
00000010
00000000
,  // measure 39
00001000
00000000
00000001
00001000
00000000
00000100
00001000
00000000
,  // measure 40
00000010
00000000
00001000
00000000
00010000
00000000
01000000
00100000
,  // measure 41
00000000
01000000
00100000
00000000
10000000
01000000
00100000
00010000
,  // measure 42
01000000
00000000
00010000
00000000
10000000
00100000
01000000
00000000
,  // measure 43
10010000
00000000
01001000
00000000
00100000
00001000
00010000
00000000
,  // measure 44
00010100
00000000
00001001
00000000
00000100
00000000
00001000
00000010
,  // measure 45
00000000
00001000
00000010
00000000
00001000
00000010
00000100
00000001
,  // measure 46
00001000
00000000
00001100
00000000
00011000
00000000
00001000
01000000
,  // measure 47
00100000
01100000
10010000
11000000
,  // measure 48
00100000
00000000
01010000
00000000
10100000
00000000
01000000
00001000
,  // measure 49
00000000
00010000
00001000
00000000
00010000
00000100
00001000
00000000
,  // measure 50
00001010
00000000
00000101
00000000
00001000
00000010
00010000
00000000
,  // measure 51
00011000
00000000
01010000
00000000
00100000
10000000
01000000
00000000
,  // measure 52
10010000
00000000
01100000
00000000
10010000
00000000
10000000
00010000
,  // measure 53
00000000
01000000
00001000
00000000
00010000
00000100
00001000
00000000
,  // measure 54
00001100
00000000
00000101
00000000
00001000
00000010
00000100
00000000
,  // measure 55
00002002
00000000
00000000
00003003
,  // measure 56
00011000
00000000
01010000
00000000
01000000
00100000
01000000
00000000
,  // measure 57
10000000
00000000
01010000
00000000
00100000
00010000
01000000
00000000
,  // measure 58
00110000
00000000
00011000
00000000
00000100
00001000
00000010
00000000
,  // measure 59
00001001
00000000
00001100
00000000
00000100
00010000
00001000
00000000
,  // measure 60
00110000
00000000
01010000
00000000
00100000
10000000
01000000
10000000
,  // measure 61
00100000
00000000
01010000
00000000
00100000
00001000
00010000
00000000
,  // measure 62
00010100
00000000
00001010
00000000
00000100
00001000
00000010
00000000
,  // measure 63
00001001
00001001
00001100
00011000
,  // measure 64
00100000
00010000
01000000
00000000
10010000
00000000
11000000
00000000
,  // measure 65
00100000
10000000
01000000
00000000
10010000
00000000
00110000
00000000
,  // measure 66
00100000
00001000
00010000
00000000
00010000
00000010
00001000
00000000
,  // measure 67
00000001
00001000
00000100
00000000
00010000
00001000
01000000
00000000
,  // measure 68
01010000
00000000
10100000
00000000
10000000
00100000
01000000
00010000
,  // measure 69
00100000
00000000
00101000
00000000
00010000
00000100
00001000
00000000
,  // measure 70
00001010
00011000
00101000
00011000
,  // measure 71
00020200
00000000
00000000
00030300
,  // measure 72
00002002
00003003
00011000
00000000
,  // measure 73
20020000
30030000
00011000
00000000
,  // measure 74
00000001
00001000
00000100
00001000
00000100
00010000
00001000
00100000
,  // measure 75
00010000
01000000
00100000
10000000
01000000
00000000
00100000
00000000
,  // measure 76
00100000
01000000
00100000
01000000
00010000
00000000
00101000
00000000
,  // measure 77
00010000
00001000
00010000
00001000
00010000
00000000
00001100
00000000
,  // measure 78
00000010
00001000
00000100
00000000
00000001
00000100
00001000
00000000
,  // measure 79
00000010
00000000
00011000
00100000
,  // measure 80
10010000
00100000
00011000
00000100
,  // measure 81
00001001
00000100
00011000
00100000
,  // measure 82
10000000
01000000
00100000
00010000
10000000
01000000
00100000
00010000
,  // measure 83
02000000
00000000
03000000
00200000
,  // measure 84
10300000
00000000
01000000
00000000
10000000
00010000
00100000
00000000
,  // measure 85
01000000
00000000
00001000
00000000
00010000
00000100
00001000
00000000
,  // measure 86
00010000
00000000
00001000
00000000
01000000
00100000
10000000
00000000
,  // measure 87
00100000
00000000
00010000
00000000
01000000
00001000
00010000
00000000
,  // measure 88
00000100
00000000
00001000
00000000
00000010
00001000
00000100
00000000
,  // measure 89
00010000
00001000
01000000
00000000
00100000
10000000
01000000
00000000
,  // measure 90
00100000
00001000
00010000
00000000
00000010
00010000
00000100
00000000
,  // measure 91
00001000
00000001
00000010
00000100
00001000
00000000
00001001
00000000
,  // measure 92
00000100
00010000
00001000
00010000
00000000
00001000
00100000
00000000
,  // measure 93
10000000
00100000
01000000
00000000
00100000
00001000
00010000
00000000
,  // measure 94
00000100
00001000
00000010
00001000
00000010
00000000
00001100
00000000
,  // measure 95
00010000
00001000
01000000
00001000
01000000
00000000
01100000
00000000
,  // measure 96
10000000
01000000
00100000
00010000
10000000
00010000
00000000
10010000
,  // measure 97
00000000
10000000
00100000
00000000
00010000
00000100
00001000
00000000
,  // measure 98
00000010
00000001
00000100
00000000
00001000
00000000
00010000
00000000
,  // measure 99
00100000
10000000
01000000
00000000
00010000
00000000
00001000
00000000
,  // measure 100
00022000
00000000
00000000
00000000
,  // measure 101
00033000
00000000
00000000
00000000
;

//---------------dance-single - ----------------
#NOTES:
     dance-single:
     :
     Easy:
     7:
     0.380934,0.631219,0.458311,0.215267,0.000000,384.000000,318.000000,66.000000,31.000000,0.000000,0.000000,0.380934,0.631219,0.458311,0.215267,0.000000,384.000000,318.000000,66.000000,31.000000,0.000000,0.000000:
0000
0000
0000
0000
,
0000
0000
0000
0000
,
0000
0000
0000
0000
,
0000
0000
0000
0000
,
0001
0001
0001
0001
,
1000
1000
1000
1000
,
0100
0100
0100
0100
,
0010
0010
0010
0010
,
0001
0001
1000
1000
,
0001
0001
1000
1001
,
0010
0010
0100
0100
,
1000
1000
0001
1001
,
0020
0000
1030
0001
,
0200
0000
0301
1000
,
0020
0000
0130
0001
,
1000
0100
0010
1001
,
0001
0000
0000
0010
0000
0000
2002
0000
,
0000
0000
3003
0000
,
1000
0000
0000
0100
0000
0000
0000
0000
,
0001
0000
0000
0100
0000
0000
0000
0000
,
0020
0230
0302
0000
,
2000
0000
3003
0000
,
0010
0000
0000
1001
0000
0000
0000
0100
,
0000
0000
0000
1001
0000
0000
0000
0000
,
0001
0001
0001
0100
,
1000
1000
1000
0100
,
0010
0010
1001
0000
,
0100
0100
1001
0000
,
0001
0100
0001
0010
,
1000
0100
1000
0010
,
0001
0100
1000
0100
,
0002
0000
0000
1003
,
1001
0100
0010
0000
,
1001
0010
0100
0000
,
0100
1000
0010
0001
,
0100
0001
0020
0030
,
1010
0000
1001
0000
,
0101
0000
1001
0000
,
1000
0010
0001
0100
,
1000
0000
0000
0001
0000
0000
1001
0000
,
1000
0000
0100
0000
0001
0000
0000
1000
,
0000
0001
1000
0010
,
0100
0010
0100
0000
,
0010
0100
0010
0000
,
0010
0000
0010
0000
1000
0000
0000
0001
,
0000
1000
0001
0010
,
1000
0001
0010
0000
,
0001
1000
0100
0000
,
1001
0000
1001
0000
0010
0000
0000
1000
,
0000
0100
0001
0010
,
1000
0001
1000
0000
,
0001
1000
0001
0000
,
1001
0000
1001
0000
0010
0000
0000
1000
,
0000
0100
0001
0100
,
1000
0100
0010
0001
,
2002
0000
0000
3003
,
0001
0010
1000
0000
,
0100
0010
0100
0000
,
0010
0001
1000
0000
,
0100
1000
0100
0000
,
0010
1000
1000
0110
,
0100
0001
0010
1001
,
0100
1000
0100
1001
,
0100
0010
0100
1001
,
0001
0010
1000
1010
,
1000
0001
0010
1010
,
0010
0001
1000
1100
,
0001
0010
0001
0110
,
0001
0001
0001
1001
,
1000
1000
1000
1001
,
0001
0101
1000
1100
,
2002
0000
3003
0010
,
2000
0000
3001
0110
,
0002
0000
1003
0110
,
1000
1010
0001
0101
,
1000
1010
0001
0101
,
1000
0100
0010
1001
,
0001
0100
0010
1001
,
0100
0010
0100
1001
,
0010
0100
0220
0330
,
2002
3003
2200
3300
,
0220
0330
0022
0033
,
2000
0000
0002
0000
,
3003
0000
0000
0110
,
1000
0010
0001
0100
,
0001
0010
0100
1000
,
0100
0010
0001
1000
,
0010
0100
0001
1001
,
0100
0010
0100
1000
,
0001
0100
0001
0010
,
1000
0001
1000
0001
,
1000
0010
0001
0100
,
0001
0100
0110
0000
,
1000
0010
0110
0000
,
1000
0100
0110
0000
,
0001
1000
1001
0000
,
0001
0101
1000
1100
,
0010
1010
0001
1001
,
1010
1010
0011
0011
,
1001
1001
0110
1001
,
2002
0000
0000
0000
,
3003
0000
0000
0000
;

//---------------dance-single - ----------------
#NOTES:
     dance-single:
     :
     Beginner:
     4:
     0.205347,0.280542,0.118050,0.131938,0.000000,207.000000,190.000000,17.000000,19.000000,0.000000,0.000000,0.205347,0.280542,0.118050,0.131938,0.000000,207.000000,190.000000,17.000000,19.000000,0.000000,0.000000:
0000
0000
0000
0000
,
0000
0000
0000
0000
,
0000
0000
0000
0000
,
0000
0000
0000
0000
,
0001
0000
0001
0000
,
1000
0000
1000
0000
,
0100
0000
0100
0000
,
0010
0000
0010
0000
,
0001
0000
1000
0000
,
0001
0000
1000
0000
,
0010
0000
0100
0000
,
0010
0000
0100
0000
,
0010
0000
1000
0000
,
0010
0000
0001
0000
,
0100
0000
1000
0000
,
0100
0000
0001
0000
,
0010
0000
0000
0010
0000
0000
0020
0000
,
0000
0000
0030
0000
,
0100
0000
0000
0100
0000
0000
0000
0000
,
0200
0000
0300
0000
,
0010
0000
0010
0000
,
0020
0000
0030
0000
,
1000
0000
0000
1000
0000
0000
0000
0000
,
2002
0000
3003
0000
,
0001
0000
0001
0000
,
1000
0000
1000
0000
,
0010
0000
0010
0000
,
0100
0000
0100
0000
,
0001
0000
0001
0000
,
1000
0000
1000
0000
,
0001
0000
0001
0000
,
0020
0000
0030
0000
,
1000
1000
1000
0000
,
0000
0001
0001
0000
,
0010
0010
0010
0000
,
0000
0100
0100
0000
,
0110
0000
0000
0000
,
1001
0000
0000
0000
,
0010
0010
0010
0000
,
2002
0000
3003
0000
,
0010
0000
1001
0000
,
0010
0000
1001
0000
,
0100
0000
0100
0000
,
0010
0000
0010
0000
,
0100
0000
1001
0000
,
0100
0000
1001
0000
,
1000
0000
1000
0000
,
0001
0000
0001
0000
,
1000
1000
1000
0000
,
0001
0000
1001
0000
,
0010
0000
0010
0000
,
0100
0000
0100
0000
,
0001
0001
0001
0000
,
1000
0000
1001
0000
,
1000
0000
0010
0000
,
0200
0000
0300
0000
,
0001
0000
1000
0000
,
0100
0000
0100
0000
,
0010
0000
1000
0000
,
0100
0000
0100
0000
,
0010
0000
1000
0000
,
0100
0000
0010
0000
,
0100
0000
0100
0000
,
0100
0000
0100
0000
,
0001
0000
1000
0000
,
1000
0000
0010
0000
,
0001
0000
1000
0000
,
0001
0000
0001
0000
,
0002
0000
0003
0000
,
2000
0000
3000
0000
,
0002
0003
2000
3000
,
2002
0000
3003
0000
,
0010
0000
1001
0000
,
0100
0000
1001
0000
,
1000
1000
1000
0000
,
0001
0001
0001
0000
,
0010
0000
1001
0000
,
0100
0000
1001
0000
,
0100
0100
0100
0000
,
0010
0010
0010
0000
,
1000
0000
0100
0000
,
0010
0000
0001
0000
,
2002
0000
0000
0000
,
3003
0000
0000
0000
,
1000
0000
0001
0000
,
1000
0000
0001
0000
,
0100
0000
0010
0000
,
0100
0000
0010
0000
,
0001
0000
1000
0000
,
0001
0000
1000
0000
,
1000
0000
0001
0000
,
1000
0000
0001
0000
,
0001
0000
0010
0000
,
1000
0000
0010
0000
,
1000
0000
0100
0000
,
0001
0000
0100
0000
,
0001
0001
0001
0000
,
1000
1000
1000
0000
,
0010
0010
0010
0010
,
0010
0000
0000
0000
,
2002
0000
0000
0000
,
3003
0000
0000
0000
;

//---------------dance-double - ----------------
#NOTES:
     dance-double:
     :
     Easy:
     6:
     0.328357,0.631219,0.444423,0.194435,0.000000,331.000000,267.000000,64.000000,28.000000,0.000000,0.000000,0.328357,0.631219,0.444423,0.194435,0.000000,331.000000,267.000000,64.000000,28.000000,0.000000,0.000000:
// measure 0
00000000
00000000
00000000
00000000
,  // measure 1
00000000
00000000
00000000
00000000
,  // measure 2
00000000
00000000
00000000
00000000
,  // measure 3
00000000
00000000
00000000
00000000
,  // measure 4
00100000
00000000
00010000
00000000
,  // measure 5
00001000
00000000
00010000
00000000
,  // measure 6
01000000
00000000
00010000
00000000
,  // measure 7
00001000
00000000
00010000
00000000
,  // measure 8
00100000
00000000
10000000
00000000
,  // measure 9
01000000
00000000
00010000
00000000
,  // measure 10
00100000
00000000
00001000
00000000
,  // measure 11
00010000
00000000
00000100
00000000
,  // measure 12
00000001
00000000
00000100
00000000
,  // measure 13
00001000
00000000
00000100
00000000
,  // measure 14
00010000
00000000
00001000
00000000
,  // measure 15
00010000
00000000
00001000
00000000
,  // measure 16
00000020
00000000
00000000
00000000
,  // measure 17
00000000
00000000
00000030
00000000
,  // measure 18
00001000
00000000
00000000
00000000
,  // measure 19
00010000
00000000
00000000
00000000
,  // measure 20
01000000
00100000
01000000
00000000
,  // measure 21
20020000
00000000
30030000
00000000
,  // measure 22
10000000
00000000
01010000
00000000
,  // measure 23
00022000
00000000
00033000
00000000
,  // measure 24
00000010
00001000
00000200
00000300
,  // measure 25
00000010
00000001
00000200
00000300
,  // measure 26
00010000
00001000
02000000
03000000
,  // measure 27
00100000
10000000
02000000
03000000
,  // measure 28
00010000
00000000
10000000
00000000
,  // measure 29
00010000
00000000
00100000
00000000
,  // measure 30
00001000
00000000
00010000
00000000
,  // measure 31
00000200
00000000
00000300
00000000
,  // measure 32
00000001
00000100
00001000
00000000
,  // measure 33
00010000
00100000
10000000
00000000
,  // measure 34
10000000
01000000
00010000
00000000
,  // measure 35
00001000
00000010
00000001
00000000
,  // measure 36
00000101
00000000
00001100
00000000
,  // measure 37
00110000
00000000
11000000
00000000
,  // measure 38
00100000
10000000
01000000
00010000
,  // measure 39
20020000
00000000
30030000
00000000
,  // measure 40
10000000
00100000
01010000
00000000
,  // measure 41
00001000
00000000
00000110
00000000
,  // measure 42
00000001
00000100
00001000
00000000
,  // measure 43
00010000
01000000
10000000
00000000
,  // measure 44
00100000
00000000
01010000
00000000
,  // measure 45
00011000
00000000
00001010
00000000
,  // measure 46
00000001
00000100
00001000
00000100
,  // measure 47
00000001
00000010
00000100
00001000
,  // measure 48
00010000
00000000
00011000
00000000
,  // measure 49
00110000
00000000
11000000
00000000
,  // measure 50
00100000
10000000
01000000
10000000
,  // measure 51
00100000
00010000
00001000
00010000
,  // measure 52
00000100
00000000
00001100
00000000
,  // measure 53
00000011
00000000
00000110
00000000
,  // measure 54
00000001
00000100
00001000
00000000
,  // measure 55
00010000
01000000
10000000
00000000
,  // measure 56
00200000
00000000
00000000
00300000
,  // measure 57
00001000
00010000
00000100
00010000
,  // measure 58
00001000
00100000
00010000
01000000
,  // measure 59
10000000
01000000
00010000
00100000
,  // measure 60
00002000
00003000
00020000
00030000
,  // measure 61
00000100
00001000
00000010
00001000
,  // measure 62
00000100
00000001
00000100
00001000
,  // measure 63
00000010
00010000
00001000
00000000
,  // measure 64
00220000
00330000
22000000
33000000
,  // measure 65
00100000
10000000
01000000
10000000
,  // measure 66
00100000
00010000
01000000
00001000
,  // measure 67
00010000
00000100
00001000
00000001
,  // measure 68
00000200
00000300
00020000
00030000
,  // measure 69
00001000
01000000
00010000
01000000
,  // measure 70
00100000
00100000
00100000
00100000
,  // measure 71
20020000
00000000
00000000
30030000
,  // measure 72
11000000
00000000
00110000
00000000
,  // measure 73
00001100
00000000
00000011
00000000
,  // measure 74
00000001
00000100
00001000
00000100
,  // measure 75
00000001
00000010
00000100
00001000
,  // measure 76
00010000
00001000
00100000
00010000
,  // measure 77
01000000
00100000
10000000
00010000
,  // measure 78
11000000
00000000
00110000
00000000
,  // measure 79
00001100
00000000
00000010
00000000
,  // measure 80
00000001
00000000
00000100
00000000
,  // measure 81
00010000
00000000
00002000
00000000
,  // measure 82
00020000
00000000
00000000
00033000
,  // measure 83
00100000
00010000
02000000
03000000
,  // measure 84
10100000
01010000
10000000
01000000
,  // measure 85
00100000
00001000
00010000
00000100
,  // measure 86
00001100
00000011
00000001
00000100
,  // measure 87
00001000
00000100
00010000
00001000
,  // measure 88
00110000
01100000
10000000
00100000
,  // measure 89
01000000
00001000
00010000
00000100
,  // measure 90
00001100
00001100
00000101
00000101
,  // measure 91
00000010
00001000
00000100
00010000
,  // measure 92
00011000
00011000
00110000
00110000
,  // measure 93
00010000
01000000
00100000
10000000
,  // measure 94
11000000
11000000
00110000
00110000
,  // measure 95
00011000
00011000
00001100
00001100
,  // measure 96
00000011
00000011
00001010
00001010
,  // measure 97
00011000
00011000
00110000
00110000
,  // measure 98
11000000
11000000
00110000
00110000
,  // measure 99
00001000
00010000
00001000
00010000
,  // measure 100
00022000
00000000
00000000
00000000
,  // measure 101
00033000
00000000
00000000
00000000
;
