#TITLE:Afterlife;
#SUBTITLE:;
#ARTIST:Symphonian;
#TITLETRANSLIT:;
#SUBTITLETRANSLIT:;
#ARTISTTRANSLIT:;
#GENRE:;
#CREDIT:;
#BANNER:Afterlife.png;
#BACKGROUND:Afterlife-bg.png;
#LYRICSPATH:;
#CDTITLE:;
#MUSIC:Afterlife.ogg;
#OFFSET:0.000000;
#SAMPLESTART:73.839996;
#SAMPLELENGTH:15.000000;
#SELECTABLE:YES;
#DISPLAYBPM:130.000000;
#BPMS:0.000000=130.000000
;
#STOPS:
;
#BGCHANGES:0.000=Afterlife.avi=1.000=0=0=0=StretchNoLoop====,
99999=-nosongbg-=1.000=0=0=0 // don't automatically add -songbackground-
;
#KEYSOUNDS:;
#ATTACKS:;

//---------------dance-single - ----------------
#NOTES:
     dance-single:
     :
     Challenge:
     13:
     0.474746,0.610834,0.203611,0.290873,0.221791,457.000000,429.000000,28.000000,40.000000,0.000000,0.000000,0.474746,0.610834,0.203611,0.290873,0.221791,457.000000,429.000000,28.000000,40.000000,0.000000,0.000000:
0000
0000
0000
0000
,
0000
0000
0000
0000
,
0000
0000
0000
0000
,
0000
0000
0000
0000
,
2002
0000
0000
0000
3003
0010
0100
2002
,
0000
0000
0000
3003
0110
0000
1000
0002
,
1000
1000
1000
1000
,
2000
0000
0000
3003
,
0010
1000
0100
1000
0000
0001
0100
0001
,
0000
0010
1000
0000
0010
0001
0100
0001
,
0010
0000
0100
0001
0000
0010
1000
0100
,
0000
1000
0010
0000
0001
0100
0010
1000
,
0000
0100
0001
0001
0000
1000
0100
1000
,
0000
0100
0001
0100
0001
1000
0001
1000
,
0000
0001
0100
0010
0000
0010
1000
0200
,
0000
0000
0000
0000
0000
0000
1300
0010
1000
0000
0000
0000
0001
0000
0000
0000
,
1000
0010
1000
0010
0100
0001
0100
0001
,
0000
1000
0100
0010
0001
0010
0100
1000
,
0001
0100
0001
0100
0010
1000
0010
1000
,
0000
0001
0100
0010
1000
0010
0100
0001
,
0000
1000
0001
0100
0000
0010
1000
0001
,
0000
1000
0100
0010
0000
0010
0001
0100
,
0000
1001
0000
0010
0100
1000
0001
0100
,
0000
0011
0000
1000
0010
0100
0001
1000
,
0002
0100
0000
0103
0010
1000
0100
2000
,
0000
0010
0000
3001
0000
0100
0010
2000
,
0000
3001
0000
0001
0100
0010
1000
0101
,
0000
1000
0010
0100
0000
0001
1000
0010
,
1000
0010
1000
0010
1000
0000
0001
0000
0100
0001
0100
0000
,
0001
1000
0001
1000
0001
0000
1000
0000
0010
0000
1000
0000
,
2002
0000
0000
0000
0000
0000
3003
0110
,
0000
0001
0010
0100
0000
1000
0010
0100
,
0010
0000
1000
0000
0010
0100
0000
0010
0000
0000
1000
0000
0100
0000
0010
0000
,
0001
0000
0100
0000
0001
0000
1000
0010
0000
0000
1000
0000
0001
0000
0100
0000
,
0001
1000
0001
0010
1000
0100
0010
0001
,
0001
0010
0100
1000
0001
0010
0100
1000
,
0001
0000
1000
0000
0010
0100
0000
0010
0000
0000
1000
0000
0010
0000
0100
0000
,
0100
0000
0010
0000
1000
0000
0100
1000
0000
0000
0010
0000
0010
0000
0100
0000
,
0001
0000
0010
0000
0001
0000
1000
0010
0000
0000
1000
0000
0010
0000
0100
0002
,
0000
1000
0100
1003
0000
0001
1000
0001
,
1000
0000
0010
0000
0100
0000
0001
0100
0001
0000
0100
0000
0010
0000
1000
0100
,
1000
0000
0010
0000
0100
0000
0001
0100
0001
0000
0010
0000
1000
0000
0010
0000
,
0100
0000
0001
0000
0010
0000
0001
0010
0001
0000
0100
0000
0010
0000
1000
0010
,
1000
0000
0010
0000
0100
0000
0001
0010
0001
0000
0010
0000
0100
0000
1000
0000
,
0010
0000
0100
0000
0010
0000
1000
0100
1000
0000
0010
0000
0100
0000
0001
0010
,
0001
0000
0100
0000
0010
0000
1000
0100
1000
0000
0010
0000
0100
0000
0001
0010
,
0000
0000
0001
0000
0100
0000
0010
1000
0000
0000
0010
0000
0100
0000
0001
0010
,
0001
0010
0001
0010
0001
0010
0002
0000
0000
2003
0000
0000
,
3002
0000
0000
0000
,
0203
0000
0000
0000
0000
0000
0000
0000
0300
0000
0001
0100
0001
0000
0000
0000
,
2001
0100
0010
3001
,
1002
0010
0100
1003
,
1002
0100
0010
1003
,
1002
0103
2001
3100
,
0101
0101
1100
1100
,
0011
0110
1100
0110
,
1010
0011
1010
0011
,
0220
0330
2002
3003
,
0001
0000
0000
0001
0100
0000
0000
0100
1000
0000
0000
1000
0010
0000
1000
0100
,
1000
0000
0000
1000
0100
0000
0000
0100
1000
0000
0000
1000
0010
0000
1000
0001
,
1000
0000
0000
1000
0010
0000
0000
0010
1000
0000
0000
1000
0100
0000
1000
0000
,
0010
0100
0000
0000
0100
0001
0000
0000
0001
1000
0000
0000
1000
0000
0001
0000
,
1000
0010
1000
0000
0010
0000
0100
0000
0001
0100
0001
0000
1000
0000
0010
1000
,
0010
1000
0010
0000
0010
0100
0010
0000
0001
0000
1000
0100
1000
0000
0010
0000
,
0100
0001
0100
0001
0100
0000
0010
0000
1000
0000
0010
0000
0100
0000
0001
0000
,
1000
0100
1000
0000
0010
0000
0100
0000
0001
0010
0001
0000
0100
0010
0100
0000
,
2001
3020
0230
0302
,
0103
0002
2003
3020
,
0130
0002
0023
0230
,
2300
3020
0230
0302
,
0013
0000
0000
0000
;

//---------------dance-single - ----------------
#NOTES:
     dance-single:
     :
     Hard:
     10:
     0.358397,0.432674,0.109077,0.210883,0.101806,345.000000,330.000000,15.000000,29.000000,0.000000,0.000000,0.358397,0.432674,0.109077,0.210883,0.101806,345.000000,330.000000,15.000000,29.000000,0.000000,0.000000:
// measure 0
0000
0000
0000
0000
,  // measure 1
0000
0000
0000
0000
,  // measure 2
0000
0000
0000
0000
,  // measure 3
0000
0000
0000
0000
,  // measure 4
1000
0000
0000
0000
0000
0000
1000
0001
,  // measure 5
0000
0000
0000
0000
0100
0000
0100
0010
,  // measure 6
0000
1000
0001
1000
,  // measure 7
0002
0000
0003
0000
,  // measure 8
1000
0010
1000
0010
0000
0100
0001
0100
,  // measure 9
0000
1000
0100
1000
0100
0000
1000
0000
,  // measure 10
0001
0100
0001
0100
0000
1000
0100
1000
,  // measure 11
0000
0010
0100
0010
0100
0000
0010
0000
,  // measure 12
1000
0000
1001
0000
1000
0100
1000
0000
,  // measure 13
0001
0000
1001
0000
0001
0100
0001
0000
,  // measure 14
1000
0001
1000
0000
0001
1000
0001
0000
,  // measure 15
0100
0010
2002
3003
,  // measure 16
1000
0001
1000
0000
1000
0100
1000
0000
,  // measure 17
0001
0100
0001
0100
0001
0100
0001
0000
,  // measure 18
1000
0010
1000
0000
1000
0001
1000
0000
,  // measure 19
1000
0100
1000
0100
0000
1000
0010
1000
,  // measure 20
0000
0001
0000
0100
0000
0010
1000
0010
,  // measure 21
0000
0100
0000
0001
0000
1000
0001
1000
,  // measure 22
0001
0000
0000
0100
0010
0100
0010
0100
,  // measure 23
0000
0000
0000
0100
0001
0100
0001
0000
,  // measure 24
1000
0000
0000
0001
1000
0001
1000
0001
,  // measure 25
0000
1000
0000
0100
0000
1000
0000
1001
,  // measure 26
0000
1000
0000
0010
0000
0100
0010
0100
,  // measure 27
0000
0001
0100
0001
0000
1000
0100
0000
,  // measure 28
1000
0000
1000
0000
1000
0000
0001
0000
0001
0000
0001
0000
,  // measure 29
1000
0000
0001
0000
1000
0000
0001
0000
0001
0000
0001
0000
,  // measure 30
0200
0000
0000
0000
0300
0000
0000
1001
,  // measure 31
0000
1000
0100
1000
0000
0001
0100
0001
,  // measure 32
0000
0000
1000
0000
0001
0000
0000
0001
0000
0000
1000
0000
0001
0000
1000
0000
,  // measure 33
0001
0000
0000
0000
0100
0000
0000
0100
0000
0000
0000
0000
0010
0000
0000
0000
,  // measure 34
0000
0000
1000
0000
0100
0000
0000
0100
0000
0000
1000
0000
0001
0000
0000
0001
,  // measure 35
0000
0000
1000
0000
0100
0000
0000
0100
0000
0000
1000
0000
0010
0000
1000
0000
,  // measure 36
0000
0000
0001
0000
0100
0000
0000
0100
0000
0000
0001
0000
1000
0000
0001
0000
,  // measure 37
1000
0000
0000
0000
0010
0000
0000
0010
0000
0000
0000
0000
0000
0000
0100
0000
,  // measure 38
0001
0000
0100
0000
0001
0000
0000
0001
0000
0000
1000
0000
0001
0000
0000
0001
,  // measure 39
0000
1000
0100
1000
0000
0010
1000
0010
,  // measure 40
0000
0000
0100
0000
0010
0000
0000
0010
0000
0000
1000
0000
0001
0000
1000
0000
,  // measure 41
0001
0000
0000
0000
0100
0000
0000
0100
0000
0000
0010
0000
1000
0000
0010
0000
,  // measure 42
0000
0000
0001
0000
0010
0000
0000
0010
0000
0000
0001
0000
0100
0000
0000
0100
,  // measure 43
0000
0000
0001
0000
1000
0000
0000
1000
0000
0000
0010
0000
0100
0000
0010
0000
,  // measure 44
0000
0000
1000
0000
0100
0000
0000
0100
0000
0000
1000
0000
0001
0000
1000
0000
,  // measure 45
0001
0000
0000
0000
0100
0000
0000
0100
0000
0000
0001
0000
0100
0000
0001
0000
,  // measure 46
0200
0010
0000
0310
,  // measure 47
0001
0100
0001
0100
0001
0100
0002
0000
0000
2003
0000
0000
,  // measure 48
3020
0000
0000
0030
,  // measure 49
0200
0000
0000
0300
,  // measure 50
1001
2000
3020
0130
,  // measure 51
1001
0002
0203
0310
,  // measure 52
1001
2000
3002
2003
,  // measure 53
3010
0010
0100
0100
,  // measure 54
1000
0100
0010
0001
,  // measure 55
0100
0100
0010
0010
,  // measure 56
0001
0010
0100
1000
,  // measure 57
0110
0000
1001
0000
,  // measure 58
1000
0100
1000
0100
1000
0100
1000
0000
,  // measure 59
0001
0100
0001
0100
0001
0100
0001
0000
,  // measure 60
1000
0001
1000
0001
1000
0001
1000
0000
,  // measure 61
0010
0100
0010
0000
0100
0010
0100
0000
,  // measure 62
0001
0100
0001
0100
0001
0100
0001
0000
,  // measure 63
1000
0100
1000
0100
1000
0100
1000
0000
,  // measure 64
0010
0100
0010
0100
0010
0100
0010
0000
,  // measure 65
1100
1100
0101
0101
,  // measure 66
1001
2000
3002
0203
,  // measure 67
0300
0002
2003
3200
,  // measure 68
0300
0020
2030
3002
,  // measure 69
0203
0320
2030
3002
,  // measure 70
0013
0000
0000
0000
;

//---------------dance-single - ----------------
#NOTES:
     dance-single:
     :
     Medium:
     6:
     0.250359,0.305417,0.043631,0.167252,0.000000,241.000000,235.000000,6.000000,23.000000,0.000000,0.000000,0.250359,0.305417,0.043631,0.167252,0.000000,241.000000,235.000000,6.000000,23.000000,0.000000,0.000000:
0000
0000
0000
0000
,
0000
0000
0000
0000
,
0000
0000
0000
0000
,
0000
0000
0000
0000
,
0010
0000
0000
0000
0000
0000
0100
0100
,
0000
0000
0000
0000
0010
0000
0100
0100
,
0000
0100
0000
0100
,
0200
0000
0300
0000
,
1000
0000
0000
0001
0000
0000
0100
0000
,
0001
0000
0000
1000
0000
0000
0100
0000
,
1000
0000
0000
0100
0000
0000
0001
0000
,
0001
0000
0000
0100
0000
0000
1000
0000
,
0010
0000
0000
0100
0000
0000
0010
0000
,
0100
0000
0000
0010
0000
0000
0100
0000
,
1000
0000
0000
0001
0000
0000
1000
0000
,
0100
0010
2002
3003
,
1000
1000
0001
0001
,
0100
0000
0100
0000
0010
0100
0010
0000
,
0001
0001
1000
1000
,
0010
0100
0010
0000
0100
0000
0100
0000
,
0001
0000
0100
0000
0010
1000
0010
0000
,
1000
0000
0100
0000
0010
0001
0010
0000
,
0001
0000
1000
0000
0010
0100
0010
0000
,
1000
0000
0001
0000
0100
0010
0100
0000
,
1000
0000
0001
0000
0100
0001
0100
0000
,
0001
0010
0100
1000
,
0001
0000
1000
0000
0100
0010
0100
0000
,
0001
0100
0010
1000
,
0002
0003
2000
3000
,
0020
0030
0200
0300
,
2002
0000
0000
0000
3003
0000
0000
0001
,
0000
1000
0100
1000
0000
0010
0100
0000
,
0010
0010
0001
0001
,
0100
0100
1000
0001
,
0010
0010
1000
1000
,
0100
0100
0001
1000
,
0010
0010
1000
0001
,
0100
0100
0001
1000
,
0010
0100
0010
0100
,
1000
0100
0010
1001
,
0010
0001
0010
0000
0100
0000
0100
0000
,
0010
1000
0010
0000
0100
0000
0100
0000
,
1000
0100
1000
0000
0001
0000
0010
0000
,
0001
0100
0001
0000
1000
0000
0010
0000
,
1000
0001
1000
0000
0100
0000
0100
0000
,
0001
1000
0001
0000
0100
0000
0100
0000
,
0220
0000
0000
0330
,
2000
3002
0203
0320
,
2030
0000
3000
0000
,
0002
0000
0003
0000
,
1000
0010
0100
0100
,
0001
0100
0010
0010
,
1000
0100
0010
0001
,
0010
0010
0100
0100
,
0000
0001
1000
0010
,
0100
0100
0010
0010
,
1000
1000
0001
0001
,
0010
0000
1001
0000
,
0100
0100
0001
0001
,
0100
0100
1000
1000
,
0010
0010
1000
1000
,
0010
0010
0001
0001
,
0100
0001
0100
1000
,
0010
0001
0010
1000
,
0100
0100
0010
0010
,
1000
0001
0100
0010
,
2002
0000
0000
3003
,
0200
0000
0000
0300
,
0002
0000
0000
0003
,
0020
0030
0200
0000
,
0300
0000
0000
0000
;

//---------------dance-single - Copied from----------------
#NOTES:
     dance-single:
     Copied from:
     Easy:
     4:
     0.161019,0.229063,0.029087,0.123621,0.000000,155.000000,151.000000,4.000000,17.000000,0.000000,0.000000,0.161019,0.229063,0.029087,0.123621,0.000000,155.000000,151.000000,4.000000,17.000000,0.000000,0.000000:
0000
0000
0000
0000
,
0000
0000
0000
0000
,
0000
0000
0000
0000
,
0000
0000
0000
0000
,
0020
0000
0030
0000
,
0200
0000
0300
0000
,
2002
0000
0000
0000
,
3003
0000
0000
0000
,
0010
0000
0010
0000
,
1000
0001
1000
0000
,
0100
0000
0100
0000
,
1000
0001
1000
0000
,
0010
0000
0010
0000
,
0100
0100
0100
0000
,
1000
0000
0001
0000
,
0100
0010
0100
0000
,
1000
0001
1000
0000
,
0001
1000
0001
0000
,
1000
1000
1000
0000
,
0001
0001
0001
0000
,
0100
0100
0100
0000
,
0010
0010
0010
0000
,
0001
1000
0001
0000
,
1000
0001
1000
0000
,
0010
0000
0100
0000
,
0001
0000
1000
0000
,
0001
0000
1000
0000
,
0100
0000
0010
0000
,
2000
0000
3000
0000
,
0002
0000
0003
0000
,
2002
0000
3003
0000
,
0000
0100
0100
0000
,
0000
0010
0000
0010
,
0000
1000
0000
0001
,
0000
0100
0000
0100
,
0000
0001
0000
1000
,
0000
1000
0001
1000
,
0000
0001
1000
0001
,
0000
1000
0000
0001
,
0000
0100
0100
0100
,
0000
0010
0001
0100
,
0000
0010
1000
0100
,
0000
1000
0001
0010
,
0000
0001
1000
0010
,
0000
0010
0010
0100
,
0000
0100
0100
0010
,
0020
0000
0000
0030
,
2000
3000
0002
0003
,
0020
0000
0000
0000
,
0030
0000
0000
0000
,
0000
0100
0100
0100
,
0000
0010
0010
0010
,
0000
1000
0001
1000
,
0001
0001
1000
1000
,
0000
0100
0100
0100
,
0001
0001
1000
1000
,
0001
1000
0001
1000
,
0010
0000
1001
0000
,
0100
0000
0001
0000
,
0100
0000
1000
0000
,
0010
0000
1000
0000
,
0010
0000
0001
0000
,
0100
0001
0100
0000
,
0100
1000
0100
0000
,
0010
0001
0010
0000
,
0010
1000
0010
0000
,
2002
0000
0000
3003
,
2000
0000
0000
3000
,
0002
0000
0000
0003
,
0200
0000
0000
0000
,
0300
0000
0000
0000
;

//---------------dance-solo - Copied from Copied f----------------
#NOTES:
     dance-solo:
     Copied from Copied f:
     Challenge:
     4:
     0.006233,0.159253,0.007272,0.000000,0.000000,6.000000,1.000000,1.000000,0.000000,0.000000,1.000000,0.006233,0.159253,0.007272,0.000000,0.000000,6.000000,1.000000,1.000000,0.000000,0.000000,1.000000:
000000
000000
000000
000000
,
000000
000000
000000
000000
,
000000
000000
000000
000000
,
000000
000000
000000
000000
,
000000
000000
000000
000000
,
000000
000000
000000
000000
,
000000
000000
000000
000000
,
000000
000000
000000
000000
,
000000
000000
000000
000000
,
000000
000000
000000
000000
,
000000
000000
000000
000000
,
000000
000000
000000
000000
,
000000
000000
000000
000000
,
000000
000000
000000
000000
,
000000
000000
000000
000000
,
000000
000000
000000
000000
,
000000
000000
000000
000000
,
000000
000000
000000
000000
,
000000
000000
000000
000000
,
000000
000000
000000
000000
,
000000
000000
000000
000000
,
000000
000000
000000
000000
,
000000
000000
000000
000000
,
000000
000000
000000
000000
,
000000
000000
000000
000000
,
000000
000000
000000
000000
,
000000
000000
000000
000000
,
000000
000000
000000
000000
,
000000
000000
000000
000000
,
000000
000000
000000
000000
,
000000
000000
000000
000000
,
000000
000000
000000
000000
,
000000
000000
000000
000000
,
000000
000000
000000
000000
,
000000
000000
000000
000000
,
000000
000000
000000
000000
,
000000
000000
000000
000000
,
000000
000000
000000
000000
,
000000
000000
000000
000000
,
000000
000000
000000
000000
,
000000
000000
000000
000000
,
000000
000000
000000
000000
,
000000
000000
000000
000000
,
000000
000000
000000
000000
,
000000
000000
000000
000000
,
000000
000000
000000
000000
,
000000
000000
000000
000000
,
000000
000000
000000
000000
,
000000
000000
000000
000000
,
000000
000000
000000
000000
,
000000
000000
000000
000000
,
000000
000000
000000
000000
,
000000
000000
000000
000000
,
000000
000000
000000
000000
,
000000
000000
000000
000000
,
000000
000000
000000
000000
,
000000
000000
000000
000000
,
000000
000000
000000
000000
,
000000
000000
000000
000000
,
000000
000000
000000
000000
,
000000
000000
000000
000000
,
000000
000000
000000
000000
,
000000
000000
000000
000000
,
000000
000000
000000
000000
,
000000
000000
000000
000000
,
000000
000000
000000
000000
,
000000
000000
000000
000000
,
000000
000000
000000
000000
,
000000
000000
000000
000000
,
000000
000000
000000
000000
,
000000
000000
000000
000000
,
000000
000000
000000
000000
,
000000
000000
000000
000000
,
111111
000000
000000
000000
;

//---------------dance-single - ----------------
#NOTES:
     dance-single:
     :
     Beginner:
     1:
     0.098689,0.143982,0.021815,0.007272,0.000000,95.000000,92.000000,3.000000,1.000000,0.000000,0.000000,0.098689,0.143982,0.021815,0.007272,0.000000,95.000000,92.000000,3.000000,1.000000,0.000000,0.000000:
0000
0000
0000
0000
,
0000
0000
0000
0000
,
0000
0000
0000
0000
,
0000
0000
0000
0000
,
1000
0000
0000
0000
,
0001
0000
0000
0000
,
1001
0000
0000
0000
,
0000
0000
0000
0000
,
1000
0000
0000
0000
,
1000
0000
0000
0000
,
0001
0000
0000
0000
,
0001
0000
0000
0000
,
1000
0000
0000
0000
,
0001
0000
0000
0000
,
1000
0000
1000
0000
,
1000
0000
0000
0000
,
0001
0000
0000
0000
,
1000
0000
0000
0000
,
0001
0000
1000
0000
,
0001
0000
1000
0000
,
0010
0000
0000
0000
,
0100
0000
0000
0000
,
0010
0000
0010
0000
,
0100
0000
0100
0000
,
0001
0000
0000
0000
,
1000
0000
0000
0000
,
0001
0000
1000
0000
,
0001
0000
1000
0000
,
0010
0000
0000
0000
,
0100
0000
0000
0000
,
1001
0000
0000
0000
,
0000
0000
0000
0000
,
0000
0010
0000
0010
,
0000
0010
0000
0010
,
0000
0100
0000
0100
,
0000
0100
0000
0100
,
0000
0001
0000
0001
,
0000
0001
0000
0001
,
0000
1000
0000
1000
,
0000
1000
0000
1000
,
0000
0001
0000
0001
,
0000
1000
0000
1000
,
0000
0001
0000
0001
,
0000
1000
0000
1000
,
0000
0010
0000
0010
,
0000
0100
0000
0000
,
0100
0000
0000
0000
,
0010
0000
0010
0000
,
0020
0000
0000
0000
,
0030
0000
0000
0000
,
1000
0000
0000
0000
,
0001
0000
0000
0000
,
1000
0000
0000
0000
,
0001
0000
1000
0000
,
0010
0000
0000
0000
,
0100
0000
0000
0000
,
0010
0000
0100
0000
,
0010
0000
0100
0000
,
0001
0000
0001
0000
,
1000
0000
1000
0000
,
0001
0000
1000
0000
,
0001
0000
1000
0000
,
0010
0000
0010
0000
,
0100
0000
0100
0000
,
0010
0000
0100
0000
,
0010
0000
0100
0000
,
1001
0000
0000
0000
;
