#TITLE:Afterlife -ANOTHER-;
#SUBTITLE:;
#ARTIST:Symphonian;
#TITLETRANSLIT:;
#SUBTITLETRANSLIT:;
#ARTISTTRANSLIT:;
#GENRE:;
#CREDIT:;
#MENUCOLOR:;
#METERTYPE:DDR;
#BANNER:Afterlife -ANOTHER-.png;
#BACKGROUND:Afterlife -ANOTHER--bg.png;
#LYRICSPATH:;
#CDTITLE:;
#MUSIC:Afterlife -ANOTHER-.ogg;
#OFFSET:0.000;
#SAMPLESTART:73.840;
#SAMPLELENGTH:15.000;
#SELECTABLE:YES;
#LISTSORT:;
#DISPLAYBPM:130.000;
#BPMS:0.000=130.000,120.000=65.000,121.500=130.000,190.500=65.000,193.500=130.000,195.500=65.000,203.500=130.000,219.500=260.000,283.500=130.000;
#STOPS:;
#BGCHANGES:;
#ATTACKS:;

//---------------dance-single - ----------------
#NOTES:
     dance-single:
     :
     Challenge:
     15:
     0.646,0.679,0.152,0.327,0.327: // measure 1
0000
0000
0000
0000
,  // measure 2
0000
0000
0000
0000
,  // measure 3
0000
0000
0000
0000
,  // measure 4
0000
0000
0000
0000
,  // measure 5
2002
0000
0000
0000
3003
0010
0100
2002
,  // measure 6
0000
0000
0000
3003
0110
0000
1000
0002
,  // measure 7
1000
1000
1000
1000
,  // measure 8
2000
0000
0000
3003
,  // measure 9
0010
1000
0100
1100
0000
0010
0001
0100
,  // measure 10
0101
0010
1000
0100
0010
0001
0100
0010
,  // measure 11
1000
0010
0100
0101
0000
0010
1000
1100
,  // measure 12
0000
0010
0001
0100
0010
1000
1100
1000
,  // measure 13
0010
0001
0011
0001
0100
0010
1010
0010
,  // measure 14
0100
0001
0001
0001
0100
0010
1000
1000
,  // measure 15
0010
0100
0011
0001
0010
0100
1000
0100
,  // measure 16
0000
0000
0010
0000
0100
0000
0001
1000
0100
0000
0000
0000
1001
0000
0000
0000
,  // measure 17
1000
0100
1000
0010
0100
0001
0010
0001
,  // measure 18
0100
0000
0010
0000
1000
0000
0001
0000
0100
0000
0010
1000
0010
0000
0100
0000
,  // measure 19
0001
0010
0001
0100
0010
1000
0100
1000
,  // measure 20
0010
0000
0100
0001
0100
0000
0001
0000
0100
0000
0010
0000
1000
0000
0100
0000
,  // measure 21
1000
0000
0010
0100
0001
0000
0100
0000
0010
0000
1000
0010
0100
0000
0001
0000
,  // measure 22
1000
0000
0001
0100
0010
0000
1000
0000
0001
0000
0100
0010
0100
0000
0010
0000
,  // measure 23
1000
0000
0001
0100
0001
0000
1000
0000
0010
0000
0100
0001
0100
0000
0001
0000
,  // measure 24
1000
0100
0010
0001
0100
0100
0010
0010
,  // measure 25
1000
0001
0100
0000
0001
0000
1000
0000
0010
0000
0100
0010
0100
0000
0001
0000
,  // measure 26
1000
0000
0001
0100
0001
0000
1000
0000
0010
0000
0100
0001
0010
0000
0001
0000
,  // measure 27
0100
0000
0010
1000
0100
0000
0010
0001
0100
0000
0010
1000
0100
0000
0010
0000
,  // measure 28
1000
0000
0001
0100
0010
0000
1000
0001
0100
0000
0001
1000
0010
0000
0100
0000
,  // measure 29
1000
0010
0100
0010
1000
0010
0100
0001
0100
0010
0100
0001
,  // measure 30
0010
0001
0100
0010
1000
0010
0100
0001
0100
0010
0100
0000
,  // measure 31
2002
0000
0000
3003
0110
0000
0001
0010
,  // measure 32
0100
0000
0000
0000
1000
0000
0010
0000
0100
0000
0010
0000
1000
0000
0010
0100
,  // measure 33
0000
0010
0000
0000
1000
0000
0100
0000
0010
0000
0001
0000
0100
0000
0001
0000
,  // measure 34
1000
0010
0000
0000
1000
0000
0001
0000
0100
0000
0001
0000
1000
0000
0001
0000
,  // measure 35
0010
1000
0100
0010
0001
0001
0010
0100
,  // measure 36
1000
0000
0001
0010
0100
1000
0001
0010
0100
1000
0001
0000
1000
0000
0010
0100
,  // measure 37
0000
0010
0000
1000
0010
0000
0100
0000
0001
0000
0100
0000
0010
0000
1000
0000
,  // measure 38
0100
1000
0000
0010
1000
0000
0010
0000
0100
0000
0001
0000
0010
0000
0001
0000
,  // measure 39
1000
0010
0000
0010
1000
0000
0010
0000
0100
0002
1000
0000
1000
0000
0100
0000
,  // measure 40
0103
0000
1000
0100
0010
0001
1000
0100
0010
0001
1000
0000
0010
0000
0100
0000
,  // measure 41
0001
0100
0010
0000
0100
0000
0010
0000
1000
0010
0100
0000
0010
0000
0100
0000
,  // measure 42
0001
0100
0001
0000
0010
0000
0001
0000
0010
0001
0100
0000
0001
0000
0010
0000
,  // measure 43
0001
0010
0100
0000
1000
0000
0010
0000
1000
0010
1000
0000
0010
0000
0100
0000
,  // measure 44
0001
0010
0001
0000
0010
0000
0100
0000
1000
0010
0100
0000
0001
0000
0010
0000
,  // measure 45
0001
0100
0010
0000
1000
0000
0100
0000
1000
0001
0010
0000
0001
0000
0100
0000
,  // measure 46
0001
0010
0100
0000
1000
0000
0010
0000
0100
0001
0000
0000
0001
0000
0100
0000
,  // measure 47
0010
0000
0000
1000
0000
0000
0000
0000
0000
0000
0000
0000
0010
0000
0000
0000
0000
0000
0100
0000
0000
0000
0000
0000
0001
0000
0000
0010
0000
0000
0001
0000
0000
0000
0010
0000
0000
0000
0100
0000
0000
0000
1000
0000
0000
0000
0100
0000
,  // measure 48
0000
0010
0000
0002
0000
0000
0000
0000
0000
2003
0000
0000
0000
0000
0000
3002
0000
0000
0000
0000
0000
0000
0000
0000
,  // measure 49
0000
0000
0203
0000
0000
0000
0300
0000
0001
0100
0001
0000
0000
0000
2001
0000
,  // measure 50
0100
0010
3100
1002
0100
0010
0103
2001
,  // measure 51
0100
0010
3001
0201
0310
2100
3001
0110
,  // measure 52
0000
0000
0020
1000
0000
0000
2030
0100
0000
0000
3200
0001
0000
0000
0302
0010
,  // measure 53
0000
0000
0023
0100
0000
0000
0230
1000
0000
0000
2300
0010
0000
0000
3020
0100
,  // measure 54
0000
0000
0230
1000
0000
0000
2300
0001
0000
0000
3002
0100
0000
0000
0203
0010
,  // measure 55
0000
0000
0320
1000
0000
0000
1030
0001
0000
1000
0000
0001
0100
0000
0010
0000
,  // measure 56
0000
1000
0001
0100
0001
1000
0001
1000
,  // measure 57
0010
0100
0010
1000
0100
0010
0001
0000
,  // measure 58
0000
0100
0001
0100
0010
0100
0001
1000
,  // measure 59
0001
1000
0010
1000
0100
0010
0001
0000
,  // measure 60
0000
1000
0010
1000
0100
1000
0010
0100
,  // measure 61
0001
0010
0001
0100
0001
0010
0001
1000
,  // measure 62
0001
1000
0001
1000
0100
1000
0100
0010
,  // measure 63
0001
0010
0001
0100
0010
0100
0010
1000
,  // measure 64
0001
1000
0001
0100
0010
0100
0000
0010
,  // measure 65
0000
0000
0000
1000
0000
0100
0000
1000
0000
0100
0000
0000
1000
0000
0000
0001
0000
0000
0100
0000
0000
0001
0000
0000
,  // measure 66
0100
0010
0100
0001
1000
0001
1000
0010
,  // measure 67
0100
0010
1000
0010
0000
1000
0100
1000
,  // measure 68
0100
1000
0100
0010
0001
0010
0001
1000
,  // measure 69
0100
1000
0100
0010
0001
0010
0001
0100
,  // measure 70
0010
0100
0010
1000
0001
1000
0001
1000
,  // measure 71
0010
0100
0001
1000
0010
0100
0000
1002
,  // measure 72
0000
0203
0000
0320
0000
2030
0000
3001
,  // measure 73
0000
2000
0000
3020
0000
0230
0000
0301
,  // measure 74
0000
2000
0000
3002
0000
0023
0000
0230
,  // measure 75
0000
2300
0000
3020
0000
0230
0000
0300
;

//---------------dance-solo - ----------------
#NOTES:
     dance-solo:
     :
     Challenge:
     1:
     0.006,0.170,0.007,0.000,0.000:
000000
000000
000000
000000
,
000000
000000
000000
000000
,
000000
000000
000000
000000
,
000000
000000
000000
000000
,
000000
000000
000000
000000
,
000000
000000
000000
000000
,
000000
000000
000000
000000
,
000000
000000
000000
000000
,
000000
000000
000000
000000
,
000000
000000
000000
000000
,
000000
000000
000000
000000
,
000000
000000
000000
000000
,
000000
000000
000000
000000
,
000000
000000
000000
000000
,
000000
000000
000000
000000
,
000000
000000
000000
000000
,
000000
000000
000000
000000
,
000000
000000
000000
000000
,
000000
000000
000000
000000
,
000000
000000
000000
000000
,
000000
000000
000000
000000
,
000000
000000
000000
000000
,
000000
000000
000000
000000
,
000000
000000
000000
000000
,
000000
000000
000000
000000
,
000000
000000
000000
000000
,
000000
000000
000000
000000
,
000000
000000
000000
000000
,
000000
000000
000000
000000
,
000000
000000
000000
000000
,
000000
000000
000000
000000
,
000000
000000
000000
000000
,
000000
000000
000000
000000
,
000000
000000
000000
000000
,
000000
000000
000000
000000
,
000000
000000
000000
000000
,
000000
000000
000000
000000
,
000000
000000
000000
000000
,
000000
000000
000000
000000
,
000000
000000
000000
000000
,
000000
000000
000000
000000
,
000000
000000
000000
000000
,
000000
000000
000000
000000
,
000000
000000
000000
000000
,
000000
000000
000000
000000
,
000000
000000
000000
000000
,
000000
000000
000000
000000
,
000000
000000
000000
000000
,
000000
000000
000000
000000
,
000000
000000
000000
000000
,
000000
000000
000000
000000
,
000000
000000
000000
000000
,
000000
000000
000000
000000
,
000000
000000
000000
000000
,
000000
000000
000000
000000
,
000000
000000
000000
000000
,
000000
000000
000000
000000
,
000000
000000
000000
000000
,
000000
000000
000000
000000
,
000000
000000
000000
000000
,
000000
000000
000000
000000
,
000000
000000
000000
000000
,
000000
000000
000000
000000
,
000000
000000
000000
000000
,
000000
000000
000000
000000
,
000000
000000
000000
000000
,
000000
000000
000000
000000
,
000000
000000
000000
000000
,
000000
000000
000000
000000
,
000000
000000
000000
000000
,
000000
000000
000000
000000
,
000000
000000
000000
000000
,
000000
000000
000000
000000
,
000000
000000
000000
000000
,
000000
000000
000000
000000
,
000000
000000
000000
000000
,
000000
000000
000000
000000
,
000000
000000
000000
000000
000000
000000
000000
111111
;

//---------------dance-single - Copied from----------------
#NOTES:
     dance-single:
     Copied from:
     Hard:
     14:
     0.576,0.652,0.138,0.356,0.240:
0000
0000
0000
0000
,
0000
0000
0000
0000
,
0000
0000
0000
0000
,
0000
0000
0000
0000
,
2002
0000
0000
0000
3003
0010
0100
2002
,
0000
0000
0000
3003
0110
0000
1000
0002
,
1000
1000
1000
1000
,
2000
0000
0000
3003
,
0010
0000
1000
0000
0100
0000
1100
0000
0000
0000
0001
0100
0001
0000
0100
0000
,
0000
0010
1000
0100
1000
0010
0100
0001
,
0010
0000
0001
0100
0001
0000
0100
0000
0000
0000
0010
1000
0010
0000
0100
0000
,
0000
1000
0010
0100
0001
0100
0010
1000
,
0001
0100
0101
0001
0000
1000
0100
1000
,
0010
0100
0101
0100
0000
0001
1000
0010
,
1000
0001
0100
0010
0000
0010
1000
0200
,
0000
0000
1000
0000
0000
0000
1300
0010
1000
0000
0000
0000
0101
0000
0000
0000
,
1000
0010
1000
0010
0100
0001
0100
0001
,
0000
1000
0100
0010
0001
0010
0100
1000
,
0001
0100
0001
0100
0010
1000
0010
1000
,
0000
0001
0100
0010
1000
0010
0100
0001
,
0000
1000
0001
0100
0000
0010
1000
0001
,
0000
1000
0100
0010
0000
0010
0001
0100
,
0000
1001
0000
0010
0100
1000
0001
0100
,
0000
0011
0000
1000
0010
0100
0001
1000
,
0002
0100
0000
0103
0010
1000
0100
2000
,
0000
0010
0000
3001
0000
0100
0010
2000
,
0000
3001
0000
0001
0100
0010
1000
0101
,
0000
1000
0010
0100
0000
0001
1000
0010
,
1000
0010
0100
0010
1000
0000
0001
0000
0100
0010
0100
0000
,
0001
0100
0010
0100
0001
0000
1000
0000
0010
0100
0010
0000
,
2002
0000
0000
3003
0110
0000
0001
0010
,
0100
0000
0000
0000
1000
0000
0010
0000
0100
0000
0010
0000
1000
0000
0010
0100
,
0000
0010
0000
0000
1000
0000
0100
0000
0010
0000
0001
0000
0100
0000
0001
0000
,
1000
0010
0000
0000
1000
0000
0001
0000
0100
0000
0001
0000
1000
0000
0001
0000
,
0010
1000
0100
0010
0001
0001
0010
0100
,
1000
0000
0001
0010
0001
1000
0010
0100
0010
0100
0010
0000
1000
0000
0010
0100
,
0000
0010
0000
1000
0010
0000
0100
0000
0001
0000
0100
0000
0010
0000
1000
0000
,
0100
1000
0000
0010
1000
0000
0010
0000
0100
0000
0001
0000
0010
0000
0001
0000
,
1000
0010
0000
0010
1000
0000
0010
0000
0100
0002
1000
0000
1000
0000
0100
0000
,
0103
0000
1000
0001
1000
0001
1000
0001
1000
0001
1000
0000
0010
0000
0100
0000
,
0001
0100
0001
0000
0100
0000
0010
0000
1000
0100
1000
0000
0010
0000
0100
0000
,
0001
0100
0001
0000
0010
0000
1000
0000
0010
0000
0100
0000
0001
0000
0010
0000
,
0001
0010
0001
0000
0100
0000
0010
0000
1000
0010
1000
0000
0010
0000
0100
0000
,
0001
0010
0001
0000
0010
0000
0100
0000
1000
0000
0010
0000
0100
0000
0010
0000
,
1000
0100
1000
0000
0010
0000
0100
0000
0001
0010
0001
0000
0100
0000
0010
0000
,
1000
0100
1000
0000
0010
0000
0100
0000
0001
0010
0000
0000
0001
0000
0100
0000
,
0010
0000
0000
1000
0000
0000
0000
0000
0000
0000
0000
0000
0010
0000
0000
0000
0000
0000
0100
0000
0000
0000
0000
0000
0001
0000
0000
0010
0000
0000
0001
0000
0000
0000
0010
0000
0000
0000
0100
0000
0000
0000
1000
0000
0000
0000
0100
0000
,
0000
0010
0000
0002
0000
0000
0000
0000
0000
2003
0000
0000
0000
0000
0000
3002
0000
0000
0000
0000
0000
0000
0000
0000
,
0000
0000
0203
0000
0000
0000
0300
0000
0001
0100
0001
0000
0000
0000
2001
0000
,
0100
0010
3100
1002
0100
0010
0103
2001
,
0100
0010
3001
0201
0310
2100
3001
0110
,
0000
0000
0020
1000
0000
0000
2030
0100
0000
0000
3200
0001
0000
0000
0302
0010
,
0000
0000
0023
0100
0000
0000
0230
1000
0000
0000
2300
0010
0000
0000
3020
0100
,
0000
0000
0230
1000
0000
0000
2300
0001
0000
0000
3002
0100
0000
0000
0203
0010
,
0000
0000
0320
1000
0000
0000
1030
0001
0000
1000
0000
0001
0100
0000
0010
0000
,
0000
1000
0010
1000
0000
0001
0100
0001
,
0000
1000
0100
1000
0000
0010
0100
0010
,
0000
0001
0100
0001
0000
1000
0100
1000
,
0000
0010
0100
0010
0000
1000
0001
1000
,
0000
0010
0001
0010
0000
0001
0100
0001
,
0000
0100
0010
0100
0000
0010
1000
0100
,
0000
1000
0010
0100
0000
0001
0100
0010
,
0000
0010
1000
0010
0000
0100
0000
0001
,
0000
0010
0001
0100
0001
0010
0000
0100
,
0000
1000
0010
1000
0000
0001
0010
0001
,
0000
0100
0010
0100
0010
0100
0000
0001
,
1000
0001
0000
0100
0010
1000
0010
1000
,
0000
1000
0010
1000
0000
0010
0000
0100
,
0000
0001
0100
0001
0000
1000
0010
1000
,
0100
1000
0000
0010
0001
0010
0000
1000
,
0100
0010
0000
0001
0010
0100
0000
1002
,
0000
0203
0000
0320
0000
2030
0000
3001
,
0000
2000
0000
3020
0000
0230
0000
0301
,
0000
2000
0000
3002
0000
0023
0000
0230
,
0000
2300
0000
3020
0000
0230
0000
0300
;
