#TITLE:AI;
#SUBTITLE:;
#ARTIST:BEMANI Sound Team "Sota F.";
#TITLETRANSLIT:;
#SUBTITLETRANSLIT:;
#ARTISTTRANSLIT:;
#GENRE:;
#CREDIT:;
#BANNER:AI.png;
#BACKGROUND:AI-bg.png;
#LYRICSPATH:;
#CDTITLE:;
#MUSIC:AI.ogg;
#OFFSET:-0.040000;
#SAMPLESTART:68.262001;
#SAMPLELENGTH:13.895000;
#SELECTABLE:YES;
#DISPLAYBPM:95.000000:190.000000;
#BPMS:0.000000=190.000000
,40.000000=380.000000
,42.000000=190.000000
,50.000000=380.000000
,51.000000=190.000000
,52.000000=380.000000
,53.000000=190.000000
,57.000000=380.000000
,58.000000=190.000000
,80.000000=380.000000
,81.000000=190.000000
,132.000000=95.000000
,134.000000=190.000000
,161.500000=95.000000
,163.000000=190.000000
,164.000000=95.000000
,180.000000=49.500000
,180.250000=49.000000
,180.500000=48.000000
,180.750000=47.000000
,181.250000=46.000000
,182.000000=95.000000
,184.000000=190.000000
,256.000000=380.000000
,257.000000=190.000000
;
#STOPS:50.000000=0.158000,
52.000000=0.158000,
57.000000=0.158000,
80.000000=0.158000,
88.000000=0.158000,
103.500000=0.158000,
150.000000=0.158000,
256.000000=0.276000,
256.250000=0.276000,
256.500000=0.276000,
256.750000=0.276000,
258.000000=0.158000,
259.500000=0.158000
;
#BGCHANGES:;
#KEYSOUNDS:;
#ATTACKS:;

//---------------dance-single - ----------------
#NOTES:
     dance-single:
     :
     Hard:
     16:
     0.907510,1.247159,0.602041,0.643561,0.731791,612.000000,554.000000,58.000000,62.000000,0.000000,0.000000,0.907510,1.247159,0.602041,0.643561,0.731791,612.000000,554.000000,58.000000,62.000000,0.000000,0.000000:
0000
0000
0000
0000
,
0000
0000
0000
0000
,
2000
0000
3001
0000
0010
0100
1001
0000
,
1000
0000
0010
1000
0010
0000
1000
0001
1000
0000
0001
0100
0001
0000
0100
0000
,
0010
0100
0010
0100
0020
0000
0030
0000
1000
0001
1000
0001
2000
0000
3000
0000
,
1001
0000
0000
0001
1000
0001
1000
0000
0000
1001
0000
0000
,
1001
0010
0100
0001
,
1000
0010
1000
0000
0001
0100
0001
0000
1000
0100
1000
0000
0001
0010
0001
0000
,
1000
0000
0001
0000
0001
0000
0100
0000
0000
0110
0000
0000
1000
0000
0001
0000
,
0100
0010
0110
0000
0011
0000
1100
0000
,
0002
0000
0000
0000
0000
0000
0000
0000
0103
0000
0000
0000
1000
0100
1000
0000
,
0001
0100
0001
1000
0001
1000
0010
0100
,
0010
0000
0100
0000
0001
0010
0001
0010
0002
0000
0000
0000
1003
0100
1000
0100
,
2000
0000
0000
0000
3001
0000
0010
0000
0200
0000
0000
0310
0100
0000
0100
0000
,
1001
1000
1001
0000
0110
0000
2000
0000
,
3100
0000
0000
0000
0001
0100
0001
0000
1000
0100
1000
0000
0001
0010
0001
0000
,
1000
0010
1000
0000
1001
0000
0001
0000
0010
0000
0110
0000
0010
0000
1000
0000
,
1010
1000
0100
1000
0100
0001
1000
0000
,
1002
0000
0000
0000
0103
0000
0010
0000
1000
0001
1000
0001
1000
0000
0010
0000
,
0100
0000
0001
0000
1000
0100
1000
0100
1000
0000
0010
0000
1000
0000
0001
0000
,
0200
0000
0000
0000
0310
0000
0001
0000
1000
0001
1000
0001
1000
0000
0010
0000
,
0100
0000
0001
0000
1000
0100
1000
0100
1000
0000
0010
0000
0100
0000
0001
0000
,
1001
0000
0100
0000
0010
0000
1000
0100
1000
0100
1000
0000
0010
0000
0100
0000
,
0001
0000
0010
0001
0010
0001
0100
0000
0001
0000
1000
0000
0010
0100
0001
0100
,
0010
0000
1000
0000
0001
0000
0100
0001
0100
0001
0100
0000
0010
0000
1000
0000
,
0010
0000
0100
0001
0100
0001
0100
0000
1000
0010
1000
0010
1000
0000
1001
0000
,
1001
0000
0000
0000
1100
0000
0000
0101
0000
0000
0010
0000
0100
0000
1000
0100
,
1000
0000
0100
1000
0100
0000
1000
0001
1000
0000
0001
0100
0001
0000
1000
0010
,
1000
0000
0000
0000
0000
0000
0000
0000
1000
0000
0000
0000
0100
0000
0000
0000
0000
0000
0000
0000
0100
0000
0000
0000
0001
0000
0000
0000
0000
0000
0000
0000
0001
0000
0000
0000
0100
0000
0000
0000
0000
0000
0010
0000
0000
0100
0000
0000
,
0010
1000
0100
1000
0100
0010
0001
0000
,
2002
0000
3003
0000
0110
0000
0000
0000
1000
0010
1000
0000
0001
0000
0100
0010
,
0100
0000
0000
1100
0000
0000
0101
0000
0000
1100
0000
0000
0100
0000
1000
0000
,
0010
0000
0100
0010
0100
0000
0001
0000
1000
0100
1000
0001
0100
0001
1000
0100
,
2000
0000
0000
3010
1001
0000
1100
0000
,
0001
0000
0100
0000
1000
0000
0100
0000
0001
0000
0100
0010
0100
0000
0001
0000
,
2000
0000
3200
0000
0320
0000
0032
0000
1003
0010
1000
0000
0001
0100
0001
0000
,
1000
0100
1000
0010
0200
0000
0000
0000
0310
0000
1000
0001
1000
0000
0001
0000
,
1000
0000
1001
0000
2002
0000
0000
0000
3003
0000
0110
0000
0010
0000
1000
0001
,
1000
0000
0001
1000
0001
0000
0100
0000
0000
0101
0000
0000
1100
0000
0000
0101
,
0000
0000
0100
0000
1000
0000
0010
0000
0000
0000
0100
0001
0100
0001
0000
1000
,
0100
1000
0000
0010
0100
0010
0200
0000
0000
0000
0001
0000
0310
0000
0000
0000
,
1001
0000
0100
1000
0010
1000
0100
0000
1001
0000
1010
0000
0100
0010
1000
0010
,
0200
0000
0000
0000
0301
0000
0000
1000
0000
0000
0001
0000
0100
0000
0010
0000
2000
0000
0000
0000
3001
0000
0000
0010
0000
0000
0001
0000
0100
0000
0010
0000
,
0100
0000
0000
0000
0001
0000
0100
0000
0010
0000
0000
0000
1001
0000
0000
0000
0100
0010
0100
0000
0010
0000
1000
0000
0001
0000
0010
0000
0100
0000
0000
0000
,
0010
0000
0000
0000
0000
0000
1000
0000
0000
0000
0000
0000
0010
0000
0000
0000
0000
0000
0000
0000
0000
0000
0000
0000
1000
0000
0000
0000
0000
0000
0001
0000
0000
0000
0000
0000
1000
0000
0000
0000
0000
0000
0000
0000
0000
0000
0000
0000
0001
0000
0000
0000
0000
0000
0100
0000
0000
0000
0000
0000
0001
0000
0000
0000
0000
0000
0000
0000
0000
0000
0000
0000
1000
0000
0000
0000
0000
0000
0001
0000
0000
0000
0000
0000
1000
0000
0000
0000
0000
0000
0000
0000
0000
0000
0000
0000
0001
0000
0000
0000
0000
0000
0000
0000
0000
0000
0000
0000
0000
0000
0000
0000
0001
0000
0000
0000
0000
0000
0000
0000
0010
0000
0000
0000
0000
0000
0000
0000
0000
0000
0000
0000
0000
0000
0000
0000
0010
0000
0000
0000
0000
0000
0000
0000
0100
0000
0000
0000
0000
0000
0000
0000
0000
0000
0000
0000
0000
0000
0000
0000
0000
0000
0000
0000
0000
0000
0000
0000
1001
0000
0000
0000
0000
0000
0000
0000
0000
0000
0000
0000
0000
0000
0000
0000
0000
0000
0000
0000
0000
0000
0000
0000
,
1000
0000
0000
0000
0000
0000
0000
0000
0000
0000
0000
0000
0000
0000
0000
0000
0000
0000
0000
0000
0000
0000
0000
0000
0000
0020
0000
0000
0000
0000
0000
0000
0000
0000
0000
0000
0000
0000
0000
0000
0000
0000
0000
0000
0000
0000
0000
0000
1030
0000
0000
0000
0000
0000
0100
0000
0000
0000
0000
0000
0010
0000
0000
0000
0000
0000
0001
0000
0000
0000
0000
0000
0200
0000
0000
0000
0000
0000
0000
0000
0000
0000
0000
0000
0000
0000
0000
0000
0000
0000
0000
0000
0000
0000
0000
0000
0310
0000
0000
0000
0000
0000
0000
0000
0000
0000
0000
0000
1000
0000
0000
0000
0000
0000
0010
0000
0000
0000
0000
0000
0000
0000
0000
0000
0000
0000
1000
0000
0000
0000
0000
0000
0010
0000
0000
0000
0000
0000
0000
0000
0000
0000
0000
0000
2000
0000
0000
0000
0000
0000
0000
0000
0000
0000
0000
0000
0000
0000
0000
0000
0000
0000
0000
0000
0000
0000
0000
0000
3002
0000
0000
0000
0000
0000
0000
0000
0000
0000
0000
0000
0000
0000
0000
0000
0000
0000
0000
0000
0000
0000
0000
0000
,
0103
0000
0001
0100
1000
0000
1001
0000
,
1000
0010
1000
0001
2000
3200
0310
0002
,
0103
0020
2030
3002
0203
0310
0200
0300
,
0001
0100
0001
0100
0000
0001
1000
0001
2000
0000
3020
0000
2030
0000
3002
0000
,
1003
0010
0100
0002
2003
3020
0230
0310
,
1000
0001
1001
0000
0100
0010
1000
1010
,
0000
0101
0000
1100
0000
2000
3002
0203
,
0310
0100
0010
0000
1000
0010
1000
0000
0001
0000
0100
0000
0010
0000
2000
0000
,
0000
3001
0100
0020
0000
1030
1001
0000
,
1100
0000
0100
0001
1000
0100
0000
1100
,
1100
0000
0000
0101
0000
0000
1200
0000
0000
0000
1300
0000
0010
0000
0100
0000
,
0010
0100
0010
0100
0000
0001
0100
0001
0200
0000
0320
0000
2030
0000
3001
0000
,
0000
1000
0001
0200
0320
2030
3020
0130
,
0001
0000
0000
0000
1001
0000
0000
0000
1000
0100
1000
0200
0000
0300
1001
0000
,
0000
1100
0000
0011
0000
0101
0000
0000
,
1000
0100
1000
0100
1000
0010
1000
0010
1000
0000
0001
0000
0010
0000
0200
0000
,
0000
0310
1000
0001
1001
0000
0110
0000
,
1001
0000
0100
0000
0010
1000
0010
1000
0001
0000
0100
0000
0010
1000
0010
1000
,
0000
0000
0000
0000
1000
0010
1000
0010
0200
0000
0301
0010
0001
0010
0002
0000
,
0103
0010
0100
0010
1000
0001
1000
0001
1000
0000
0000
0000
2002
0000
0000
0000
,
0000
0000
0000
3003
;

//---------------dance-single - ----------------
#NOTES:
     dance-single:
     :
     Medium:
     11:
     0.615386,0.727509,0.539761,0.352920,0.103800,415.000000,363.000000,52.000000,34.000000,0.000000,0.000000,0.615386,0.727509,0.539761,0.352920,0.103800,415.000000,363.000000,52.000000,34.000000,0.000000,0.000000:
0000
0000
0000
0000
,
0000
0000
0000
0000
,
1001
0000
0100
0000
0010
1000
0010
0000
,
1000
0100
1000
0000
0101
0000
1100
0000
,
0020
0130
0200
0310
,
1001
1100
0101
1001
,
1001
1100
0002
0203
,
0310
1000
0010
1000
0001
1000
0001
1000
,
0100
0000
2000
0000
0000
0000
3001
0000
0000
0010
0000
0000
0100
0000
0010
0000
,
0100
0010
0010
0000
0101
0000
1100
0000
,
2002
0000
0000
0000
3003
0000
0010
1000
,
0010
0000
1000
0100
1000
0000
0001
0100
,
0001
0000
1000
0100
0020
0000
0030
0000
,
2002
0000
3003
0000
0010
0000
1000
0001
,
0100
0000
0020
0000
0030
0000
1000
0001
,
0100
0000
0010
1000
0010
1000
0001
1000
,
0001
0000
1100
0000
0000
0101
0000
0000
,
1100
0000
0000
0010
0100
0000
0110
0000
,
1001
0000
0100
0010
0100
0010
1000
0001
,
1000
0001
1000
0100
1000
0100
1000
0010
,
2000
0000
3000
0000
0001
0100
0001
0100
,
0010
0000
1000
0010
1000
0010
0100
0010
,
0100
0000
0000
0001
1000
0001
1000
0010
,
1000
0001
0100
0001
0010
0001
0100
0001
,
1000
0001
0001
1000
0010
0100
0100
0010
,
0000
1001
0000
0000
0110
0000
0000
1001
,
1001
0000
0000
0000
0010
0000
0000
0100
0000
0000
0100
0000
0001
0000
0100
0000
,
0010
1000
0010
1000
0001
0100
0001
0100
,
1000
0000
0001
1000
0000
0001
1000
0000
0000
1001
0000
0000
,
1000
1000
1000
1000
1000
0000
1001
0000
,
0220
0330
1001
0000
1000
0001
1000
0001
,
0100
0000
0000
0100
0000
0000
0110
0000
0000
0110
0000
0000
0100
0000
0001
0000
,
1000
0000
0001
0000
0001
0000
0000
0000
1000
0000
0000
1000
0000
0000
0001
0000
,
0200
0000
0000
0310
1001
0000
0100
0000
,
0010
0001
0010
0001
0100
0000
0010
0000
,
1000
0100
1000
0100
2000
3000
0002
0003
,
0100
0010
0200
0300
0001
1000
0001
1000
,
0010
0100
0020
0030
0000
1001
0000
1000
,
0001
0000
1000
0000
0000
0000
0001
0000
0000
0101
0000
0000
0101
0000
0000
0001
,
0000
0100
0010
1000
0000
1000
0100
1000
,
0010
0100
0010
0200
0000
0000
0300
0000
,
1001
0000
0010
0000
1000
0100
1000
0000
0001
0000
0010
0000
0100
0010
0100
0010
,
0100
0000
0001
0100
0000
0000
0000
0000
0010
0000
1000
0010
0000
0000
0000
0000
,
1000
0000
0001
1000
0000
0000
0010
0000
0100
0000
0010
0000
1000
0100
1000
0000
,
0001
0100
0001
0000
1000
0100
1000
0000
0010
0000
0100
0000
0010
0000
1001
0000
,
0200
0000
0000
0000
0000
0000
0000
0000
0000
0000
0000
0000
0000
0000
0000
0000
0000
0000
0000
0000
0000
0000
0000
0000
0000
0020
0000
0000
0000
0000
0000
0000
0000
0000
0000
0000
0000
0000
0000
0000
0000
0000
0000
0000
0000
0000
0000
0000
0000
0000
0000
0000
0000
0000
0000
0000
0000
0000
0000
0000
0000
0000
0000
0000
0000
0000
0000
0000
0000
0000
0000
0000
0330
0000
0000
0000
0000
0000
0000
0000
0000
0000
0000
0000
0000
0000
0000
0000
0000
0000
0000
0000
0000
0000
0000
0000
2000
0000
0000
0000
0000
0000
0000
0000
0000
0000
0000
0000
0000
0000
0000
0000
0000
0000
0000
0000
0000
0000
0000
0000
3000
0000
0000
0000
0000
0000
0000
0000
0000
0000
0000
0000
0000
0000
0000
0000
0000
0000
0000
0000
0000
0000
0000
0000
0002
0000
0000
0000
0000
0000
0000
0000
0000
0000
0000
0000
0000
0000
0000
0000
0000
0000
0000
0000
0000
0000
0000
0000
0003
0000
0000
0000
0000
0000
0000
0000
0000
0000
0000
0000
0000
0000
0000
0000
0000
0000
0000
0000
0000
0000
0000
0000
,
2000
3000
0001
1001
,
0010
0000
1000
0010
1000
0001
0000
1001
,
0000
0001
0010
0100
1000
0000
0001
0000
,
1000
0001
1000
0001
0100
0010
0100
0010
,
0000
1000
0100
1000
0001
0100
0001
0100
,
0010
0000
1001
0000
0010
1000
0001
1000
,
0000
1100
0000
0101
0000
1000
0100
0010
,
0002
0003
2000
3000
0010
0100
0010
0100
,
0000
0001
0100
0001
1000
0000
1001
0000
,
1010
0000
0010
1000
0100
1000
0000
1000
,
0001
0000
0000
1001
0000
0000
1001
0000
0000
0000
0010
0000
0110
0000
0000
0000
,
0002
0003
2000
3000
0010
0100
0001
1000
,
0000
0001
1000
0001
0100
0010
1000
0010
,
0100
0000
0000
0000
1001
0000
0000
0000
0020
0000
0000
0030
0000
0000
1001
0000
,
0000
1010
0000
0101
0000
1000
0100
1000
,
0002
0003
2000
3000
0010
0100
0010
0100
,
0000
0001
0100
1000
0100
0000
1001
0000
,
1100
0000
0101
0000
,
0000
0000
0010
0100
0000
0010
0100
0000
,
1000
0100
0010
0001
0100
0000
2002
0000
,
0000
0000
0000
3003
;

//---------------dance-single - ----------------
#NOTES:
     dance-single:
     :
     Easy:
     8:
     0.435961,0.485006,0.602041,0.467101,0.031140,294.000000,236.000000,58.000000,45.000000,0.000000,0.000000,0.435961,0.485006,0.602041,0.467101,0.031140,294.000000,236.000000,58.000000,45.000000,0.000000,0.000000:
0000
0000
0000
0000
,
0000
0000
0000
0000
,
1001
0100
0010
1000
,
0001
0100
0010
1000
,
0002
0103
2000
3100
,
0002
0010
0100
1003
,
1001
0110
2000
3002
,
1003
0100
1000
0000
0001
0000
0001
0000
,
1000
0010
1000
0000
0010
0000
0100
0000
,
0001
0001
0001
0000
2002
0000
3003
0000
,
0000
0000
0000
1000
,
1001
0020
0230
0302
,
2003
3020
0030
0200
,
0300
0000
0001
0000
1000
0000
0001
1000
,
0001
0000
1001
1100
,
0101
2000
3002
0203
,
0320
0000
1030
0000
0000
0001
0000
0000
,
1001
0000
0000
1001
0000
0000
0010
0000
,
0100
1001
0001
0100
,
0010
1000
0100
0020
,
0030
0000
1000
0001
,
0100
1000
1000
0001
,
0001
0000
0000
0100
0000
0010
0000
1000
,
0000
0001
0000
0001
0000
1000
0000
1000
,
0000
0010
0000
0100
0000
1001
0000
1001
,
0000
0100
0000
0010
0000
1000
0000
1001
,
0000
0011
0000
1100
,
0001
0010
0100
1000
,
0110
0110
1001
1001
,
0010
0010
2002
3003
,
0200
0300
0100
0000
0010
0000
0010
0000
,
1000
0000
0000
1000
0000
0000
0001
0000
0000
0001
0000
0000
0001
0000
0000
0000
,
1000
0000
0000
0000
0100
0000
0000
0000
0001
0000
0000
0001
0000
0000
0000
0000
,
2002
0000
0000
3003
0000
0000
0110
0000
,
1000
0001
0100
0010
,
1000
0000
1001
0000
2000
3000
0002
0003
,
2000
3001
0100
0010
,
0100
0000
0020
0030
0000
0000
0000
0100
,
0000
0000
1001
0000
0000
0000
1000
0000
0000
1000
0000
0000
0001
0000
0000
0001
,
0000
0001
0000
0010
0000
1000
0000
0100
,
0000
0001
0000
2002
0000
3000
0003
0000
,
0110
0000
0010
0000
1000
0100
0001
0000
,
0110
0000
0100
0000
0001
0100
1000
0000
,
1001
0000
0100
0000
0001
0100
0010
0000
,
1001
0000
0010
0000
1000
0010
0100
0000
,
2002
0000
0000
3003
0000
0000
0000
0000
,
0000
0010
0010
1001
,
0010
1000
0010
0001
,
1001
0011
1100
0001
,
1000
0001
0200
0310
,
1100
1100
2002
3003
,
0010
0000
1000
0000
0010
0000
0000
1001
,
0000
1001
0000
0110
0000
0000
1000
0000
,
0002
2003
3010
0110
,
0100
0101
2002
3003
,
1010
0010
1100
1000
,
0001
0000
0000
0001
0000
0000
0001
0000
0000
0000
0000
0000
0110
0000
0000
0000
,
0002
2003
3010
1000
,
0001
1001
1000
1001
,
0001
0000
1000
0000
0020
0000
0030
1001
,
0000
1001
0000
0110
0000
0000
1000
0000
,
0002
2003
3010
0100
,
1000
0100
0001
1001
,
1100
0000
0101
0000
,
0000
0000
0110
0000
0000
1001
0000
0000
,
1000
0001
0000
1000
0001
0000
2002
0000
,
0000
0000
0000
3003
;

//---------------dance-single - ----------------
#NOTES:
     dance-single:
     :
     Beginner:
     4:
     0.200186,0.242503,0.072660,0.103800,0.000000,135.000000,128.000000,7.000000,10.000000,0.000000,0.000000,0.200186,0.242503,0.072660,0.103800,0.000000,135.000000,128.000000,7.000000,10.000000,0.000000,0.000000:
0000
0000
0000
0000
,
0000
0000
0000
0000
,
0000
1001
0000
0000
,
0010
0000
0010
0000
,
0100
0000
0100
0000
,
0001
0001
0001
0000
,
1001
0000
1000
1000
,
0000
0010
0000
0010
,
0010
0000
1000
0000
,
0100
0100
0100
0000
,
0000
0000
0000
0000
,
0001
0000
1000
0000
,
1000
1000
0000
1000
,
0000
1000
1000
1000
,
0000
0000
0000
0001
,
0001
0000
0100
0000
,
0100
0100
0000
0000
,
0010
0000
0000
0100
,
0100
0000
0001
0000
,
1000
0000
0001
0001
,
0000
0000
1000
0000
,
1000
0000
0010
0010
,
0000
0000
0000
0100
0000
0000
0000
0100
,
0000
0000
0000
0010
0000
0000
0000
0010
,
0000
0000
0000
1000
0000
0000
0000
1000
,
0000
0000
0000
0001
0000
0001
0000
0000
,
0000
0100
0000
0010
,
0000
0100
0000
0010
,
0010
0000
1000
0000
,
0001
0001
0001
0000
,
0000
0100
0000
0000
,
2002
0000
3003
0000
,
1000
0000
0001
0000
,
2000
0000
3000
0000
,
0001
0000
0100
0000
,
0100
0000
0010
0010
,
0010
0000
0100
0000
,
0100
0000
0000
0000
0000
0000
0000
1001
,
0000
0000
0000
0020
0000
0000
0000
0000
,
0030
0000
0000
0100
0000
0000
0000
0010
,
0000
0000
0000
0100
0000
0000
0000
0000
,
0000
0001
0000
1000
,
0000
0001
0000
1000
,
0000
0010
0000
0100
,
0000
0010
0010
0010
,
0020
0030
0000
0000
,
0000
1000
1000
1000
,
0000
0001
0000
0100
,
0000
0001
0000
0100
,
0000
0001
0000
1000
,
0000
0001
0000
1000
,
1000
0000
0100
0000
,
0010
0010
0000
0000
,
0100
0000
0001
0000
,
0100
0100
0100
0000
,
0000
0001
0000
1000
,
0000
0000
0000
0100
,
0000
0010
0000
0010
,
0000
0100
0100
0000
,
0001
0000
2000
3000
,
0000
0001
0000
0100
,
0200
0300
0200
0300
,
0000
0010
0010
0010
,
0010
0000
0010
0000
,
0000
0000
0000
0000
1001
0000
0000
1001
,
0000
0000
0000
2002
,
0000
0000
0000
3003
;

//---------------dance-single - ----------------
#NOTES:
     dance-single:
     :
     Challenge:
     18:
     0.953478,1.316445,0.768121,0.487861,0.845971,643.000000,569.000000,74.000000,47.000000,0.000000,0.000000,0.953478,1.316445,0.768121,0.487861,0.845971,643.000000,569.000000,74.000000,47.000000,0.000000,0.000000:
// measure 0
0000
0000
0000
0000
,  // measure 1
0000
0000
0000
0000
,  // measure 2
2000
0000
0000
0000
3010
0000
0001
0100
0010
0000
1000
0000
0202
0000
0303
0000
,  // measure 3
0000
0000
1000
0100
0010
0001
1000
0010
1000
0100
0010
0001
1000
0000
0000
0000
,  // measure 4
0001
0010
1000
0010
0001
0000
0000
0000
1000
0010
0001
0010
1000
0000
0000
0000
,  // measure 5
0012
0000
0000
1003
0100
1000
0020
0000
0000
0130
0000
0000
,  // measure 6
2002
3003
1100
0000
1010
0000
0011
0000
,  // measure 7
1000
0100
0010
0001
1000
0010
0100
0001
1000
0100
0010
0001
1000
0010
0100
0001
,  // measure 8
0010
0000
0002
0000
0000
0000
2003
0000
0000
3020
0000
0000
0230
0000
0301
0000
,  // measure 9
1100
1001
1001
0000
0110
0000
0101
0000
,  // measure 10
0020
0000
0000
0000
0000
0000
0000
0000
0031
0000
0010
0100
1000
0000
0000
0000
,  // measure 11
0110
0000
0000
0000
1000
0100
0010
0001
1000
0010
0100
0001
0010
0100
0010
0001
,  // measure 12
0100
0010
1000
0001
0010
0100
1000
0010
0200
0000
0000
0000
0301
0010
0100
1000
,  // measure 13
0020
0000
0000
0000
0130
0000
0000
0000
0001
0000
1000
0001
1000
0000
0001
0000
,  // measure 14
0110
0000
2002
3003
1100
0000
1010
0000
,  // measure 15
0011
0000
0000
0000
1000
0010
0001
0010
0100
0001
0010
0001
1000
0100
0001
0100
,  // measure 16
1000
0010
0100
0001
1000
0000
0100
0000
0100
0000
0010
0000
0100
0000
0100
0000
,  // measure 17
1010
0000
0100
0000
0100
0000
0001
0000
0101
0000
0000
0000
0010
0000
1000
0100
,  // measure 18
0001
0000
0000
0000
1000
0000
0010
0000
0001
0010
0100
1000
0001
0000
0100
0000
,  // measure 19
1000
0000
0100
0000
0001
0000
0010
0000
0100
0000
1000
0000
0010
0100
0010
0000
,  // measure 20
2000
0000
0000
0000
3001
0010
0001
0000
0100
1000
0100
0000
0001
0000
0010
0000
,  // measure 21
1000
0000
0001
0000
0100
0000
1000
0000
0010
0000
0100
0000
0001
0010
0001
0000
,  // measure 22
0110
0000
1000
0000
0010
0000
0001
0010
1000
0100
0010
0000
0001
0000
0100
0000
,  // measure 23
0010
0000
1000
0000
0100
0000
0001
0000
0100
0000
1000
0010
1000
0000
0202
0000
,  // measure 24
0303
0000
1000
0100
1000
0000
0010
0001
0010
0000
1000
0000
0100
0000
0010
0000
,  // measure 25
0001
0011
1000
1000
0011
1000
1000
0011
,  // measure 26
0011
0000
0000
0000
1010
0000
0000
0202
0000
0000
0303
0000
0001
0010
0100
1000
,  // measure 27
0010
0001
0010
1000
0001
0010
0100
1000
0010
0100
0001
1000
0001
0000
0100
0000
,  // measure 28
0001
0000
0000
0000
0000
0000
0000
0000
0001
0000
0000
0000
0010
0000
0000
0000
0000
0000
0000
0000
0010
0000
0000
0000
0100
0000
0000
0000
0000
0000
0000
0000
0100
0000
0000
0000
1000
0000
0000
0010
0000
0000
0001
0000
0000
0000
0000
0000
,  // measure 29
0010
0010
0010
0010
1000
0200
0000
0310
,  // measure 30
1001
0000
0000
0000
0110
0000
0000
0000
1000
0010
1000
0010
1000
0000
0010
0000
,  // measure 31
0011
0000
0000
1100
0000
0000
1010
0000
0000
0011
0000
0000
0101
0000
0001
0000
,  // measure 32
1000
0000
0010
0000
0010
0000
0100
0000
0001
0010
0100
1000
0001
0010
0100
1000
,  // measure 33
0020
0000
0000
0000
0000
0000
1030
0000
0101
0000
0000
0000
0100
0000
0000
0100
,  // measure 34
0000
0000
0000
0000
0011
0000
0000
0000
0010
0000
1000
0100
0001
0000
1000
0000
,  // measure 35
0020
0000
0032
0000
0203
0000
0320
0000
1030
0100
1000
0000
0001
0100
0001
0000
,  // measure 36
0010
0100
1000
0010
0001
0000
0000
0000
0010
0000
1000
0100
0010
0000
0001
0000
,  // measure 37
0010
0000
0100
0000
2000
0000
3000
0000
1001
0000
0210
0000
0302
0000
0013
0100
,  // measure 38
1000
0000
0022
0000
0033
0000
1100
0000
0000
0101
0000
0000
1010
0000
0000
0010
,  // measure 39
0001
0000
0010
0100
1000
0000
0010
0000
0000
0000
1000
0100
0010
0001
0000
0100
,  // measure 40
0010
1000
0100
0001
0100
1000
0020
0000
0000
0000
0000
0000
0030
0000
0000
0000
,  // measure 41
1010
0000
0001
0000
1000
0100
0001
0000
0020
0000
0130
0000
0001
0100
1000
0000
,  // measure 42
0101
0000
0000
0000
1100
0000
0000
0010
0000
0000
0001
0000
0010
0000
0100
0000
1000
0000
0000
0000
0011
0000
0000
1000
0000
0000
0100
0000
0010
0000
0001
0000
,  // measure 43
1000
0000
0101
0010
1000
0000
0101
0000
1000
0100
0010
0001
1000
0010
0100
0001
,  // measure 44
1000
0000
0000
0000
0000
0000
0000
0000
0100
0000
0000
0000
0000
0000
0000
0000
0010
0000
0000
0000
0000
0000
0000
0000
0001
0000
0000
0000
0000
0000
0000
0000
0000
0000
0000
0000
0100
0000
0000
0000
0000
0000
0000
0000
0000
0000
0000
0000
0001
0000
0000
0000
0000
0000
0010
0000
0000
0000
0000
0000
0100
0000
0000
0000
0000
0000
0000
0000
0000
0000
0000
0000
1000
0000
0000
0000
0000
0000
0100
0000
0000
0000
0000
0000
0010
0000
0000
0000
0000
0000
0000
0000
0000
0000
0000
0000
1001
0000
0000
0000
0000
0000
0000
0000
0000
0000
0000
0000
0000
0000
0000
0000
0001
0000
0000
0000
0000
0000
0000
0000
0100
0000
0000
0000
0000
0000
0000
0000
0000
0000
0000
0000
0000
0000
0000
0000
0100
0000
0000
0000
0000
0000
0000
0000
1000
0000
0000
0000
0000
0000
0000
0000
0000
0000
0000
0000
0000
0000
0000
0000
0000
0000
0000
0000
0000
0000
0000
0000
0101
0000
0000
0000
0000
0000
0000
0000
0000
0000
0000
0000
0000
0000
0000
0000
0000
0000
0000
0000
0000
0000
0000
0000
,  // measure 45
1001
0000
0000
0000
0000
0000
0000
0000
0000
0000
0000
0000
0000
0000
0000
0000
0000
0000
0000
0000
0000
0000
0000
0000
0000
0020
0000
0000
0000
0000
0000
0000
0000
0000
0000
0000
0000
0000
0000
0000
0000
0000
0000
0000
0000
0000
0000
0000
1030
0000
0000
0000
0000
0000
0100
0000
0000
0000
0000
0000
0010
0000
0000
0000
0000
0000
0001
0000
0000
0000
0000
0000
0200
0000
0000
0000
0000
0000
0000
0000
0000
0000
0000
0000
0000
0000
0000
0000
0000
0000
0000
0000
0000
0000
0000
0000
0310
0000
0000
0000
0000
0000
0001
0000
0000
0000
0000
0000
0010
0000
0000
0000
0000
0000
0001
0000
0000
0000
0000
0000
0000
0000
0000
0000
0000
0000
1000
0000
0000
0000
0000
0000
0100
0000
0000
0000
0000
0000
0000
0000
0000
0000
0000
0000
0020
0000
0000
0000
0000
0000
0000
0000
0000
0000
0000
0000
0000
0000
0000
0000
0000
0000
0000
0000
0000
0000
0000
0000
0031
0000
0000
0000
0000
0000
0000
0000
0000
0000
0000
0000
0100
0000
0000
0000
0000
0000
0000
0000
0000
0000
0000
0000
,  // measure 46
2000
0000
3001
0010
0200
0300
1001
0000
,  // measure 47
1001
0000
1000
0000
0001
0000
0100
0000
0001
0010
0001
0000
1000
0100
1000
0000
,  // measure 48
0010
1000
0010
0001
1000
0100
0001
0000
,  // measure 49
1000
0100
0010
0001
1000
0010
0100
0001
0010
0000
0100
0000
1000
0000
0002
0000
,  // measure 50
0000
0000
0013
0000
1000
0000
0001
0100
0001
0000
1000
0000
0010
0000
0100
0000
,  // measure 51
0001
0000
1100
0000
1000
0010
0001
1010
,  // measure 52
0000
0011
0000
0101
0000
0210
0000
0300
,  // measure 53
1000
0001
0100
0000
0001
1000
0100
0000
0001
0000
1000
0010
1000
0000
1001
0000
,  // measure 54
0000
1000
0100
0001
0020
0000
1030
0000
,  // measure 55
0011
0000
0001
0100
0010
1000
0000
1010
,  // measure 56
1100
0000
0000
0011
0000
0000
0220
0000
0000
0330
1000
0001
1000
0000
0001
0000
,  // measure 57
1000
0100
0010
0001
1000
0010
0100
0001
1000
0000
0100
0000
0010
1000
0001
0000
,  // measure 58
0000
0000
0010
1000
0001
0000
0001
0010
0100
0000
1000
0010
0100
0000
0001
0000
,  // measure 59
1001
0000
0001
0000
0011
0000
0000
0000
1000
0001
0000
0001
0000
0000
0110
0000
,  // measure 60
0000
0000
1001
0000
0000
0000
0110
0000
0000
0000
0010
0001
1000
0001
0100
0000
,  // measure 61
0001
0100
0010
1000
0001
0010
0100
1000
0010
0000
1000
0000
0100
0000
0001
0000
,  // measure 62
0000
1000
0010
0001
1000
0000
0010
0000
,  // measure 63
1000
0000
0001
0000
0010
0001
0010
0100
1000
0000
0001
0000
0010
0001
0010
0100
,  // measure 64
0020
0100
0100
0130
0110
0000
0110
0000
1001
0000
0010
1000
0010
1000
0100
0000
,  // measure 65
0010
0001
0100
0000
1001
0000
0010
1000
0100
0000
0000
0000
2002
0000
0000
0000
,  // measure 66
0000
0000
0000
3003
;
