#TITLE:A Lasting Promise;
#SUBTITLE:;
#ARTIST:Laur;
#TITLETRANSLIT:;
#SUBTITLETRANSLIT:;
#ARTISTTRANSLIT:;
#GENRE:;
#CREDIT:;
#BANNER:A Lasting Promise.png;
#BACKGROUND:A Lasting Promise-bg.png;
#LYRICSPATH:;
#CDTITLE:;
#MUSIC:A Lasting Promise.ogg;
#OFFSET:-0.989997;
#SAMPLESTART:66.767776;
#SAMPLELENGTH:12.455554;
#SELECTABLE:YES;
#DISPLAYBPM:67.000000:270.000000;
#BPMS:0.000000=270.000000
,128.000000=67.500000
,129.000000=135.000000
,130.000000=270.000000
,188.000000=135.000000
,192.000000=270.000000
,248.000000=67.500000
,257.000000=200.000000
,258.000000=180.000000
,259.000000=237.000000
,260.000000=270.000000
;
#STOPS:
;
#BGCHANGES:;
#KEYSOUNDS:;
#ATTACKS:;

//---------------dance-single - ----------------
#NOTES:
     dance-single:
     :
     Hard:
     17:
     0.794470,1.280013,0.266409,0.416264,0.220620,668.000000,636.000000,32.000000,50.000000,0.000000,0.000000,0.794470,1.280013,0.266409,0.416264,0.220620,668.000000,636.000000,32.000000,50.000000,0.000000,0.000000:
0000
0000
0000
0000
,
0000
0000
0000
0000
,
0000
0000
0000
0000
,
0000
0000
0000
0000
,
0000
0000
0000
0000
,
0000
0000
0000
0000
,
0000
0000
0000
0000
,
0000
0000
0000
0000
,
1001
0000
1000
0010
0000
1000
0010
0000
,
0100
0001
0010
0001
0100
0001
0010
0000
,
0101
0000
1000
0001
0000
1000
0001
0000
,
1000
0010
0100
0010
1000
0010
0100
0000
,
1001
0000
0010
0100
0000
0010
0100
0000
,
0001
0100
0010
0100
0001
0100
0010
0000
,
0100
0100
0100
0100
,
0100
0000
0000
0001
0100
0001
0100
0000
0000
0000
0000
0000
,
2002
0000
0000
0000
,
0000
0000
3003
0000
,
1001
0000
0000
1000
0000
0100
1000
0100
,
0000
1000
0000
0000
0100
0000
1000
0100
,
0000
1000
0100
0000
1000
0000
1000
0100
,
0000
1000
0100
0000
0100
0000
1000
0010
,
0001
0000
0000
0001
0000
0000
0001
0010
,
0000
0001
0000
0000
0001
0000
0010
0001
,
0100
0010
0100
0001
1000
0001
0100
0010
,
1000
0010
1000
0001
1000
0000
0010
0100
,
0020
2030
3002
2003
,
3001
0010
0100
0000
2002
0000
3003
0000
,
0200
0320
0230
0302
,
1003
0010
0100
0000
1000
0001
1000
0000
,
1000
0100
1000
0000
0100
1000
0100
0000
,
0010
0001
0010
0000
0001
0010
0001
0000
,
0100
0010
1000
0000
2002
0000
3003
0000
,
0100
0010
0100
0010
0100
0010
0100
0010
,
1000
0001
1000
0000
0001
0100
0001
0000
,
1000
0100
1000
0100
1000
0100
1000
0000
,
0001
0100
0010
0000
0100
0001
0010
0000
,
0001
0010
0001
0010
0001
0010
0001
0000
,
0010
0001
0100
0000
0100
0010
1000
0000
,
0101
0000
0000
0000
1010
0000
0000
0000
0101
0000
0000
0000
1000
0000
0001
1000
,
0001
1000
0000
0010
0100
0000
1001
0000
,
1000
0100
1000
0100
1000
0100
1000
0000
,
0010
0100
0001
0000
1000
0001
0100
0000
,
0010
0100
0010
0100
0010
0100
0010
0000
,
1000
0100
0010
0000
0010
0001
0100
0000
,
0001
1000
0001
0100
0001
0010
0001
0000
,
1000
0010
0100
0000
0100
0001
1000
0000
,
0220
0000
0000
0000
0000
0000
0000
0000
0000
0000
0000
0000
0000
0000
0000
0000
0330
0000
1001
0000
0000
1001
0000
0000
,
1000
0001
0100
0000
1000
0000
0001
1000
,
0100
1000
0100
0000
0001
1000
0100
1000
,
0001
0000
0100
0001
0000
1000
0100
0010
,
0002
0000
0103
0110
,
1001
0000
1000
0000
1001
0000
0001
0100
,
0010
1000
0010
0000
1000
0000
0100
1000
,
0200
0000
0300
0000
1001
0000
0010
0001
,
0100
0000
0010
0000
0100
0000
0010
0000
0100
0000
0010
0000
0100
0000
0000
0000
0000
0000
1000
0000
0000
0001
0000
0000
,
0100
0000
0110
0000
1001
0000
0001
0100
,
0010
0100
0001
0000
1001
0000
1000
0100
,
1000
0000
0001
0100
0000
0010
0000
1000
,
0002
0000
0000
0000
0103
0010
1000
0010
,
0100
0000
1001
0000
1001
0000
1000
0001
,
0100
0000
0001
0000
0100
0000
0001
0000
0000
0000
0000
0000
0100
0000
0000
0000
0000
0000
0010
0000
0000
1000
0000
0000
,
0020
0000
0000
0000
0000
0000
0000
0000
2030
0000
0000
0000
0000
0000
0000
0000
3001
0000
0100
0000
0010
0000
1000
0001
1000
0000
0010
0100
0000
0100
0000
0010
,
1000
0000
0000
0000
0000
0000
0000
0000
0000
0000
0000
0000
0000
0000
0000
0000
0000
0000
0000
0000
0000
0000
0000
0000
0001
0000
0000
0000
0000
0000
0000
0000
0010
0000
0000
0000
0000
0000
0000
0000
0100
0000
0000
0000
0000
0000
0000
0000
1000
0000
0000
0000
0000
0000
0000
0000
0000
0000
0000
0000
0000
0000
0000
0000
0000
0000
0000
0000
0000
0000
0000
0000
0000
0000
0000
0000
0000
0000
0000
0000
0000
0000
0000
0000
0100
0000
0000
0000
0000
0000
0010
0000
0000
0000
0000
0000
0002
0000
0000
0000
0000
0000
0000
0000
0000
0000
0000
0000
0000
0000
0000
0000
0000
0000
0000
0000
0000
0000
0000
0000
0000
0000
0000
0000
0000
0000
0000
0000
0000
0000
0000
0000
0103
0000
0000
0000
0000
0000
0010
0000
0000
0000
0000
0000
2000
0000
0000
0000
0000
0000
0000
0000
0000
0000
0000
0000
0000
0000
0000
0000
0000
0000
0000
0000
0000
0000
0000
0000
3020
0000
0000
0000
0000
0000
0000
0000
0000
0000
0000
0000
0000
0000
0000
0000
0000
0000
0000
0000
0000
0000
0000
0000
,
0230
0320
0000
0000
,
2030
0000
0000
0000
3000
0000
0001
0100
,
0020
0000
0000
0000
0030
0000
1000
0001
,
0020
0000
0000
2030
0000
0000
3001
0000
,
0200
0000
0000
0310
0100
0000
0001
1000
,
0001
0100
0010
1000
0001
0100
0010
0000
,
0001
0100
0001
0000
0001
1000
0001
1000
,
0020
0000
0000
0000
0000
0000
0200
0030
,
0010
0010
0010
0310
,
1000
0100
1000
0000
0001
0000
0100
0010
,
0100
0001
0100
0000
0010
0000
0001
0100
,
0010
0000
0000
0000
0001
0100
0001
0000
0000
0000
0100
0001
0100
0000
0000
0000
,
0010
0000
1000
0100
0010
0000
0001
0100
,
0010
0000
0000
0000
1000
0001
1000
0000
0000
0000
0001
1000
0001
0000
0000
0000
,
0100
0110
0110
1000
,
0001
0000
0000
0000
0001
0100
0001
0000
0000
0000
0100
0000
0010
0000
1000
0000
,
0002
0000
0000
0000
2003
0000
3010
0100
,
0001
1000
0100
0000
0100
0000
1000
0001
,
0100
0010
0100
0000
0100
0000
0001
1000
,
0001
0000
0000
0000
1000
0100
1000
0000
0000
0000
0100
1000
0100
0000
0000
0000
,
1000
0001
0200
0000
0310
0000
1000
0001
,
1000
0000
0000
0000
0100
0001
0100
0000
0000
0000
0001
0100
0001
0000
0000
0000
,
2000
3200
0320
1030
,
2002
0000
0000
3003
,
1001
0000
0000
0000
,
0010
1000
0001
0000
0100
0000
0001
1000
,
0010
1000
0001
0000
1000
0000
0010
1000
,
0100
0000
1000
0001
0000
1000
0001
0000
,
0220
0000
0000
0330
,
0001
0100
0010
0100
0001
0100
0010
1000
,
0010
1000
0100
1000
0100
0010
0001
0100
,
0010
1000
0001
1000
0100
0010
0001
0100
,
0010
0000
1000
0100
0010
0001
0100
0001
,
1000
0000
0001
0010
0100
1000
0100
1000
,
0001
0000
1000
0010
0100
0010
1000
0001
,
2000
0000
0000
0000
,
3000
0000
0000
0000
,
0000
0000
0000
0000
,
0000
0000
0000
0000
,
2000
3000
0002
0003
,
0200
0300
0020
0030
,
1000
0100
1000
0001
0100
0001
1000
0100
,
1000
0010
0100
0001
1000
0000
0110
0000
,
1000
0001
1000
0001
1000
0001
1000
0001
,
1000
0001
1000
0001
1000
0001
1000
0001
1000
0001
1000
0001
,
1000
0001
1000
0001
1000
0001
1000
0001
,
1000
0000
0100
0000
0010
0001
0100
0000
,
0100
0010
0100
0010
0100
0010
0100
0010
,
0100
0010
0100
0010
0100
0010
0100
0010
0100
0010
0100
0010
,
0100
0010
0100
0010
0100
0010
0100
0010
,
1000
0001
1000
0001
0100
0010
1000
0000
,
0101
0000
1000
0100
0000
0010
0001
0000
,
0100
0001
0010
0001
0100
0010
1000
0000
,
0001
0000
1000
0100
0000
1000
0010
0000
,
1000
0001
0100
0001
1000
0010
0100
0000
,
0101
0000
1000
0100
0000
0010
0001
0000
,
1000
0100
0010
0001
1000
0001
1000
0000
,
1001
0000
0000
0001
1000
0001
1000
0001
1000
0001
1000
0002
,
2000
0000
0000
0000
,
3003
0000
0000
0000
;

//---------------dance-single - ----------------
#NOTES:
     dance-single:
     :
     Medium:
     13:
     0.529250,0.716807,0.174831,0.566119,0.008325,445.000000,424.000000,21.000000,68.000000,0.000000,0.000000,0.529250,0.716807,0.174831,0.566119,0.008325,445.000000,424.000000,21.000000,68.000000,0.000000,0.000000:
0000
0000
0000
0000
,
0000
0000
0000
0000
,
0000
0000
0000
0000
,
0000
0000
0000
0000
,
0000
0000
0000
0000
,
0000
0000
0000
0000
,
0000
0000
0000
0000
,
0000
0000
0000
0000
,
0001
0000
0100
0010
0000
0100
0010
0000
,
1000
0000
0010
0000
0100
0000
0001
0100
,
0001
0000
1000
0100
0000
1000
0100
0000
,
1000
0000
0010
0000
0100
0000
0001
1000
,
0001
0000
1000
0100
0000
1000
0100
0000
,
1000
0010
0100
0010
,
1000
1000
0001
0001
,
0200
0000
0310
0000
,
2002
0000
0000
0000
,
0000
0000
0000
3003
,
1001
0000
0000
0000
,
0000
0000
0000
0000
,
0000
0000
0000
0000
,
0000
0000
0000
0000
,
0000
0000
0000
0000
,
0000
0000
0000
0000
,
0001
0000
1000
0001
0000
1000
0001
0000
,
0100
0010
0100
0010
0100
0000
0002
0000
,
2000
0000
0000
0000
,
3003
0000
0001
0000
1000
0000
0010
1000
,
0020
0000
0000
0000
,
0030
0000
0000
0000
0100
0000
0010
0100
,
0010
0100
0010
0100
,
0001
0000
1000
0000
0001
1000
0001
0000
,
2000
3000
0000
0000
,
2002
0000
0000
3003
,
0001
0100
0001
0000
1000
0100
1000
0000
,
2002
0000
0000
3003
,
1000
0010
1000
0000
0001
0010
0001
0000
,
2002
0000
0000
3003
,
0100
0010
0100
0000
0010
0100
0010
0000
,
1000
0100
1000
0100
1000
0000
0010
0000
,
0001
0100
0001
0100
0001
0000
0010
0000
,
2002
0000
0000
3003
,
1000
0001
1000
0001
1000
0001
1000
0002
,
2000
0000
0000
3003
,
0001
1000
0001
1000
0001
1000
0001
2000
,
0002
0000
0000
3003
,
0100
0010
0100
0000
0001
0000
1000
0000
,
2002
0000
0000
3003
,
1000
0001
1000
0000
0001
0000
1000
0010
,
0200
0000
1300
0001
,
0100
0000
0001
0100
0000
0001
2000
0000
,
0002
3003
0100
0010
,
2002
0000
0000
0000
3003
0000
0001
0100
,
0002
0103
2000
3100
,
0020
0000
0030
0000
1001
0000
0100
0001
,
0200
0000
0302
0000
,
1003
0000
0100
0000
0010
0000
0001
0100
,
0001
0100
0001
0000
0010
0000
1000
0100
,
1000
0000
0001
0100
0000
0010
0000
0100
,
0002
0000
0000
0000
0103
0000
0010
0100
,
0010
0000
1000
0000
0001
0000
1000
0001
,
2000
0000
3001
0000
1000
0010
1000
0000
,
0200
0000
0000
0000
0320
0000
0000
0000
1030
0000
0000
0001
0100
0000
0010
0000
,
1000
0000
0100
0000
0010
0000
0000
0001
0200
0000
0000
0000
0320
0000
0000
0000
,
2030
0002
0000
3003
,
0220
0000
0000
0000
0330
0000
0001
0100
,
0002
0000
0000
0000
0003
0000
1000
0100
,
1000
0000
0000
1000
0000
0000
0010
0000
,
0200
0000
0301
0000
,
0001
0010
0100
1000
,
0001
1000
0001
0000
1000
0001
1000
0001
,
2000
0000
0000
3002
,
1000
1000
1003
0000
,
0001
0100
0001
0000
0100
0000
0001
0000
,
1000
0100
1000
0000
0100
0000
1000
0000
,
0010
0000
0100
0010
0000
0100
0010
0000
,
1000
0000
0010
0100
0010
0000
0100
0000
,
0001
0000
0100
0001
0000
0100
0001
0000
,
1000
0001
0220
0330
,
0001
0100
0010
1000
,
2002
3003
0220
0330
,
1000
0000
1000
0000
0001
0000
0100
0001
,
0100
0000
0100
0000
0010
0000
1000
0100
,
1000
0000
0001
0100
0000
0001
0100
0000
,
0010
0100
0010
0000
0100
0000
0001
1000
,
0001
0000
1000
0100
0000
1000
0100
0000
,
1000
0010
0100
0001
,
2002
0000
0000
3003
,
1001
0000
0000
0000
,
0010
0000
1000
0000
0010
0000
0100
0010
,
0100
0000
0010
0000
1000
0000
0001
0100
,
0001
0000
0100
0000
0010
0000
0001
0010
,
0001
0000
0010
0000
0001
0100
0001
0000
,
0010
0000
0100
0000
1000
0000
0001
1000
,
0001
0000
0100
0000
1000
0000
0001
1000
,
0001
0100
0010
1000
,
2002
0000
3003
0000
,
0220
0000
0330
0000
,
2002
0000
3003
0000
,
0110
0000
0000
0000
,
0000
0000
0000
0000
,
0000
0000
0000
0000
,
0000
0000
0000
0000
,
0002
0000
0023
0000
,
0230
0000
2300
0000
,
3001
0000
0010
0001
0000
0100
0001
0000
,
2000
0000
3001
0000
,
0001
1000
0001
0000
1000
0001
1000
0000
,
0001
1000
0001
1000
0001
1000
0001
0000
,
0100
0010
0100
0000
0010
0100
0010
0000
,
1000
0100
0010
0001
,
1000
0100
1000
0000
0001
0100
0001
0000
,
1000
0001
1000
0001
1000
0001
1000
0000
,
0010
0100
0010
0000
0100
0010
0100
0000
,
1000
0001
1000
0001
1000
0001
0000
0000
,
0010
0000
0100
0010
0000
0100
0010
0000
,
1000
0001
1000
0000
0001
1000
0001
0000
,
0100
0000
0010
0100
0000
0010
0100
0000
,
0001
1000
0001
0000
1000
0001
1000
0000
,
0001
0000
1000
0100
0000
1000
0100
0000
,
1000
0001
1000
0000
0001
1000
0001
0000
,
0220
0000
0000
0330
,
2002
0000
0000
0000
,
3003
0000
0000
0000
;

//---------------dance-single - ----------------
#NOTES:
     dance-single:
     :
     Beginner:
     6:
     0.261652,0.460805,0.158180,0.316361,0.000000,220.000000,201.000000,19.000000,38.000000,0.000000,0.000000,0.261652,0.460805,0.158180,0.316361,0.000000,220.000000,201.000000,19.000000,38.000000,0.000000,0.000000:
0000
0000
0000
0000
,
0000
0000
0000
0000
,
0000
0000
0000
0000
,
0000
0000
0000
0000
,
0000
0000
0000
0000
,
0000
0000
0000
0000
,
0000
0000
0000
0000
,
0000
0000
0000
0000
,
0001
0000
0000
0001
0000
0000
0001
0000
,
0001
0000
0000
0000
,
1000
0000
0000
1000
0000
0000
1000
0000
,
1000
0000
0000
0000
,
0001
0000
0000
0001
0000
0000
0000
0000
,
1000
0000
1000
0000
,
0010
0000
0100
0000
,
0020
0000
0030
0000
,
2002
0000
0000
0000
,
0000
0000
3003
0000
,
0001
0000
0000
0000
,
0000
0000
0000
0000
,
0000
0000
0000
0000
,
0000
0000
0000
0000
,
0000
0000
0000
0000
,
0000
0000
0000
0000
,
0001
0000
1000
0000
,
2002
0000
3003
0000
,
0010
0000
0010
0000
,
0001
0000
0001
0000
,
0010
0000
0010
0000
,
1000
0000
1000
0000
,
0010
0000
0010
0000
,
1000
0000
0001
0000
,
2002
3003
0000
0000
,
0001
0001
0001
0001
,
0001
0000
1001
0000
,
1000
1000
1000
1000
,
1000
0000
1001
0000
,
0001
0001
0001
0001
,
0001
0000
1001
0000
,
0100
0000
0100
0000
,
0010
0000
0010
0000
,
0100
0100
0100
0100
,
0100
0000
1001
0000
,
0010
0010
0010
0010
,
0010
0000
1001
0000
,
1000
1000
1000
1000
,
1000
0000
1001
0000
,
0002
0000
0003
0000
,
2000
0000
3000
0000
,
0010
0000
0100
0000
,
0001
0000
0000
0001
0000
0000
0000
0000
,
0200
0000
0300
0000
,
0002
0000
0003
0000
,
1000
0000
0001
0000
,
0100
0000
0000
0000
,
0020
0000
0030
0000
,
0200
0000
0300
0000
,
0001
0000
0010
0000
,
1000
0000
0000
0000
,
2002
0000
3003
0000
,
0020
0000
0030
0000
,
0001
0000
1000
0000
,
0200
0310
0100
0100
,
0010
0010
0100
0010
,
0100
0000
0000
0000
,
0020
0000
0030
0000
,
0002
0000
0003
0000
,
0200
0000
0300
0000
,
2000
0000
3000
0000
,
0010
0000
1000
0000
,
0010
0000
0001
0000
,
2002
0000
0000
0000
,
3003
0000
0000
0000
,
0001
0000
0001
0000
,
1000
0000
1000
0000
,
0010
0000
0000
0010
0000
0000
0000
0000
,
0100
0000
0010
0000
,
1000
0000
0001
0000
,
1000
0000
0001
0000
,
0010
0010
0010
0000
,
2002
0000
3003
0000
,
1000
0000
0001
0000
,
1000
0000
0001
0000
,
0010
0000
0000
0010
0000
0000
0000
0000
,
0220
0000
0330
0000
,
0001
0000
1000
0000
,
0001
0001
0001
0000
,
2000
0000
3000
0000
,
1001
0000
0000
0000
,
0010
0000
1000
1000
,
1000
0000
0001
0001
,
0001
0000
0100
0100
,
0100
0000
0010
0010
,
0010
0000
1000
0000
,
0100
0000
0001
0000
,
0020
0000
0030
0000
,
0002
0000
0003
0000
,
0020
0000
0030
0000
,
0200
0000
0300
0000
,
1001
0000
0000
0000
,
0000
0000
0000
0000
,
0000
0000
0000
0000
,
0000
0000
0000
0000
,
0002
0000
0003
0000
,
0200
0000
0300
0000
,
2000
0000
3000
0000
,
0010
0000
0100
0000
,
0001
0001
0001
0001
,
0001
0001
0001
0000
,
1000
1000
1000
1000
,
1000
1000
1000
0000
,
0010
0010
0010
0010
,
0010
0010
0010
0000
,
0100
0100
0100
0100
,
0100
0000
0000
0000
,
0010
0000
0000
0000
,
1001
0000
0000
0000
,
0100
0000
0000
0000
,
1001
0000
0000
0000
,
0010
0000
0000
0000
,
1001
0000
0000
0000
,
0020
0000
0030
0000
,
2002
0000
0000
0000
,
3003
0000
0000
0000
;

//---------------dance-single - ----------------
#NOTES:
     dance-single:
     :
     Easy:
     9:
     0.343715,0.460805,0.149855,0.424590,0.000000,289.000000,271.000000,18.000000,51.000000,0.000000,0.000000,0.343715,0.460805,0.149855,0.424590,0.000000,289.000000,271.000000,18.000000,51.000000,0.000000,0.000000:
0000
0000
0000
0000
,
0000
0000
0000
0000
,
0000
0000
0000
0000
,
0000
0000
0000
0000
,
0000
0000
0000
0000
,
0000
0000
0000
0000
,
0000
0000
0000
0000
,
0000
0000
0000
0000
,
0001
0000
0000
1000
0000
0000
0001
0000
,
0200
0000
1300
0001
,
1000
0000
0000
0001
0000
0000
1000
0000
,
0200
0000
0301
1000
,
0001
0000
0000
0001
0000
0000
1000
0000
,
0100
0000
0100
0000
,
0001
1000
0001
1000
,
0002
0000
0003
0000
,
2002
0000
0000
0000
,
0000
0000
3003
0000
,
1001
0000
0000
0000
,
0000
0000
0000
0000
,
0000
0000
0000
0000
,
0000
0000
0000
0000
,
0000
0000
0000
0000
,
0000
0000
0000
0000
,
0001
0000
0000
1000
0000
0000
0001
0000
,
2002
0000
3003
0000
,
0010
0000
0010
0000
,
1000
0000
0001
0000
,
0010
0000
0010
0000
,
0001
0000
1000
0000
,
0010
0000
0010
0000
,
1000
0000
0001
0000
,
2002
3003
0000
0000
,
0001
0001
0001
0001
,
0010
0010
0100
0100
,
1000
1000
1000
1000
,
0100
0100
0010
0010
,
0001
0001
0001
0001
,
0010
0010
0100
0100
,
1000
0010
0100
0001
,
0010
0010
0010
0000
,
0100
0100
0100
0100
,
1000
0100
0010
0001
,
0010
0010
0010
0010
,
0001
0010
0100
1000
,
1000
1000
1000
1000
,
1000
0000
1001
0000
,
2002
0000
0000
3003
,
2000
0000
3000
0001
,
2000
0000
3001
1000
,
0001
0000
0000
0001
0000
0000
0010
0000
,
0200
0000
0301
0000
,
0002
0000
0003
1000
,
0200
0300
2002
3003
,
0020
0000
0030
0000
,
0220
0000
0330
0000
,
2002
0000
3003
1000
,
0001
0000
0010
1000
,
0001
0000
0000
0100
0000
0000
0000
0000
,
2002
0000
3003
1000
,
0020
0000
0130
0000
,
0002
0000
1003
0000
,
0200
0310
1000
0100
,
0010
0001
0100
0010
,
0100
0000
0000
0000
,
0020
0000
0030
0000
,
2000
0000
3000
0000
,
0200
0000
0300
0000
,
0002
0000
0003
0000
,
0100
0000
1000
0000
,
0010
0000
0001
0000
,
2002
0000
0000
0000
,
3003
0000
0000
0000
,
0001
0100
0001
0000
,
1000
0100
1000
0000
,
0010
0000
0000
0010
0000
0000
0010
0000
,
0100
0000
1001
0000
,
1000
0100
1000
0000
,
0001
0100
0001
0000
,
0010
0100
0010
0100
,
0020
0000
0030
0000
,
1000
0001
0100
0000
,
0001
1000
0100
0000
,
0010
0000
0000
0010
0000
0000
0010
0000
,
0220
0000
0330
0000
,
0001
1000
0100
0000
,
1000
0001
0100
0000
,
2002
0000
3003
0000
,
1001
0000
0000
0000
,
0010
0000
1000
0100
,
0010
0000
0001
0010
,
0100
0000
0100
0010
,
0001
0000
1001
0000
,
0010
1000
1000
0001
,
0010
0001
0001
1000
,
0010
0010
0010
0000
,
0001
0001
0001
0000
,
0100
0100
0100
0000
,
1000
0001
1000
0001
,
1001
0000
0000
0000
,
0000
0000
0000
0000
,
0000
0000
0000
0000
,
0000
0000
0000
0000
,
0002
0000
1003
0000
,
2000
0000
3001
0000
,
0002
0000
1003
0000
,
0010
1000
0100
0000
,
0001
0001
0001
0001
,
0001
0001
0001
0100
,
1000
1000
1000
1000
,
1000
1000
1000
0100
,
0010
0010
0010
0010
,
0010
0010
0010
0001
,
0100
0100
0100
0100
,
0100
0000
1000
0000
,
0010
0000
0000
0010
0000
0000
0010
0000
,
2000
0000
3002
0000
,
0103
0000
0000
0100
0000
0000
0100
0000
,
0002
0000
2003
0000
,
3010
0000
0000
0100
0000
0000
0010
0000
,
2000
0000
3002
0000
,
0023
0000
0000
0030
,
2002
0000
0000
0000
,
3003
0000
0000
0000
;

//---------------dance-single - ----------------
#NOTES:
     dance-single:
     :
     Challenge:
     18:
     1.006170,1.574311,0.574445,0.491192,0.953245,846.000000,777.000000,69.000000,59.000000,0.000000,0.000000,1.006170,1.574311,0.574445,0.491192,0.953245,846.000000,777.000000,69.000000,59.000000,0.000000,0.000000:
// measure 0
0000
0000
0000
0000
,  // measure 1
0000
0000
0000
0000
,  // measure 2
0000
0000
0000
0000
,  // measure 3
0000
0000
0000
0000
,  // measure 4
0000
0000
0000
0000
,  // measure 5
0000
0000
0000
0000
,  // measure 6
0000
0000
0000
0000
,  // measure 7
0000
0000
0000
0000
,  // measure 8
1000
0000
0001
0000
0010
0000
0001
0000
1000
0000
0010
0000
1000
0001
1000
0000
,  // measure 9
0001
0000
0000
0100
0000
0000
0001
0000
0000
1000
0000
0000
0001
0000
0000
0000
0000
0000
1000
0000
0001
0000
1000
0000
,  // measure 10
0001
1000
0010
0100
0001
1000
0100
1000
,  // measure 11
0001
0100
0010
1000
0001
0000
1000
0100
,  // measure 12
0010
0000
0100
0000
1000
0000
0001
0000
0100
0000
0010
0000
0100
0001
0100
0000
,  // measure 13
0010
1000
0100
0010
0001
0000
2000
0000
,  // measure 14
3001
0011
1100
0110
,  // measure 15
1001
0000
0000
1000
0100
0010
0001
0000
0000
0000
0000
0000
,  // measure 16
0010
1000
0010
1000
0001
0100
0001
0100
0010
1000
0010
1000
,  // measure 17
0001
0010
0100
1000
0001
0010
0100
1000
0001
0010
0100
1000
,  // measure 18
0002
0000
0000
1000
0000
0000
1000
1000
,  // measure 19
0000
1000
0000
0000
0100
0000
0100
0000
,  // measure 20
0000
0000
1000
0000
0100
0000
1000
0103
,  // measure 21
0000
1000
0000
0000
0010
0000
1000
0001
,  // measure 22
0020
0000
0000
0001
0000
0000
0001
0001
,  // measure 23
0000
0001
0000
0000
0001
0000
0031
0000
,  // measure 24
1000
0000
1000
0000
0001
0000
1000
0000
1000
0000
0010
0000
1000
0001
1000
0000
,  // measure 25
0010
1000
0100
0010
0002
0000
1003
0010
,  // measure 26
2000
0000
0000
0000
,  // measure 27
0000
0000
0000
0000
0000
0000
3000
0000
0000
0001
0100
0001
,  // measure 28
0200
0000
0000
0000
,  // measure 29
0000
0000
0300
0110
,  // measure 30
0001
0010
1000
0010
0001
0100
0001
0100
,  // measure 31
0001
0100
1000
0100
0001
1000
0100
1000
,  // measure 32
0020
1000
0130
0000
1001
0000
0110
0000
,  // measure 33
1000
0010
1000
0010
1000
0010
0100
0001
0100
0001
0100
0001
,  // measure 34
1000
0000
0000
0000
0001
0100
0001
0000
0100
0000
0020
0000
1030
0000
0000
0000
,  // measure 35
0001
0100
0001
0100
0001
0100
0010
1000
0010
1000
0010
1000
,  // measure 36
0001
0000
1001
0000
0020
0130
0001
1000
,  // measure 37
0010
0100
0010
0100
0010
0100
0001
1000
0001
1000
0001
1000
,  // measure 38
0001
0000
0000
0000
0000
0000
1000
0000
0100
0000
0010
0000
0001
0000
0000
2000
0000
0000
3001
0000
0000
0000
0000
0000
,  // measure 39
0101
0000
0000
0000
0101
0000
0000
0000
0101
0000
0000
0000
0001
0000
0100
0010
,  // measure 40
0100
0001
0000
1000
0100
0000
1100
0000
,  // measure 41
0010
0001
0010
0001
0010
0001
0100
0001
0100
0001
1000
0001
,  // measure 42
1000
0000
0000
0000
0010
0100
0010
0000
1000
0000
0002
0000
0103
0000
0000
0000
,  // measure 43
1000
0010
1000
0010
1000
0001
1000
0001
0100
0001
0100
0001
,  // measure 44
0100
0000
0120
0000
0000
2030
3001
0100
,  // measure 45
0001
0100
0001
0100
0001
0100
0001
1000
0001
1000
0010
1000
,  // measure 46
0010
0000
0000
0000
1000
0001
1000
0000
0010
0000
0200
0000
0310
0000
1000
0000
,  // measure 47
0002
0100
0100
0103
2000
0010
0010
3010
,  // measure 48
1001
0000
0001
0000
0100
0000
0000
0000
1010
0000
0000
0000
0001
0100
0001
0000
,  // measure 49
1000
0100
1000
0000
0010
0000
0000
0000
1010
0000
0000
0000
0001
0000
0100
0000
,  // measure 50
0010
0000
0000
0000
1000
0100
1000
0000
0000
0000
0001
0100
0001
0000
0000
0000
,  // measure 51
2002
3003
0220
0330
,  // measure 52
0001
1000
0100
0000
0110
0000
1000
0001
,  // measure 53
1000
0000
0001
0100
0001
0000
0000
0000
1001
0000
0000
0000
0010
0000
1000
0000
,  // measure 54
0002
0103
2000
3100
,  // measure 55
2002
0000
3003
0000
0110
0000
0100
0010
,  // measure 56
1000
0000
0001
0000
0100
0000
0000
0000
1001
0000
0000
0000
0010
0100
0010
0000
,  // measure 57
0100
0010
0100
0000
0002
0000
0000
0000
2003
0000
0000
0000
3010
0000
0100
0000
,  // measure 58
0001
0000
1000
1001
0000
0101
0000
1000
,  // measure 59
1200
0000
0000
0000
1300
0010
0100
0001
,  // measure 60
1000
0000
0001
0000
0100
0000
0000
0000
0110
0000
0000
0000
0001
0100
0001
0000
,  // measure 61
1000
0001
1000
0000
0010
0000
0000
0000
0110
0000
0000
0000
0001
0000
0100
0000
,  // measure 62
0020
0000
0000
0000
0000
0000
0000
0000
2030
0000
0000
0000
0000
0000
0000
0000
3001
0000
0100
0000
1000
0000
0100
0010
0001
0000
1000
0100
0000
0010
0000
0001
,  // measure 63
0100
0000
0000
0000
0000
0000
0000
0000
0000
0000
0000
0000
0010
0000
0000
0000
0000
0000
1000
0000
0000
0000
0000
0000
0001
0000
0000
0000
0000
0000
0000
0000
0010
0000
0000
0000
0000
0000
0000
0000
0100
0000
0000
0000
0000
0000
0000
0000
1000
0000
0000
0000
0000
0000
0000
0000
0000
0000
0000
0000
0000
0000
0000
0000
0000
0000
0000
0000
0000
0000
0000
0000
0000
0000
0000
0000
0000
0000
0000
0000
0000
0000
0000
0000
0001
0000
0000
0000
0000
0000
0010
0000
0000
0000
0000
0000
0100
0000
0000
0000
0000
0000
0000
0000
0000
0000
0000
0000
0001
0000
0000
0000
0000
0000
0000
0000
0000
0000
0000
0000
0001
0000
0000
0000
0000
0000
0000
0000
0000
0000
0000
0000
1000
0000
0000
0000
0000
0000
0010
0000
0000
0000
0000
0000
0100
0000
0000
0000
0000
0000
0000
0000
0000
0000
0000
0000
0100
0000
0000
0000
0000
0000
0000
0000
0000
0000
0000
0000
0001
0000
0000
0000
0000
0000
0000
0000
0000
0000
0000
0000
1000
0000
0000
0000
0000
0000
0000
0000
0000
0000
0000
0000
,  // measure 64
0200
0320
0000
0030
,  // measure 65
2002
0000
0000
0000
3003
0000
0001
1000
,  // measure 66
2002
0000
0000
0000
3003
0000
1000
0001
,  // measure 67
1001
0000
0010
0100
0001
0000
1100
0000
,  // measure 68
0101
0000
0100
0010
2000
0000
3001
0000
,  // measure 69
0001
0100
0001
0100
0001
0100
0010
1000
0010
1000
0010
1000
,  // measure 70
0001
0010
0100
1000
0100
0010
0001
0010
0100
1000
0010
0100
,  // measure 71
0002
0000
0000
0200
,  // measure 72
0303
1010
0101
1100
,  // measure 73
0002
0000
0100
0000
0100
0000
0000
0000
0100
0000
0000
0000
0103
0000
0001
1000
,  // measure 74
0001
1000
0020
0000
0230
0000
0301
0010
,  // measure 75
0011
0000
0000
0000
1000
0010
1000
0000
0000
0000
0001
0100
0001
0000
0000
0000
,  // measure 76
1000
0000
0020
0000
0130
0000
0001
0100
,  // measure 77
0010
0000
0000
0000
0001
0100
0001
0000
0000
0000
1000
0010
1000
0000
0001
0000
,  // measure 78
1001
1100
0022
0033
,  // measure 79
0110
0000
0000
0000
0001
1000
0001
0000
0000
0000
1000
0000
0010
0000
0100
0000
,  // measure 80
0202
0303
2020
3030
,  // measure 81
0001
0000
0100
0000
0001
0000
0000
0000
1100
0000
0000
0000
0001
0000
0010
0001
,  // measure 82
0010
0001
0100
0000
1001
0000
1000
0100
,  // measure 83
0010
0000
0000
0000
1000
0010
1000
0000
0000
0000
0001
0010
0001
0000
0100
0000
,  // measure 84
0010
2000
3100
0020
,  // measure 85
0031
0000
0000
0000
0100
0010
0100
0000
0000
0000
0001
0100
0001
0000
0000
0000
,  // measure 86
1010
0101
2020
3030
,  // measure 87
0001
0100
0001
0100
0001
0100
0010
1000
0010
1000
0010
1000
,  // measure 88
0002
0023
0230
2300
,  // measure 89
3001
0000
0000
0100
0000
0000
0001
0010
0100
1000
0100
0010
,  // measure 90
0001
0000
0000
1000
0000
0000
0010
0100
0010
0100
0010
0100
,  // measure 91
0010
0000
0000
0000
1000
0100
1000
0000
0000
0000
0001
0100
0001
0000
0000
0000
,  // measure 92
1001
0000
0000
0010
0000
0100
0110
0000
,  // measure 93
1100
0000
0011
0000
1000
0100
0010
0100
,  // measure 94
1000
0000
0011
0000
0001
0100
0010
0100
,  // measure 95
0002
0000
0000
1003
,  // measure 96
0001
0010
0001
0010
0001
0010
0100
1000
0100
1000
0100
1000
,  // measure 97
0001
1000
0001
1000
0010
1000
0001
1000
0001
0100
0001
0100
,  // measure 98
0010
1000
0010
1000
0001
0100
0001
0100
0010
1000
0001
0100
,  // measure 99
0020
0000
0000
1000
,  // measure 100
1000
0000
0000
1000
1000
0000
1000
0000
,  // measure 101
1000
0000
0000
1000
1000
0000
1000
0000
,  // measure 102
1000
0000
0000
1000
1000
0000
2030
0000
,  // measure 103
0001
0000
0000
0001
0001
0000
0001
0000
,  // measure 104
0001
0000
0000
0001
0001
0000
3001
0000
,  // measure 105
0001
0000
0100
0000
0001
0000
1000
0000
0100
0000
1000
0000
0010
0100
0010
0000
,  // measure 106
1000
0010
1000
0001
0100
0010
0110
0000
,  // measure 107
1000
0001
1000
0001
1000
0001
1000
0001
1000
0001
1000
0001
,  // measure 108
0100
0010
0100
0010
0100
0010
0100
0010
0100
0010
0100
0010
,  // measure 109
1000
0100
1000
0100
1000
0100
1000
0100
1000
0100
1000
0100
,  // measure 110
1000
0000
0000
0000
1001
0000
0000
0000
0100
0010
0100
0000
0001
0000
0100
0000
,  // measure 111
0001
0100
0001
0100
0001
0100
0001
0100
0001
0100
0001
0100
,  // measure 112
0010
1000
0010
1000
0010
1000
0010
1000
0010
1000
0010
1000
,  // measure 113
0001
0010
0100
1000
0100
0010
0001
0010
0100
1000
0100
0010
,  // measure 114
0001
0010
0100
1000
0010
0100
0001
0000
,  // measure 115
1001
0000
1000
1100
0000
0001
0011
0000
,  // measure 116
0010
0100
0001
1000
0010
0100
0110
0000
,  // measure 117
0101
0000
1000
1100
0000
0001
0011
0000
,  // measure 118
0001
1000
0100
0000
0001
0010
0011
0000
,  // measure 119
1001
0000
0100
0110
0000
1000
1001
0000
,  // measure 120
0001
0010
0100
0000
0001
0100
0101
0000
,  // measure 121
1100
0000
0000
0000
0001
1000
0001
1000
0001
1000
0001
1000
0001
0000
0000
0000
,  // measure 122
1001
0000
0000
0000
;
